#TITLE:SPEED JAPAN;
#SUBTITLE:;
#ARTIST:WILDSIDE;
#TITLETRANSLIT:;
#SUBTITLETRANSLIT:;
#ARTISTTRANSLIT:;
#GENRE:;
#CREDIT:;
#MENUCOLOR:;
#METERTYPE:DDR;
#BANNER:SPEED JAPAN.png;
#BACKGROUND:SPEED JAPAN-bg.png;
#LYRICSPATH:;
#CDTITLE:CDTitle.png;
#MUSIC:SPEED JAPAN.ogg;
#OFFSET:-0.010;
#SAMPLESTART:42.603;
#SAMPLELENGTH:11.480;
#SELECTABLE:YES;
#LISTSORT:;
#BPMS:0.000=169.000;
#STOPS:68.000=1.065
;
#BGCHANGES:;
#ATTACKS:;

//---------------dance-single - ----------------
#NOTES:
     dance-single:
     :
     Hard:
     9:
     0.741,0.615,0.762,0.057,0.017:
0000
0000
0000
0000
,
0001
0010
0001
1000
0010
1000
0001
1000
,
0100
0100
0100
1000
0001
1000
0100
1000
,
0010
0100
0001
0010
0001
0100
0010
1000
,
0001
0001
0001
1000
0010
1000
0100
1000
,
0010
0100
0001
0010
0001
0100
0010
1000
,
0001
0001
0001
0010
0001
0010
0100
1000
,
0010
1000
0100
0010
0001
0100
0010
1000
,
0100
0100
0100
1000
0010
0100
0001
0010
,
0011
1100
0101
1010
,
1000
1000
1000
0001
0100
0010
1000
0100
,
0010
0001
0010
0001
0010
0000
0001
0100
,
0010
0010
0010
1000
0001
1000
0010
0100
,
0101
1100
0011
1010
,
0001
0001
0001
1000
0010
0100
0001
1000
,
0100
1000
0100
1000
0100
0000
1100
1100
,
0000
0011
0000
0010
0001
0100
0010
0000
,
1001
0000
0001
1000
0100
0000
1000
0001
,
0100
0000
0010
1000
0100
0010
0100
1000
,
0010
0101
0011
1100
,
1010
0000
1001
0000
0101
0000
1000
0100
,
0010
0001
0000
0010
0100
1000
0000
0010
,
0100
0001
0010
0001
0100
0010
0000
1000
,
0100
1000
1100
0000
1010
0000
0101
0000
,
0011
1001
0110
1001
,
0100
2010
3020
0230
,
0301
1000
0100
0010
0001
0100
0010
1000
,
1010
0101
0010
1001
,
0010
0000
1100
0000
0011
0000
0001
1000
,
0100
1000
0100
1000
0001
0000
0000
0000
1000
0000
0000
0000
0001
0000
0010
0000
,
0100
1000
0000
0011
0000
1001
0000
0110
,
0000
0100
0010
1000
0010
0100
0001
0000
,
0001
0010
0000
0101
0000
1010
0000
1001
,
0000
0100
0010
1000
0010
1000
0100
0010
,
0001
0000
1000
0001
0010
0100
1000
0010
,
0100
0101
0010
1001
,
0010
0000
1100
0000
0101
0000
1000
0100
,
0001
0000
1001
0000
1100
0000
1000
0010
,
0100
0001
0010
0011
0000
1001
0000
1100
,
0000
1010
0010
1000
0100
0010
0001
1000
,
0100
1000
0010
0110
0000
1010
0000
0101
,
0000
0020
0000
0130
1000
0100
0010
0001
,
0100
0020
0000
0130
0001
1000
0100
1000
,
0001
0011
0100
1001
,
0010
0000
1100
0000
0101
0000
0010
0100
,
1000
0000
0100
1000
0100
0000
0010
0000
0001
0000
0100
0000
0010
0000
1000
0000
,
0001
1000
0100
0100
0100
1000
0001
1000
,
0100
1000
0010
0100
0001
0010
0001
0100
,
0010
1000
0100
1100
0000
1001
0000
0011
,
0000
0101
0001
0010
0001
0100
0010
1000
,
0001
1000
0100
0100
0100
1000
0001
0010
,
1000
0010
0001
0100
0010
1000
0100
0010
,
0001
1000
0010
1010
0000
1100
0000
0011
,
0000
0001
1001
0000
0101
0000
1100
0000
,
0110
0000
0001
0001
0001
0010
0001
0100
,
0010
1000
0100
1000
0100
1000
0100
0000
,
1000
0100
0010
0010
0010
0100
1000
0100
,
0010
0001
0100
0010
0100
0001
0010
0100
,
1000
0001
0100
0100
0100
0001
1000
0010
,
0100
0001
1000
0001
1000
0001
1000
0000
,
1100
1001
0000
0000
0000
0000
0000
0000
;

//---------------dance-single - ----------------
#NOTES:
     dance-single:
     :
     Easy:
     5:
     0.403,0.479,0.193,0.102,0.000:
0000
0000
0000
0000
,
0010
0001
0100
0001
,
1000
1000
1000
0000
,
1000
0100
0010
0001
,
0010
0010
0010
0000
,
0001
1000
0001
1000
,
0001
0001
0001
0000
,
0100
0001
1000
0001
,
0100
0100
0100
0000
,
1001
0001
0001
0001
,
0010
0100
1000
0001
,
0010
0001
0010
0001
,
0100
0001
0100
0001
,
1001
1000
1000
1000
,
0100
0010
0001
1000
,
0100
1000
0100
1000
,
0010
1000
0010
1000
,
1001
0100
1000
0100
,
0010
0001
0010
0001
,
0100
0010
0010
0100
,
0100
0001
0001
1000
,
1000
1000
0010
0100
,
0001
1000
0100
0010
,
0001
0011
0001
0101
,
0100
0110
0110
0220
,
0330
1001
0001
0100
,
0010
1000
0100
0020
,
0030
1100
1000
0010
,
0000
1001
1000
0001
,
0000
1001
1000
0100
,
0000
0010
0000
0001
0000
0100
0000
0010
,
0000
1000
0001
0100
,
0000
0001
0000
1000
0000
0010
0000
0100
,
0000
0001
0000
0000
0100
0000
0001
0000
,
0000
0010
0000
0000
0100
0000
1000
0000
,
0000
0010
0000
0000
0100
0000
0001
0000
,
0000
1000
0000
0100
0000
0010
0000
0001
,
1000
1001
0001
1000
,
0010
0000
0000
1000
0000
1000
0000
1000
,
0000
0100
1000
0001
,
1000
0000
0000
0100
0000
0100
0000
0100
,
0000
1000
0001
1000
,
0001
1000
0010
0100
,
0000
0001
0001
1000
,
1000
1001
1001
2002
,
3003
1000
0010
0100
,
0001
1000
0100
0010
,
0001
0100
0010
1000
,
0001
0010
0100
1000
,
0100
0010
0001
0100
,
0010
1000
0100
1000
,
0010
1000
0100
0010
,
0100
1000
0100
0010
,
0001
1002
1000
1000
,
1003
1000
0100
0010
,
0001
0020
0001
0001
,
0031
1000
0100
0010
,
0001
0200
0010
0010
,
0310
1000
0010
0100
,
0001
2000
0010
0100
,
0001
0001
3000
0000
0000
0000
0000
0000
;

//---------------dance-single - ----------------
#NOTES:
     dance-single:
     :
     Medium:
     7:
     0.572,0.547,0.648,0.102,0.000:
0000
0000
0000
0000
,
0001
0000
1000
0000
0001
1000
0100
0000
,
1000
0000
0010
0000
0100
0001
0100
0000
,
0001
0000
0010
0000
0001
1000
0010
0000
,
1000
0000
0010
0000
1000
0100
1000
0000
,
0001
0000
0010
0000
0001
0100
0001
0000
,
0010
0000
0100
0000
1000
0010
1000
0000
,
0001
0000
0010
0000
0100
1000
0100
0000
,
1000
0000
0100
0000
0010
0001
0010
0000
,
2001
0001
0010
3001
,
0001
0000
0100
0000
0010
1000
0100
0000
,
0010
0001
0010
0001
0010
0000
0100
0000
,
1000
0100
1000
0000
0010
0000
0100
0000
,
1002
1000
0010
1003
,
0001
0100
0001
0000
0010
0000
0100
0000
,
1000
0001
1000
0001
1000
0000
1000
1001
,
0000
1000
0000
0010
1000
0010
0100
0000
,
1001
1000
1100
0001
,
0101
0000
0010
0000
0110
0000
0100
1000
,
0010
0120
1000
0100
,
1030
0102
0010
0100
,
0013
1000
1100
0010
,
1010
0000
0100
0000
0101
0000
0010
0001
,
0100
0102
0013
2001
,
3100
0000
1010
0000
0011
0000
1000
0100
,
1000
1002
0203
0320
,
1030
0000
0100
0010
0001
0000
0010
0001
,
0100
1001
0010
1001
,
0100
0000
1100
0000
0101
0000
1000
0100
,
0010
0011
0101
0011
,
0001
1000
0000
1010
0000
1100
0000
1010
,
0000
1001
0000
1000
0100
0000
1000
0000
,
0001
0100
0000
0101
0000
0011
0000
0101
,
0000
0001
0000
1000
0100
0000
1000
0000
,
0001
0010
0000
0001
0100
0000
0001
0000
,
1000
1001
0100
1100
,
0010
0000
0011
0000
1010
0000
0001
1000
,
0001
0101
0010
0001
,
1000
0100
0000
1010
0000
1001
0000
0101
,
0000
0010
0000
0001
0010
0000
0001
0000
,
0100
0010
0000
1010
0000
1001
0000
1100
,
0000
1000
0000
0001
0100
0001
1000
0000
,
0001
0010
0000
0001
0010
0001
1000
0000
,
0100
1100
1000
1001
,
0100
0000
0011
0000
1010
0000
0100
1000
,
0001
0000
0010
0001
0010
0000
0001
0000
,
0100
0000
0010
1000
0010
0000
1000
0000
,
0100
0000
1000
0001
1000
0000
0010
0000
,
0100
0000
0001
1000
0000
1001
0000
1100
,
0000
1000
0100
0010
0001
0000
1000
0100
,
1000
0000
0010
0000
0100
0000
0001
1000
,
0001
0000
0010
0000
0100
0000
1000
0001
,
1000
0100
0000
1100
0000
1010
0000
1001
,
0000
0000
0001
0000
0010
0000
0001
0100
,
0001
0000
0010
0100
0000
0110
0000
1100
,
0000
0000
1000
0100
1000
0100
1000
0000
,
0010
1000
0000
0001
0000
0100
0000
0001
,
0010
0001
0010
0100
,
1000
0001
0000
0011
0000
1001
0000
1100
,
0000
0100
1000
0100
1000
0100
1000
0000
,
1000
1001
0000
0000
0000
0000
0000
0000
;

//---------------dance-single - Optional Stepchart----------------
#NOTES:
     dance-single:
     Optional Stepchart:
     Challenge:
     11:
     0.978,1.000,0.887,0.239,0.387:
0000
0000
0000
0000
,
0001
0010
0001
0000
0100
0000
0010
0000
1000
0000
0100
0000
1000
0000
0010
0000
,
0100
0001
0100
0000
0010
0000
0100
0000
0001
0000
0010
0000
0100
0000
1000
0000
,
0001
1000
0001
0000
0010
0000
0001
0000
1000
0000
0010
0000
1000
0000
0001
0000
,
0100
0001
0100
0000
0001
0000
0010
0000
0100
0000
1000
0000
0010
0000
1000
0000
,
0001
0010
0001
0000
0010
0000
0001
0000
1000
0001
1000
0000
0010
0000
1000
0000
,
0100
1000
0100
0000
0010
0000
0100
0000
1000
0001
1000
0000
0010
0000
0100
0000
,
0011
1001
0101
1001
1100
0000
1001
0110
,
0001
0100
0001
0100
0001
0100
0001
0100
0010
1000
0010
1000
0010
1000
0001
1000
,
2001
0000
0001
0000
3001
0000
0010
0001
0100
0010
1000
0100
1000
0000
0001
0000
,
0102
0000
0100
0000
0103
0000
0001
0010
0001
0100
0010
1000
0100
0000
1000
0000
,
2001
0000
0001
0000
0001
3000
0010
0001
0100
0010
1000
0100
0010
0000
0100
0000
,
1200
0000
1000
0000
1000
0300
1000
0100
0010
0001
0010
0100
1000
0000
0010
0000
,
0210
0000
0010
0000
0010
0300
0010
0100
0010
1000
0010
0100
0010
0000
1000
0000
,
2100
0000
0100
0000
0100
3000
0100
0010
0001
0010
0100
0010
0001
0000
0100
0000
,
0001
1000
0001
1000
0001
1000
0001
1000
0010
0000
0000
0000
0110
0000
1001
0000
,
0001
1000
0001
1000
0010
0100
0010
0100
0001
1000
0010
0100
0001
1000
0010
0000
,
1001
0000
0010
1000
1100
0000
0010
0001
,
0101
0000
0010
0001
1000
0100
0001
0100
,
1000
1010
0011
0101
,
1100
0000
0021
0000
0001
0000
0031
0010
,
0001
0100
0010
1000
1100
0000
0010
0001
,
0101
0000
0001
0100
1000
0100
0001
1000
,
0100
1010
1001
0011
,
0101
0000
0011
0000
1010
0000
1000
0100
,
0001
0100
0010
0001
0100
0001
0010
0100
,
1000
0010
1000
0100
0010
0001
1000
0001
,
0200
0000
0001
0301
0010
0001
0100
0010
,
1000
0100
1000
0001
0010
0100
1000
0001
,
1000
0100
0010
0001
2000
0000
0001
0000
3002
0000
0100
0000
0203
0000
0010
0000
,
0310
0110
0100
1100
1000
1001
0001
0101
,
0001
0011
0001
0010
0001
0100
0010
1000
,
0100
1000
0010
1010
1000
1001
0001
0101
,
0100
0101
0001
0010
0001
0100
1000
0100
,
0001
1000
0100
0010
0001
0100
0010
1000
,
0200
0000
1000
1300
0010
0100
0001
0010
,
0001
0100
0010
0110
0000
1010
0000
1001
,
0101
0000
0021
0001
0032
0100
0203
0010
,
0320
0100
0130
0110
0100
0101
0001
1001
,
1000
1010
0010
1000
0100
0010
0100
1000
,
0010
0100
0001
0011
0001
0101
0001
1001
,
1000
2100
0100
3010
0001
0100
1000
0100
,
0002
0000
0013
0001
0100
0010
1000
0100
,
1000
1010
0010
1001
,
0010
0000
0101
0000
1100
0000
0010
0001
,
0100
0000
0001
1000
0001
1000
0001
0000
0100
0000
0010
0000
1000
0000
0001
0000
,
0010
0000
0001
0000
0100
0001
0100
0000
0001
0000
0010
0000
0100
0000
1000
0000
,
0010
0000
0100
0000
0001
1000
0001
0000
0100
0000
0010
0000
1000
0000
0100
0000
,
0010
0100
1000
1010
0000
1001
0000
0011
,
0000
0000
0101
0000
0001
0010
0001
0000
0010
0000
0001
0000
0100
0000
0010
0000
,
1000
0000
0100
0000
1000
0001
1000
0000
0001
0000
0100
0000
1000
0000
0100
0000
,
0001
0000
1000
0000
0010
0100
0010
0000
1000
0000
0100
0000
0010
0000
0001
0000
,
1000
0010
0110
0101
1001
0101
0000
1001
,
0000
0000
0110
0000
2100
0000
0100
0000
3100
0000
1000
0100
1000
0001
1000
0010
,
1000
0100
0010
0011
0001
0101
0001
1001
,
0001
0000
1000
0000
2001
0000
0001
0000
3001
0000
0010
0001
1000
0100
1000
0010
,
0100
0000
0001
0000
0010
0000
0100
0000
1000
0000
0100
0000
1000
0001
1000
0000
,
0001
0000
1000
0000
2100
0000
0100
0000
3100
0000
1000
0100
0010
0001
0100
0010
,
1000
0010
0100
0110
0100
0101
0001
1001
,
0100
0000
0001
0000
1000
0001
1000
0001
1000
0001
1000
0001
1000
0000
0001
0000
,
0110
1001
0000
0000
0000
0000
0000
0000
;

//---------------dance-single - Optional Stepchart----------------
#NOTES:
     dance-single:
     Optional Stepchart:
     Beginner:
     2:
     0.248,0.308,0.182,0.011,0.000:
0000
0000
0000
0000
,
0000
1000
0000
0001
,
0000
1000
0000
0001
,
0000
0100
0000
0010
,
0000
0100
0000
0010
,
0000
1000
0000
1000
,
0000
0001
0000
0001
,
0000
1000
0000
1000
,
0000
0001
0000
0001
,
0001
0000
0010
0000
,
0001
0000
0010
0000
,
0100
0000
1000
0000
,
0100
0000
1000
0000
,
0010
0000
0100
0000
,
0010
0000
0100
0000
,
0001
0001
0001
0000
,
0100
0100
0100
0000
,
1001
0000
1000
0000
,
1000
0000
0010
0000
,
0010
0000
1000
0000
,
1000
1000
1000
1000
,
1000
0000
0100
0000
,
0100
0000
1000
0000
,
1000
0000
0001
0000
,
0001
0001
0001
0001
,
0000
0010
0000
0100
,
0000
0010
0000
0001
,
0000
1001
0000
1001
,
0000
1001
1001
1001
,
0000
0010
0000
0100
,
0000
0001
0001
0001
,
0000
1000
0000
0010
,
0000
0100
0100
0100
,
0000
0010
0000
1000
,
0000
0001
0001
0001
,
0000
1001
0000
1001
,
0000
1001
1001
1001
,
0000
0100
0000
1000
,
0000
0010
0010
0010
,
0000
1000
0000
0100
,
0000
1000
1000
1000
,
0000
0001
0000
0100
,
0000
0010
0010
0010
,
0000
1001
0000
1001
,
0000
1001
1001
1001
,
0000
0010
0010
0000
,
0100
0000
0001
0000
,
1000
0000
0001
0000
,
1000
0000
0100
0000
,
1000
0000
0010
0000
,
0100
0000
0001
0000
,
1000
0000
0001
0000
,
0100
0000
0010
0000
,
1000
1000
0000
0001
,
0000
1000
0000
0001
,
0000
0100
0000
0010
,
0000
0100
0000
0010
,
0000
1000
0000
0001
,
0000
1000
0000
0001
,
0000
0100
0100
0100
,
0200
0300
0000
0000
0000
0000
0000
0000
;
