#TITLE:SEPTEMBER;
#SUBTITLE:;
#ARTIST:DJ SPEEDO;
#TITLETRANSLIT:;
#SUBTITLETRANSLIT:;
#ARTISTTRANSLIT:;
#GENRE:DANCE EXPRESS HI-SPEED;
#CREDIT:;
#MENUCOLOR:;
#NEWMETERSYSTEM:NO;
#BANNER:SEPTEMBER.png;
#BACKGROUND:SEPTEMBER-bg.png;
#LYRICSPATH:;
#CDTITLE:CDTitle.png;
#MUSIC:SEPTEMBER.ogg;
#OFFSET:0.000;
#SAMPLESTART:109.120;
#SAMPLELENGTH:10.760;
#SELECTABLE:YES;
#LISTSORT:;
#BPMS:0.000=178.135;
#STOPS:;
#BGCHANGES:;
#ATTACKS:;

//---------------dance-single - DDRDAIKENKAI----------------
#NOTES:
     dance-single:
     DDRDAIKENKAI:
     Hard:
     9:
     0.728,0.784,0.323,0.838,0.011:
0000
0000
0000
0000
,
0000
0000
0000
0000
,
0000
0000
0000
0000
,
0000
0000
0000
0000
,
0000
0000
0000
0000
,
0000
0000
0000
0000
,
0000
0000
0000
0000
,
0012
0000
0000
0000
0003
0100
0010
1000
,
0020
2030
3020
2030
,
3200
0000
0320
0000
0031
0100
0001
0010
,
0002
0023
0032
0023
,
0230
0000
0320
0000
0130
1000
0010
0100
,
0002
2003
3002
2003
,
3200
0000
0320
0000
0031
1000
0010
0100
,
0002
2003
3002
2003
,
3010
0100
0001
0010
0000
0001
0100
0010
,
1000
0100
0000
1000
0010
0100
0000
0010
,
1000
0100
1000
0002
0000
1003
0100
1000
,
0001
0010
0000
0001
0100
0000
0001
0010
,
0100
1000
0010
0100
0002
0000
1003
0100
,
1000
0001
0000
0010
0001
0000
1000
0100
,
1000
0001
0100
0020
0000
0000
1030
0100
,
0010
0001
0010
0001
0100
0001
0100
0001
,
0100
0010
0100
0010
1000
0010
1000
0100
,
1000
0001
0000
1000
0000
0010
0100
0001
,
0000
0010
0100
1000
0000
0100
0010
0002
,
0000
0203
0000
0310
0000
1000
0100
1000
,
0010
0001
0010
1000
0001
1000
0001
1000
,
1100
0000
0101
0000
0010
0001
0100
0010
,
1000
0100
0001
0200
0000
0000
1300
0010
,
0100
0001
0100
0001
0010
1000
0010
0001
,
1000
1100
0000
0011
0000
1001
0000
0000
,
0120
2030
3001
1002
,
1003
0001
0010
0001
0200
0000
0310
0000
,
1020
0230
0301
1002
,
0013
0000
0001
0000
1000
0000
0100
0000
1000
0000
0000
0001
0100
0000
0010
0000
,
2000
3002
0103
0102
,
0013
0100
1000
0100
0020
0000
0031
1000
,
0010
0100
0010
0100
0001
0010
0001
0010
,
0100
1000
0000
1001
0000
1000
0100
0000
,
0020
0032
1003
1002
,
1003
0001
0100
0010
2000
0000
3010
0000
,
1020
0230
0301
0012
,
0013
0000
0100
0000
1000
0000
0100
0000
0010
0000
0000
0001
0100
0000
0010
0000
,
1020
2030
3001
1002
,
0013
0001
1000
0100
2000
0000
3010
0100
,
0001
0010
0001
0010
0001
0100
0010
1000
,
2200
0000
3000
0000
,
2300
0000
3010
0100
0002
0000
0013
0100
,
0000
0010
0001
0100
0020
0000
1030
0100
,
0020
0000
0031
0100
0020
0000
1030
0100
,
0000
1000
0001
0100
0002
0000
0013
0001
,
2000
0000
3010
1000
0002
0000
1003
0100
,
0000
0010
0001
0020
0000
0000
0031
1000
,
1001
0100
0010
0000
1001
0010
0100
0000
,
1010
1000
0100
0010
1001
0200
0320
0032
,
2003
3002
2003
3002
,
0203
0000
0320
0000
1030
0010
0100
0001
,
2000
3002
2003
3002
,
0203
0000
0302
0000
0103
0001
0010
0100
,
0020
0032
0023
0032
,
0203
0000
0320
0000
1030
0010
0100
0001
,
0020
0032
0023
0032
,
0103
0010
1000
0100
0000
1000
0010
0100
,
0001
0020
0032
0203
0300
0100
0001
0010
,
0000
0010
0100
1000
0000
0100
0010
0002
,
0000
2003
0000
3010
0000
0100
0001
0010
,
0100
1000
0100
0010
0002
0000
1003
0010
,
1000
0100
0000
1000
0000
0010
0100
0001
,
0010
0001
0100
2000
0000
0000
3100
0001
,
0010
0100
0010
0100
1000
0010
1000
0010
,
0100
0001
0100
0001
0100
0010
0100
0001
,
1000
0001
0000
1001
0000
0001
0100
1000
,
0000
1000
0100
0002
0000
0103
0001
1000
,
0020
0000
0130
0000
0001
1000
0100
0010
,
1000
0010
0001
1000
0001
0001
1002
0000
,
1003
0001
0100
0000
0001
0010
0000
0100
,
1000
0100
0010
0002
0000
0000
1003
0001
,
0100
0010
1000
0000
0010
0100
0001
0010
,
0001
0011
0000
1010
0000
1001
0000
0011
,
0000
1100
0000
0110
0000
0011
0000
0000
,
1002
0023
0031
1002
,
1003
0001
0100
0010
2000
0000
3001
0000
,
0012
2003
3010
0120
,
1030
0000
0100
0000
1000
0000
0010
0000
0100
0000
0000
0001
0010
0000
0100
0000
,
0120
0230
1300
1002
,
1003
0100
1000
0001
0020
0000
0031
1000
,
0010
1000
0100
1000
0001
0010
0001
0100
,
0010
1010
0000
1001
0000
0110
0010
0000
,
1000
0100
1000
0100
0010
0100
0001
0100
,
0010
0001
0100
1000
0200
0001
0301
0000
,
0001
0010
0001
0010
0100
0010
1000
0010
,
0001
1000
0100
0001
0200
1000
1300
0000
,
0001
0010
0001
0100
0010
0100
1000
0000
,
0100
0001
0010
0100
0001
0100
1000
0000
,
1001
0100
0010
0000
1001
0010
0100
0000
,
1000
0001
0101
0000
1001
0002
0203
0320
,
1030
0000
0000
0000
;

//---------------dance-single - DDRDAIKENKAI----------------
#NOTES:
     dance-single:
     DDRDAIKENKAI:
     Medium:
     6:
     0.477,0.535,0.051,0.198,0.000:
0000
0000
0000
0000
,
0000
0000
0000
0000
,
0000
0000
0000
0000
,
0000
0000
0000
0000
,
0000
0000
0000
0000
,
0000
0000
0000
0000
,
0000
0000
0000
0000
,
0000
0000
0000
0000
,
0002
1003
0002
1003
,
0100
0000
0010
0000
0001
1000
0001
0000
,
0020
0031
0020
0031
,
0100
0000
0010
0000
0100
0010
0100
0000
,
0002
1003
0002
1003
,
0100
0000
0010
0000
0001
0100
0001
0000
,
0020
0031
0020
0031
,
0100
0000
0010
1000
0000
0001
0100
0000
,
0010
0000
1000
0000
0001
1000
0001
0000
,
0100
0010
1000
0000
,
0001
0000
1000
0000
0010
0100
0010
0000
,
1000
0100
1000
0000
0001
0000
0000
0000
,
0010
0000
0010
0000
0001
1000
0001
0000
,
1000
0100
1000
0000
0001
0000
0000
0000
,
0100
0010
0100
0000
0001
0010
0001
0000
,
1000
0100
1000
0000
0010
0100
0010
0000
,
1000
0001
0100
0010
,
1000
0100
1000
0000
0001
0000
0000
0000
,
1000
0001
0010
0100
,
1000
0001
1000
0000
0010
0000
0000
0000
,
0100
0001
0010
0001
,
0100
0010
0100
0000
0001
0000
0000
0000
,
1000
0010
0100
0001
,
1000
0010
0000
0010
0000
1000
0000
0000
,
0001
0010
0100
1000
,
0001
0010
0001
0010
0001
0000
1000
0000
,
0001
0010
0100
1000
,
0001
0100
0001
0100
0001
0000
1000
0000
,
0001
0010
0100
1000
,
0001
0010
0001
0010
0001
0000
1000
0001
,
1000
0001
0100
0010
,
1000
0001
0000
1000
0000
0001
0000
0000
,
1000
0010
0100
0001
,
0100
0010
0100
0010
1000
0000
0001
0000
,
1000
0010
0100
0001
,
0100
0001
0100
0001
0010
0000
0001
0000
,
1000
0010
0100
0001
,
0100
0001
0100
0001
1000
0000
0001
0010
,
0001
0000
1000
0000
0001
0100
0001
0000
,
2002
0000
0003
0000
,
3002
1003
2000
3001
,
1000
0100
1000
0100
1000
0000
0001
0000
,
0002
0013
0020
0031
,
0100
0010
0100
0010
0100
0000
0001
0000
,
2000
3010
0020
1030
,
0010
0100
0020
0200
0000
0000
0330
0000
,
1000
0001
1000
0000
0001
1000
0001
0000
,
1001
0000
0110
0000
0001
1000
0200
0000
,
2300
3001
2000
3001
,
0100
0000
0010
0000
1000
0100
1000
0000
,
0020
0130
0020
0130
,
0001
0000
0010
0000
0001
0100
0001
0000
,
2000
3001
2000
3001
,
0100
0000
0010
0000
1000
0100
1000
0000
,
0002
0013
0002
0013
,
0100
1000
0100
1000
0000
0001
0100
0001
,
0000
1000
0010
1000
0000
0010
0000
0100
,
0000
0001
0010
0001
0000
1000
0001
1000
,
0000
0010
0000
0001
0000
0010
0000
1000
,
0000
0100
0000
0010
0000
0001
0100
0001
,
0000
0010
0100
0010
0000
0100
0000
1000
,
0000
0001
0000
0100
0000
0010
1000
0000
,
0001
0010
0001
0000
1000
0100
1000
0000
,
0010
0100
0010
0000
1000
0001
1000
0001
,
0000
1000
0000
0001
0000
0100
0010
0100
,
0000
0001
0010
0001
0000
1000
0100
1000
,
0000
0001
0000
0100
0000
0010
1000
0010
,
0000
1000
0001
1000
0000
0001
0100
0001
,
0000
1000
0000
0001
0000
0010
0000
0100
,
0000
1000
0000
0001
0000
0100
0010
0100
,
0010
1000
0001
0100
,
0010
1000
0000
0001
0000
1000
0000
0001
,
0000
0100
0000
0010
0000
1000
0000
0000
,
0010
1000
0010
1000
,
0001
0010
0100
0000
0010
0000
0001
0000
,
1000
0010
1000
0010
,
1000
0100
0010
0000
0001
0000
0100
0000
,
0001
0010
0001
0010
,
0100
1000
0010
0000
1000
0000
0100
0000
,
1000
0001
1000
0001
,
0100
0010
0000
0100
0000
0010
0000
0000
,
1000
0100
1000
0100
,
0010
0001
0010
0001
0100
0000
0010
0000
,
1000
0100
1000
0100
,
0010
0001
0010
0001
0100
0000
0010
0000
,
1000
0000
0100
0000
1000
0010
0100
0000
,
0001
0000
0010
0000
0001
0100
0010
0000
,
1001
0010
1001
0100
,
1001
0000
0110
0000
1000
0001
1000
0001
,
0010
0000
0000
0000
;

//---------------dance-single - DDRDAIKENKAI----------------
#NOTES:
     dance-single:
     DDRDAIKENKAI:
     Easy:
     4:
     0.364,0.463,0.110,0.184,0.000: // measure 1
0000
0000
0000
0000
,  // measure 2
0000
0000
0000
0000
,  // measure 3
0000
0000
0000
0000
,  // measure 4
0000
0000
0000
0000
,  // measure 5
0000
0000
0000
0000
,  // measure 6
0000
0000
0000
0000
,  // measure 7
0000
0000
0000
0000
,  // measure 8
0000
0000
0000
0000
,  // measure 9
1000
0001
1000
0001
,  // measure 10
0100
0010
1000
0000
,  // measure 11
0001
1000
0001
1000
,  // measure 12
0100
1000
0100
0000
,  // measure 13
1000
0001
1000
0001
,  // measure 14
0100
0010
1000
0000
,  // measure 15
0001
1000
0001
1000
,  // measure 16
0100
1000
0100
0000
,  // measure 17
1000
1000
0001
0001
,  // measure 18
0100
0010
1000
0000
,  // measure 19
0001
0001
1000
1000
,  // measure 20
0010
0100
0001
0000
,  // measure 21
0010
0010
0100
0100
,  // measure 22
1000
0001
1000
0000
,  // measure 23
0020
0000
2030
0000
,  // measure 24
3002
0000
0203
0000
,  // measure 25
0310
0010
1000
1000
,  // measure 26
0001
0010
0001
0000
,  // measure 27
1000
1000
0001
0001
,  // measure 28
0100
0001
0100
0000
,  // measure 29
0001
0001
0010
0010
,  // measure 30
0100
1000
0100
0000
,  // measure 31
1000
1000
0001
0001
,  // measure 32
2002
0000
0000
0000
0000
3003
0000
0000
,  // measure 33
0010
0010
0001
0100
,  // measure 34
0010
1000
0100
0100
,  // measure 35
1000
1000
0010
0100
,  // measure 36
0001
1000
0100
0100
,  // measure 37
0010
0010
0001
1000
,  // measure 38
0010
0100
0001
0001
,  // measure 39
2000
0000
3002
0000
,  // measure 40
0203
0000
0320
0000
,  // measure 41
1030
0010
0100
0001
,  // measure 42
1000
0100
1000
1000
,  // measure 43
0001
0010
0100
1000
,  // measure 44
0001
0010
0001
0001
,  // measure 45
0100
0010
1000
0001
,  // measure 46
0100
0100
0010
0100
,  // measure 47
0002
0000
2003
0000
,  // measure 48
3200
0000
0300
0000
,  // measure 49
1000
0100
1000
0100
,  // measure 50
0000
1000
0001
1000
,  // measure 51
0001
0010
0001
0010
,  // measure 52
0000
0001
1000
0001
,  // measure 53
0100
0001
0100
0001
,  // measure 54
0000
1000
0001
1000
,  // measure 55
1001
0000
0110
0000
,  // measure 56
1001
1001
2002
3003
,  // measure 57
1000
0001
1000
0001
,  // measure 58
0100
0010
1000
0000
,  // measure 59
0001
1000
0001
1000
,  // measure 60
0100
1000
0100
0000
,  // measure 61
1000
0001
1000
0001
,  // measure 62
0100
0010
1000
0000
,  // measure 63
0001
1000
0001
1000
,  // measure 64
2002
0000
0000
3003
0000
0000
0000
0000
,  // measure 65
0100
0001
0100
0001
,  // measure 66
0010
0001
0010
0001
,  // measure 67
0010
0100
0010
0100
,  // measure 68
1000
0100
1000
0100
,  // measure 69
1000
0001
1000
0001
,  // measure 70
1000
0010
1000
0010
,  // measure 71
0200
0000
0302
0000
,  // measure 72
2003
0000
3200
0000
,  // measure 73
0310
0001
0010
0001
,  // measure 74
0100
0010
0100
0010
,  // measure 75
1000
0100
1000
0100
,  // measure 76
1000
0001
1000
1001
,  // measure 77
0001
0100
0001
0100
,  // measure 78
0010
0100
0010
0100
,  // measure 79
0010
1000
0100
0010
,  // measure 80
2002
0000
0000
0000
,  // measure 81
0000
0000
0000
0000
0000
3003
0000
0000
,  // measure 82
1000
1000
0001
0100
,  // measure 83
0010
1000
0100
1000
,  // measure 84
0001
0001
1000
0010
,  // measure 85
0100
0001
0010
0001
,  // measure 86
1000
1000
0001
0100
,  // measure 87
0010
1000
0100
1000
,  // measure 88
0010
0010
0100
0100
,  // measure 89
0001
1000
0001
1000
,  // measure 90
0010
0010
1000
1000
,  // measure 91
0100
0010
0001
0100
,  // measure 92
0010
0010
1000
1000
,  // measure 93
0100
0010
0001
0100
,  // measure 94
0010
0010
1000
0100
,  // measure 95
0010
0010
0001
0100
,  // measure 96
0110
0010
0110
0100
,  // measure 97
0110
0110
0220
0330
,  // measure 98
1001
0000
0000
0000
;
