#TITLE:Reverse;
#SUBTITLE:;
#ARTIST:斎賀 みつき;
#TITLETRANSLIT:;
#SUBTITLETRANSLIT:;
#ARTISTTRANSLIT:Mitsuki Saiga;
#GENRE:J-POP;
#CREDIT:NURSE WITCH KOMUGI;
#BANNER:Reverse.png;
#BACKGROUND:Reverse-bg.png;
#LYRICSPATH:;
#CDTITLE:CDTitle.png;
#MUSIC:Reverse.ogg;
#OFFSET:-0.831000;
#SAMPLESTART:46.255001;
#SAMPLELENGTH:24.400000;
#SELECTABLE:YES;
#BPMS:0.000000=158.000000
;
#STOPS:
;
#BGCHANGES:0.000=Reverse.avi=1.000=0=0=0=StretchNoLoop====,
216.000=Reverse-bg.png=1.000=1=0=1===CrossFade==,
99999=-nosongbg-=1.000=0=0=0 // don't automatically add -songbackground-
;
#KEYSOUNDS:;
#ATTACKS:;

//---------------dance-single - DDRDAIKENKAI----------------
#NOTES:
     dance-single:
     DDRDAIKENKAI:
     Hard:
     7:
     0.455556,0.510000,0.222222,0.322222,0.000000,287.000000,267.000000,20.000000,29.000000,0.000000,0.000000,0.455556,0.510000,0.222222,0.322222,0.000000,287.000000,267.000000,20.000000,29.000000,0.000000,0.000000:
// measure 0
0000
0000
0000
0000
,  // measure 1
0000
0000
0000
0000
,  // measure 2
0000
0000
0000
0000
,  // measure 3
0000
0000
0000
0000
,  // measure 4
0000
0000
0000
0000
,  // measure 5
0000
0000
0000
0000
,  // measure 6
0000
0000
0000
0000
,  // measure 7
0000
0000
0000
0000
,  // measure 8
1000
0000
0001
0000
0010
0000
0000
0002
,  // measure 9
0000
1003
0010
0000
,  // measure 10
0100
0001
0100
0001
0010
0100
0000
0020
,  // measure 11
0000
0000
0130
1000
0010
0000
1000
0100
,  // measure 12
1000
0002
0000
1000
0000
0000
0000
0100
,  // measure 13
0000
0000
0000
0010
0000
0000
0013
0000
,  // measure 14
0001
0010
0100
1000
0000
0000
1000
0010
,  // measure 15
0000
0000
0100
0001
0000
0001
1000
0100
,  // measure 16
1002
0000
0103
0001
0000
0100
0001
0000
,  // measure 17
1000
0001
0010
0100
0000
0010
0001
0100
,  // measure 18
0010
0000
1000
0001
0000
1000
0001
0100
,  // measure 19
0000
0001
1000
0010
0000
1000
0001
0000
,  // measure 20
2001
0000
3010
1000
0010
1000
0100
1000
,  // measure 21
0001
0010
0001
0100
0000
0001
0010
0001
,  // measure 22
0010
0000
0100
1000
0000
1000
0001
0100
,  // measure 23
0000
0100
0010
1000
0000
1000
0010
0000
,  // measure 24
0110
0000
1001
0000
1100
0000
0011
0001
,  // measure 25
0100
0001
0100
0010
1000
0100
0010
0000
,  // measure 26
0100
1000
0010
0100
0001
0010
0000
0002
,  // measure 27
0000
0013
0001
0100
0010
1000
0000
0100
,  // measure 28
0010
0000
0100
1000
0000
0100
0010
0001
,  // measure 29
0000
0100
0010
1000
0100
1100
2000
0000
,  // measure 30
3010
1000
0100
0001
0000
0100
1000
0001
,  // measure 31
0100
1000
0100
1000
0100
0001
1001
0000
,  // measure 32
2010
0000
0001
0001
0000
0000
0010
0010
,  // measure 33
0000
0100
3100
0000
0100
1000
0001
0000
,  // measure 34
1000
0010
1000
0200
0000
1000
1300
0001
,  // measure 35
0010
0001
1000
0001
0100
0000
0101
0000
,  // measure 36
1020
0000
1030
0200
0000
1300
0001
0200
,  // measure 37
0000
0301
1000
0020
0000
0130
0110
0000
,  // measure 38
0100
0001
0010
1000
0000
0010
0001
1000
,  // measure 39
0010
0001
0010
0001
0010
1000
1001
0000
,  // measure 40
0102
0000
1000
1000
0000
0000
0100
0100
,  // measure 41
0000
0010
0013
0000
0010
0001
1000
0000
,  // measure 42
1010
0000
1000
1001
0100
0010
0000
1002
,  // measure 43
0000
0103
0010
2001
0000
0001
3001
0000
,  // measure 44
0001
0010
0100
1000
0000
0011
0000
1200
,  // measure 45
0000
0010
0320
0000
0001
0032
0000
0203
,  // measure 46
0000
0310
1000
0100
0010
0100
1000
0002
,  // measure 47
0000
1003
0100
2000
0000
3010
0001
0010
,  // measure 48
1000
0100
0010
2000
0000
3010
0001
0200
,  // measure 49
0000
0310
1000
0020
0000
0130
1000
0100
,  // measure 50
0001
1000
0100
0010
0001
0010
0100
2000
,  // measure 51
0000
3100
0010
0200
0000
0301
0100
1000
,  // measure 52
0001
1000
0010
0002
0000
0013
1000
0200
,  // measure 53
0000
1000
1000
1000
0000
0010
0010
0010
,  // measure 54
0300
0000
0000
0000
;

//---------------dance-single - DDRDAIKENKAI----------------
#NOTES:
     dance-single:
     DDRDAIKENKAI:
     Medium:
     4:
     0.290476,0.390000,0.033333,0.233333,0.000000,183.000000,180.000000,3.000000,21.000000,0.000000,0.000000,0.290476,0.390000,0.033333,0.233333,0.000000,183.000000,180.000000,3.000000,21.000000,0.000000,0.000000:
0000
0000
0000
0000
,
0000
0000
0000
0000
,
0000
0000
0000
0000
,
0000
0000
0000
0000
,
0000
0000
0000
0000
,
0000
0000
0000
0000
,
0000
0000
0000
0000
,
0000
0000
0000
0000
,
0001
0000
1000
0000
0100
0000
0000
1000
,
0000
0001
0010
0000
,
0001
0000
0100
0000
0010
0000
0000
1000
,
0000
0000
0100
0000
0010
0000
0100
1000
,
0000
0020
0000
0000
0000
0000
0000
0000
,
0000
0000
0000
0030
,
2000
0000
0000
0001
0000
0000
0000
0100
,
0000
0000
0000
0001
0000
0000
3010
0000
,
1001
0000
0001
1000
0000
0000
1000
0010
,
0000
0000
0010
0100
0000
0100
0001
0000
,
0010
0000
0010
0001
0000
0000
0001
0100
,
0000
0000
0100
0010
0000
0010
1000
0000
,
0001
0000
1000
0010
0000
0000
1000
0100
,
0000
0000
1000
0010
0000
0100
0001
0000
,
1000
0000
0001
0100
0000
0000
0001
0010
,
0000
0000
0001
0100
0000
0010
1000
0000
,
0010
0000
0001
0000
0010
0000
1000
0001
,
1000
0000
0100
0001
0000
0100
1000
0000
,
0001
0000
0010
0000
0100
1000
0000
0010
,
0000
0100
0001
0000
1000
0001
0000
1000
,
0001
0000
0100
0010
0000
1000
0001
1000
,
0000
0010
1000
0010
0100
0001
0000
0000
,
1000
0100
1000
0100
0000
0010
0001
0000
,
0100
0010
0100
0000
0001
1000
0000
1000
,
0002
0000
0000
1000
0000
0000
0000
0000
,
0000
0013
0000
0000
0001
1000
0001
0000
,
1000
0010
1000
0100
0000
0100
1000
0000
,
1000
0001
1000
0000
0001
0000
2000
0000
,
0001
0000
0000
0100
0000
0000
0010
3020
,
0000
1000
0000
0100
0000
1000
1030
0000
,
0100
0010
0100
0010
0000
0001
0100
0000
,
0010
1000
0010
0000
0100
0010
0000
0020
,
1000
0000
0000
0001
0000
0000
0000
0000
,
0000
0100
0000
0000
1030
0000
1001
0000
,
0101
0000
0100
0020
0000
1030
0000
0002
,
0000
0103
0000
0020
0000
1000
1030
0000
,
0020
0000
1000
2030
0000
0000
3200
0000
,
0302
0000
0203
0000
0000
2300
0000
3020
,
0000
0000
1000
0000
,
1000
0000
0000
0000
0000
0100
0000
0000
,
0130
0001
0100
0020
0000
1030
0100
2000
,
0000
0000
0010
0000
,
3002
0000
0010
0000
,
0100
0000
0000
0000
0000
0010
0000
0000
,
0013
0100
0010
0002
0000
0013
0100
2000
,
0000
0000
0000
0000
,
3000
0000
0000
0000
;

//---------------dance-single - DDRDAIKENKAI----------------
#NOTES:
     dance-single:
     DDRDAIKENKAI:
     Easy:
     2:
     0.171429,0.270000,0.011111,0.155556,0.000000,108.000000,107.000000,1.000000,14.000000,0.000000,0.000000,0.171429,0.270000,0.011111,0.155556,0.000000,108.000000,107.000000,1.000000,14.000000,0.000000,0.000000:
0000
0000
0000
0000
,
0000
0000
0000
0000
,
0000
0000
0000
0000
,
0000
0000
0000
0000
,
0000
0000
0000
0000
,
0000
0000
0000
0000
,
0000
0000
0000
0000
,
0000
0000
0000
0000
,
0100
0010
0100
0000
,
0001
1000
0001
0000
,
1000
0100
1000
0000
,
0001
0010
0001
0000
,
2000
0000
0010
0000
,
0000
0000
3010
0000
,
0200
0000
0001
0000
,
0000
0000
0301
0000
,
1000
0100
0100
0000
,
1000
0001
0001
0000
,
0010
0001
0010
0000
,
0100
1000
0100
0000
,
1000
0010
0010
0000
,
0100
0001
0001
0000
,
1000
0001
1000
0000
,
0010
0100
0010
0000
,
1000
0100
0001
0000
,
0100
1000
0010
0000
,
0001
0010
1000
0000
,
0100
1000
0001
0000
,
1000
0000
0001
0000
,
2002
0000
0000
3003
,
0001
1000
0001
1000
,
0010
0100
0010
0100
,
0200
0000
0000
0000
,
0001
0000
0310
0000
,
0001
0010
0001
0010
,
0100
1000
0100
0100
,
2000
0000
0000
0000
,
0020
0000
3030
0000
,
0100
0001
0100
0001
,
1000
0010
1000
0010
,
0020
0000
0000
0000
,
0000
0000
0000
0030
,
1000
0100
1000
0000
,
0010
1000
0100
0000
,
0020
0000
0031
0100
,
0010
0200
0000
0001
,
0302
0000
1000
0000
,
0000
0000
1000
0000
,
0200
0000
0000
0000
,
0000
0000
0303
0000
,
2000
0000
0001
0000
,
0000
0000
0001
0000
,
0200
0000
0000
0000
,
0000
0000
0000
0000
,
3300
0000
0000
0000
;
