#TITLE:Ref;
#SUBTITLE:;
#ARTIST:Pentatonix;
#TITLETRANSLIT:;
#SUBTITLETRANSLIT:;
#ARTISTTRANSLIT:;
#GENRE:POP-CAPELLA;
#CREDIT:;
#MENUCOLOR:;
#NEWMETERSYSTEM:NO;
#BANNER:Ref.png;
#BACKGROUND:Ref-bg.png;
#LYRICSPATH:Ref.lrc;
#CDTITLE:CDTitle.png;
#MUSIC:Ref.ogg;
#OFFSET:0.000;
#SAMPLESTART:46.655;
#SAMPLELENGTH:13.380;
#SELECTABLE:YES;
#LISTSORT:;
#BPMS:0.000=143.995;
#STOPS:11.500=1.667
;
#BGCHANGES:;
#ATTACKS:;

//---------------dance-single - DDRDAIKENKAI----------------
#NOTES:
     dance-single:
     DDRDAIKENKAI:
     Hard:
     8:
     0.551,0.556,0.277,0.301,0.044: // measure 1
0000
0000
0000
0000
,  // measure 2
0000
0000
0000
0000
,  // measure 3
0000
0000
0000
0000
,  // measure 4
1010
1100
1020
0000
,  // measure 5
0130
0000
0100
0001
0010
0100
1000
0010
,  // measure 6
1010
1001
1020
0000
,  // measure 7
0130
0000
0100
0001
0010
0100
1000
0010
,  // measure 8
1010
0101
1020
0000
,  // measure 9
0130
0000
0100
0001
1000
0010
0001
0010
,  // measure 10
0100
0000
0000
0001
1000
0000
0100
0000
,  // measure 11
0000
0000
0000
0010
0002
0000
0000
0003
,  // measure 12
1100
0101
1200
0000
,  // measure 13
0310
0000
0010
0000
0001
0100
0001
0010
,  // measure 14
0011
1010
0012
0000
,  // measure 15
0103
0000
0001
0000
0010
0000
0100
0000
2000
0000
0000
3100
0010
0000
0001
0000
,  // measure 16
0200
0000
0000
0310
1000
0000
0100
0000
0010
0000
0100
0000
0001
0000
0100
0000
,  // measure 17
1000
0000
0001
0000
1002
1000
0100
0103
,  // measure 18
1000
0000
1000
0001
0000
0000
0100
0000
1000
0000
0100
0000
0001
0000
1000
0000
,  // measure 19
0100
0000
0100
0010
0000
0010
0001
0000
0100
0000
0010
0000
1000
0000
0010
0000
,  // measure 20
0110
0000
1010
0000
0110
0000
0101
0001
,  // measure 21
1000
0001
1000
0100
1000
0001
0100
0000
,  // measure 22
0011
0000
0101
0000
1001
0000
1100
0100
,  // measure 23
0010
0100
0010
0001
0100
1000
0100
0000
,  // measure 24
0101
0000
1001
0000
0101
0000
1001
0001
,  // measure 25
1000
0001
1000
0010
0100
0001
1000
0000
,  // measure 26
1100
0100
0010
0001
0100
0010
1000
0200
,  // measure 27
0000
1300
0010
0100
0001
0010
0100
1000
,  // measure 28
1020
0000
0000
0031
0010
0100
0020
0000
,  // measure 29
0000
1030
0010
0100
0020
0000
0000
1030
,  // measure 30
0010
0000
0001
0000
0010
0000
1000
0000
0010
0000
0100
0010
0100
0000
0000
0000
,  // measure 31
0000
0000
0000
0000
0001
0010
0100
1000
,  // measure 32
2001
0000
0000
3001
0100
0001
2000
0000
,  // measure 33
0000
3010
1000
0001
2000
0000
0000
3100
,  // measure 34
0010
0010
0001
0001
0100
0010
1000
0000
,  // measure 35
0000
0000
0000
0100
1000
0010
0100
0001
,  // measure 36
0012
0000
0000
1003
0001
0100
0002
0000
,  // measure 37
0000
0013
0001
0100
0002
0000
0003
0000
,  // measure 38
1000
0000
1000
0100
0000
0100
0010
0000
0001
0000
0100
0000
1000
0000
0000
0000
,  // measure 39
0000
0000
0000
0100
0001
0010
0100
1000
,  // measure 40
1200
0000
0000
0310
0100
0001
0200
0000
,  // measure 41
0000
0310
0100
1000
0200
0000
0000
0310
,  // measure 42
0100
1000
0010
0001
0010
1000
0001
0000
,  // measure 43
0000
0000
0200
0000
,  // measure 44
0310
1000
0100
0001
1000
0010
0001
0000
,  // measure 45
1000
0001
0000
1000
0010
0100
0001
0000
,  // measure 46
0100
0001
0010
1000
0001
0100
1000
0000
,  // measure 47
0001
1000
1000
0001
0100
0010
1000
0000
,  // measure 48
1000
0100
0010
0001
0100
0010
1000
0000
,  // measure 49
0001
1000
1000
0100
1000
0100
0010
0000
,  // measure 50
0011
0010
0001
0100
0010
1000
0100
0002
,  // measure 51
0000
0103
1000
0010
0100
0001
0010
0100
,  // measure 52
0020
0000
0000
0031
0010
1000
0020
0000
,  // measure 53
0000
0130
0010
0001
0020
0000
0000
0130
,  // measure 54
0010
0000
0001
0000
0100
0000
0010
0000
1000
0000
0100
1000
0100
0000
0000
0000
,  // measure 55
0000
0000
0000
0000
1000
0010
0100
0001
,  // measure 56
2000
0000
0000
3010
1000
0001
2000
0000
,  // measure 57
0000
3100
1000
0001
2000
0000
0000
3010
,  // measure 58
0001
0010
0100
0010
0001
0010
1000
0000
,  // measure 59
0000
0000
0000
0100
0010
0001
1000
0100
,  // measure 60
0210
0000
0000
0301
0100
0010
0200
0000
,  // measure 61
0000
1300
0100
0010
0200
0000
0300
0000
,  // measure 62
1000
0000
0010
0100
0000
0010
0100
0000
0001
0000
0010
0000
0100
0000
0000
0000
,  // measure 63
0000
0000
0000
1000
0010
1000
0100
0010
,  // measure 64
0002
0000
0000
1003
0001
0100
0002
0000
,  // measure 65
0000
0013
0001
0100
0002
0000
0000
1003
,  // measure 66
0010
0001
0010
1000
0100
0010
0001
0000
,  // measure 67
0000
0000
0000
0000
0200
0001
0302
0000
,  // measure 68
1003
1000
1000
0010
0010
0010
0100
0100
,  // measure 69
0001
0000
0001
0000
1000
0100
1000
1000
,  // measure 70
0001
0001
0001
0010
0010
0010
0100
0100
,  // measure 71
1000
0000
1000
0000
0010
0100
0010
0010
,  // measure 72
1000
1000
1000
0010
0010
0010
0100
0100
,  // measure 73
0001
0000
0001
0000
1000
0100
1000
1000
,  // measure 74
0010
0010
0010
0100
0100
0100
0001
0001
;

//---------------dance-single - DDRDAIKENKAI----------------
#NOTES:
     dance-single:
     DDRDAIKENKAI:
     Medium:
     6:
     0.438,0.468,0.071,0.317,0.008: // measure 1
0000
0000
0000
0000
,  // measure 2
0000
0000
0000
0000
,  // measure 3
0000
0000
0000
0000
,  // measure 4
1000
0001
1002
0000
,  // measure 5
0003
0000
0000
0100
0010
0100
0010
0000
,  // measure 6
1000
0001
1002
0000
,  // measure 7
0003
0000
0000
1000
0100
1000
0100
0000
,  // measure 8
0010
0100
0210
0000
,  // measure 9
0300
0000
0000
0010
0001
0010
0001
0000
,  // measure 10
0100
0000
0000
0010
1000
0000
1000
0000
,  // measure 11
0000
0000
0000
0100
0020
0000
0000
0000
,  // measure 12
0031
1000
1002
0000
,  // measure 13
1003
0000
1000
0000
0001
0100
0001
0100
,  // measure 14
0010
0000
0100
0000
0120
0000
0000
0030
,  // measure 15
0100
0001
0100
0001
2000
0000
3100
0010
,  // measure 16
0002
0000
0013
0100
2000
0000
3001
0000
,  // measure 17
0100
0010
0220
0330
,  // measure 18
1000
0000
1000
0000
0001
0100
0001
1000
,  // measure 19
0100
0000
1000
0000
0010
0100
0010
0000
,  // measure 20
0120
1000
1000
1030
,  // measure 21
0100
0010
0100
0010
0001
1000
0001
0000
,  // measure 22
0210
0010
0010
0310
,  // measure 23
1000
0001
1000
0001
0100
0010
1000
0000
,  // measure 24
1002
1000
0100
0103
,  // measure 25
0010
1000
0010
1000
0100
0010
0001
0000
,  // measure 26
1000
0000
0100
0000
1000
0000
0001
0010
,  // measure 27
0000
0001
0100
0000
0010
1000
0100
0000
,  // measure 28
2000
0000
0000
3001
0100
0000
0020
0000
,  // measure 29
0000
1030
0100
0000
2000
0000
0000
3001
,  // measure 30
0010
0000
1000
0000
0010
0001
0100
0000
,  // measure 31
0010
1000
0100
0000
0010
0001
0100
0010
,  // measure 32
2000
0000
0000
3001
0010
0000
0002
0000
,  // measure 33
0000
1003
0100
0000
2000
0000
0000
3001
,  // measure 34
0100
0001
1000
0000
0001
1000
0100
0000
,  // measure 35
0000
0000
0000
1000
0100
0010
0001
0000
,  // measure 36
0200
0000
0000
0301
0010
0000
0200
0000
,  // measure 37
0000
1300
0010
0000
0200
0000
0300
0000
,  // measure 38
0001
0000
0000
1000
0000
0000
1000
0000
0100
0000
1000
0000
0100
0000
0000
0000
,  // measure 39
0000
0000
0000
0010
0001
0010
0100
0000
,  // measure 40
0020
0000
0000
0031
1000
0000
0020
0000
,  // measure 41
0000
1030
0001
0000
0200
0000
0300
0001
,  // measure 42
1000
0100
1000
0100
1000
0100
1000
0000
,  // measure 43
0000
0000
0002
0000
,  // measure 44
0103
0000
0010
1000
0100
0000
1000
0000
,  // measure 45
0001
0100
0000
0001
0010
0000
0100
0010
,  // measure 46
0001
0000
1000
0100
1000
0000
0001
0000
,  // measure 47
0100
0010
0000
0100
0001
1000
0100
0000
,  // measure 48
1000
0000
0001
1000
0100
0000
0010
0000
,  // measure 49
0001
0100
0000
0010
1000
0001
1000
0000
,  // measure 50
0001
0000
0100
0000
0001
0000
1000
0010
,  // measure 51
0000
1000
0100
0000
0010
0001
0100
0010
,  // measure 52
2000
0000
0000
3001
0100
0000
0020
0000
,  // measure 53
0000
1030
0100
0000
2000
0000
0000
3001
,  // measure 54
0010
0000
1000
0000
0010
0001
0100
0000
,  // measure 55
0010
1000
0100
0000
0010
0001
0100
0010
,  // measure 56
2000
0000
0000
3001
0010
0000
0002
0000
,  // measure 57
0000
1003
0100
0000
2000
0000
0000
3001
,  // measure 58
0100
0001
1000
0000
0001
1000
0100
0000
,  // measure 59
0000
0000
0000
1000
0100
0010
0001
0000
,  // measure 60
0200
0000
0000
0301
0010
0000
0200
0000
,  // measure 61
0000
1300
0010
0000
0200
0000
0300
0000
,  // measure 62
0001
0000
0000
1000
0000
0000
1000
0000
0100
0000
1000
0000
0100
0000
0000
0000
,  // measure 63
0000
0000
0000
0010
0001
0010
0100
0000
,  // measure 64
0020
0000
0000
0031
1000
0000
0020
0000
,  // measure 65
0000
1030
0001
0000
0200
0000
0300
0001
,  // measure 66
1000
0100
1000
0100
1000
0100
1000
0000
,  // measure 67
0000
0000
0002
0000
,  // measure 68
0103
0010
0100
0010
0100
0010
0100
0010
,  // measure 69
1000
0100
0001
0100
,  // measure 70
0010
0001
0010
0001
0010
0001
0010
0001
,  // measure 71
1000
0010
0001
0010
,  // measure 72
0100
0001
0100
0001
0100
0001
0100
0001
,  // measure 73
1000
0100
0010
0001
,  // measure 74
1000
0001
1000
0001
1000
0001
1000
1000
;

//---------------dance-single - DDRDAIKENKAI----------------
#NOTES:
     dance-single:
     DDRDAIKENKAI:
     Easy:
     3:
     0.270,0.263,0.016,0.301,0.000: // measure 1
0000
0000
0000
0000
,  // measure 2
0000
0000
0000
0000
,  // measure 3
0000
0000
0000
0000
,  // measure 4
1000
1000
2000
0000
,  // measure 5
3100
0010
0001
0100
,  // measure 6
0010
0010
0020
0000
,  // measure 7
0130
0001
1000
0010
,  // measure 8
0100
0100
0200
0000
,  // measure 9
0301
1000
0100
0010
,  // measure 10
0001
0000
0001
0000
,  // measure 11
0000
0000
0002
0000
,  // measure 12
1003
1000
2000
0000
,  // measure 13
3001
0010
0100
1000
,  // measure 14
0001
0001
0002
0000
,  // measure 15
1003
0001
0100
0010
,  // measure 16
0100
0100
0200
0300
,  // measure 17
0010
1000
0002
0003
,  // measure 18
0010
0010
0001
0001
,  // measure 19
0100
0100
1000
1000
,  // measure 20
0100
0001
0100
0001
,  // measure 21
0100
0100
0001
0001
,  // measure 22
1000
0010
1000
0010
,  // measure 23
1000
1000
0010
0010
,  // measure 24
0100
0010
0100
0010
,  // measure 25
0100
0100
0010
0010
,  // measure 26
1000
0000
0001
0000
,  // measure 27
2002
0000
0000
3003
,  // measure 28
0200
0000
0000
0300
0001
0000
0002
0000
,  // measure 29
0000
0003
1000
0000
2000
0000
0000
3000
,  // measure 30
0100
0001
0100
1000
,  // measure 31
0000
0000
0001
0001
,  // measure 32
0020
0000
0000
0030
0001
0000
0200
0000
,  // measure 33
0000
0300
0001
0000
2000
0000
0000
3000
,  // measure 34
0100
0010
0100
0010
,  // measure 35
0000
0000
0001
1000
,  // measure 36
0020
0000
0000
0030
0001
0000
0020
0000
,  // measure 37
0000
0030
1000
0000
0002
0000
0003
0000
,  // measure 38
1000
0100
0010
0001
,  // measure 39
0000
0000
0010
0100
,  // measure 40
2000
0000
0000
3000
0001
0000
0200
0000
,  // measure 41
0000
0300
0010
0000
2000
0000
0000
3000
,  // measure 42
0100
0010
0001
1000
,  // measure 43
0000
0000
0020
0000
,  // measure 44
0130
0000
0000
0001
0000
0000
1000
0000
,  // measure 45
0000
0000
0100
0100
,  // measure 46
0010
0000
0000
0001
0000
0000
1000
0000
,  // measure 47
0000
0000
0010
0010
,  // measure 48
0100
0000
0000
0001
0000
0000
1000
0000
,  // measure 49
0000
0000
0010
0010
,  // measure 50
2002
0000
0000
0000
,  // measure 51
0000
0000
0000
3003
,  // measure 52
0020
0000
0000
0030
1000
0000
2000
0000
,  // measure 53
0000
3000
0001
0000
0002
0000
0000
0003
,  // measure 54
0010
1000
0010
0001
,  // measure 55
0000
0000
1000
1000
,  // measure 56
0200
0000
0000
0300
1000
0000
0020
0000
,  // measure 57
0000
0030
1000
0000
0002
0000
0000
0003
,  // measure 58
0010
0100
0010
0100
,  // measure 59
0000
0000
1000
0001
,  // measure 60
0200
0000
0000
0300
1000
0000
0200
0000
,  // measure 61
0000
0300
0001
0000
2000
0000
3000
0000
,  // measure 62
0001
0010
0100
1000
,  // measure 63
0000
0000
0100
0010
,  // measure 64
0002
0000
0000
0003
1000
0000
0020
0000
,  // measure 65
0000
0030
0100
0000
0002
0000
0000
0003
,  // measure 66
0010
0100
1000
0001
,  // measure 67
0000
0000
0200
0000
,  // measure 68
0310
0000
0000
0001
0000
0000
0100
0000
,  // measure 69
0000
0000
0010
0010
,  // measure 70
0100
0000
0000
0001
0000
0000
1000
0000
,  // measure 71
0000
0000
0100
0100
,  // measure 72
0010
0000
0000
0001
0000
0000
0100
0000
,  // measure 73
0000
0000
1000
1000
,  // measure 74
0100
0000
0000
0001
0000
0000
1000
0000
;
