#VERSION:0.83;
#TITLE:REINCARNATION;
#SUBTITLE:;
#ARTIST:dj TAKA;
#TITLETRANSLIT:;
#SUBTITLETRANSLIT:;
#ARTISTTRANSLIT:;
#GENRE:TRANCE;
#ORIGIN:beatmania IIDX 5th style;
#CREDIT:;
#BANNER:[Key Change] - REINCARNATION.png;
#BACKGROUND:[Key Change] - REINCARNATION-bg.png;
#PREVIEWVID:;
#JACKET:[Key Change] - REINCARNATION-jacket.png;
#CDIMAGE:;
#DISCIMAGE:;
#LYRICSPATH:;
#CDTITLE:CDTitle.png;
#MUSIC:[Key Change] - REINCARNATION.ogg;
#OFFSET:-1.175537;
#SAMPLESTART:77.294998;
#SAMPLELENGTH:13.260000;
#SELECTABLE:YES;
#BPMS:0.000=145.000;
#STOPS:;
#DELAYS:;
#WARPS:;
#TIMESIGNATURES:0.000=4=4;
#TICKCOUNTS:0.000=4;
#COMBOS:0.000=1;
#SPEEDS:0.000=1.000=0.000=0;
#SCROLLS:0.000=1.000;
#FAKES:;
#LABELS:0.000=Song Start;
#BGCHANGES:15.792=[Key Change] - REINCARNATION.avi=1.000=1=0=1===CrossFade==,
99999=-nosongbg-=1.000=0=0=0 // don't automatically add -songbackground-
;
#KEYSOUNDS:;
#ATTACKS:
;

//---------------dance-single - ANOTHER----------------
#NOTEDATA:;
#CHARTNAME:DDRDAIKENKAI;
#STEPSTYPE:dance-single;
#DESCRIPTION:ANOTHER;
#CHARTSTYLE:Pad;
#DIFFICULTY:Challenge;
#METER:11;
#MUSIC:[Key Change] - REINCARNATION (another).ogg;
#RADARVALUES:0.840548,1.035960,0.105503,0.081156,1.111842,725.000000,712.000000,13.000000,10.000000,0.000000,0.000000,8.000000,0.000000,0.000000,0.840548,1.035960,0.105503,0.081156,1.111842,725.000000,712.000000,13.000000,10.000000,0.000000,0.000000,8.000000,0.000000,0.000000;
#CREDIT:DDRDAIKENKAI;
#NOTES:
// measure 0
0000
0000
0000
0000
,  // measure 1
0000
0000
0000
0000
,  // measure 2
0000
0000
0000
0000
,  // measure 3
0000
0000
0000
0000
,  // measure 4
0000
0000
1000
0000
0000
0000
0100
0001
0000
0000
1000
0000
0000
0000
0100
1000
,  // measure 5
0000
0000
0001
0000
0000
0000
0100
0001
0000
0000
1000
0000
0000
0000
0100
1000
,  // measure 6
0000
0000
0001
0000
0000
0000
0100
0001
0000
0000
1000
0000
0000
0000
0100
1000
,  // measure 7
0000
0000
0001
0000
0000
0000
0100
0001
0000
0000
1000
0000
0000
0000
0100
0010
,  // measure 8
0200
0000
0000
1300
0000
0000
0010
0000
0000
0001
0000
0000
0010
0000
1000
0000
,  // measure 9
0002
0000
0000
0103
0000
0000
1000
0000
0000
0100
0000
0000
0001
0000
0010
0000
,  // measure 10
0200
0000
0000
1300
0000
0000
0010
0000
0000
0001
0000
0000
0010
0000
1000
0000
,  // measure 11
0200
0000
0000
0310
0000
0000
0001
0000
0000
0100
0000
0000
1000
0000
0100
0000
,  // measure 12
0002
0000
0000
0013
0000
0000
0100
0000
0000
1000
0000
0000
0010
0000
0100
0000
,  // measure 13
0002
0000
0000
1003
0000
0000
0010
0000
0000
0100
0000
0000
1000
0000
0100
0000
,  // measure 14
0001
0000
0001
0010
0000
0010
1000
0000
,  // measure 15
1000
0000
1000
0000
0100
1000
0010
0001
,  // measure 16
0011
0000
0001
0000
1000
0000
0100
0000
1000
0001
1000
0000
0010
0000
0100
0000
,  // measure 17
0001
0000
0010
0000
0001
0000
0100
0000
0010
1000
0010
0000
0100
0000
0001
0000
,  // measure 18
1000
0000
0100
0000
0001
0000
0100
0000
1000
0001
1000
0000
0010
0000
0100
0000
,  // measure 19
0001
0000
1000
0000
0100
0000
0010
0000
0001
0100
0001
0000
0010
0000
0100
0000
,  // measure 20
1000
0010
1000
0000
0010
0100
0010
0000
0100
0001
0100
0000
0001
1000
0001
0000
,  // measure 21
0010
0001
0010
0000
0100
0010
0100
0000
1000
0100
1000
0000
0010
1000
0010
0000
,  // measure 22
0100
1000
0100
0000
0001
0010
0001
0000
1000
0010
1000
0000
0100
1000
0100
0000
,  // measure 23
1000
0001
1000
0000
0001
1000
0001
0000
1001
0000
0000
1010
0000
0000
0101
0000
,  // measure 24
1001
0000
0001
0010
0001
0000
1000
0000
1000
0000
0010
0000
0010
0000
0100
0000
,  // measure 25
0100
0001
0001
1000
0100
0001
0100
1000
,  // measure 26
0010
0000
1000
0001
1000
0000
0010
0000
0010
0000
0100
0000
0100
0000
1000
0000
,  // measure 27
1000
0000
0100
0000
0100
0000
0001
0010
0001
0000
0000
0000
0000
0000
0100
0000
,  // measure 28
0100
0000
0010
1000
0010
0000
1010
0000
1000
0000
0001
0000
0001
0000
0010
0000
,  // measure 29
0010
0001
0001
0100
0010
1000
0100
0001
,  // measure 30
0100
0000
0010
0001
0010
0000
1000
0000
1000
0000
0010
0000
0010
0000
0001
0000
,  // measure 31
0001
0100
0100
1000
0100
0010
1000
0001
,  // measure 32
0101
0000
0000
2000
,  // measure 33
3001
0010
0001
0010
0001
0010
0001
0010
0001
0010
0001
0010
0001
0010
0001
0010
,  // measure 34
0001
1000
0001
1000
0001
1000
0001
1000
0010
1000
0010
1000
0010
1000
0010
1000
,  // measure 35
0010
0100
0010
0100
0010
0100
0010
0100
0010
0100
0010
0100
0010
0100
0010
0100
,  // measure 36
0001
0100
0001
0100
0001
0100
0001
0100
0010
1000
0010
1000
0010
1000
0010
1000
,  // measure 37
0100
1000
0100
1000
0100
1000
0100
1000
0010
1000
0010
1000
0100
0010
0100
0010
,  // measure 38
0001
0010
0001
0010
0001
0010
0001
0010
0100
1000
0100
1000
0100
1000
0100
1000
,  // measure 39
0010
0100
0010
0100
0010
0100
0010
0100
0001
1000
0001
1000
0001
1000
0001
1000
,  // measure 40
1001
0000
0100
0010
1001
0000
0100
0010
,  // measure 41
1001
0000
0000
0001
0010
0000
0000
0100
1000
0000
0000
0010
1000
0000
0100
0000
,  // measure 42
2002
0000
3003
0000
,  // measure 43
0400
0000
0301
0010
0001
0010
0001
0010
0400
0000
1300
0010
1000
0010
1000
0010
,  // measure 44
0400
0000
0301
0010
0001
0010
0001
0010
0400
0000
1300
0010
1000
0010
1000
0010
,  // measure 45
0400
0000
0301
0010
0400
0000
1300
0010
0400
0000
0301
0010
0400
0000
0000
0000
,  // measure 46
1300
0001
1000
0100
0010
0100
1000
0001
0100
0010
0100
0001
0010
0001
1000
0010
,  // measure 47
1000
0001
1000
0100
1000
0001
0010
0001
1000
0010
1000
0001
0100
0001
1000
0010
,  // measure 48
1000
0100
0010
0100
1000
0010
1000
0100
0001
0100
1000
0010
1000
0100
0010
0100
,  // measure 49
0001
0100
0010
0001
0100
0001
0010
0100
1000
0010
0100
0010
1000
0001
1000
0100
,  // measure 50
0010
0100
1000
0010
0100
0001
0010
0100
1000
0010
0100
0010
0001
0010
0100
0001
,  // measure 51
1000
0100
0010
0100
1000
0001
0010
0100
0010
0001
0010
0100
0010
1000
0010
0001
,  // measure 52
1000
0010
0100
0001
1000
0100
1000
0001
0010
0001
0100
0001
1000
0001
0100
0001
,  // measure 53
0010
0100
1000
0010
0100
0001
0100
0010
1000
0010
1000
0001
1000
0100
1000
0010
,  // measure 54
0110
0100
0001
0010
0100
1000
0100
0010
0001
0100
1000
0100
0001
0010
0100
0010
,  // measure 55
0001
1000
0010
0100
1000
0100
0010
1000
0001
0010
0100
1000
0100
0010
0001
0100
,  // measure 56
1000
0100
0010
0100
0001
1000
0100
0010
0100
1000
0001
1000
0010
1000
0010
0100
,  // measure 57
0001
1000
0010
0100
0010
1000
0100
0010
0100
1000
0001
0100
0001
0010
0100
0010
,  // measure 58
0001
1000
0010
0100
1000
0100
0001
1000
0010
0100
0010
0001
0010
0100
0010
1000
,  // measure 59
0001
1000
0100
0010
0001
0100
0010
1000
0100
0010
0100
0001
0100
0010
0100
1000
,  // measure 60
0001
0010
0001
0000
1000
0000
0100
0000
1000
0000
0100
0000
1000
0000
0100
0000
1000
0010
1000
0000
0001
0000
0100
0000
0001
0000
0100
0000
0001
0000
0100
0000
,  // measure 61
0001
0010
0001
0000
1000
0000
0100
0000
1000
0010
1000
0000
0001
0000
0100
0000
0010
0000
0000
0000
1000
0000
0000
0000
0100
0000
0000
0000
0010
0000
0000
0000
,  // measure 62
1001
0000
0001
0000
1000
0100
0000
1000
0100
0000
0010
0001
0000
1000
0001
0000
,  // measure 63
1000
0000
0001
0000
0010
0001
0000
0010
0001
0000
1000
0100
0000
1000
0001
0000
,  // measure 64
1000
0000
0001
0000
0100
0001
0000
0100
0001
0000
1000
0010
0000
0100
0001
0000
,  // measure 65
1000
0000
0001
0000
1000
0010
0000
1000
0010
0000
1000
0100
0000
1000
0001
0000
,  // measure 66
0010
0000
0100
0000
1000
0100
0000
0100
0010
0000
0010
0001
0000
0001
1000
0000
,  // measure 67
0001
0000
0100
0000
0001
0010
0000
0010
0100
0000
0100
1000
0000
1000
0001
0000
,  // measure 68
1000
0000
0001
0000
0100
0010
0000
0010
0100
0000
0100
0001
0000
0001
2000
0000
,  // measure 69
3000
0000
0000
0000
;

//---------------dance-single - DDRDAIKENKAI----------------
#NOTEDATA:;
#CHARTNAME:DDRDAIKENKAI;
#STEPSTYPE:dance-single;
#DESCRIPTION:DDRDAIKENKAI;
#CHARTSTYLE:Pad;
#DIFFICULTY:Hard;
#METER:8;
#RADARVALUES:0.543747,0.726653,0.089272,0.105503,0.486938,469.000000,458.000000,11.000000,13.000000,0.000000,0.000000,0.000000,0.000000,0.000000,0.543747,0.726653,0.089272,0.105503,0.486938,469.000000,458.000000,11.000000,13.000000,0.000000,0.000000,0.000000,0.000000,0.000000;
#CREDIT:DDRDAIKENKAI;
#NOTES:
// measure 0
0000
0000
0000
0000
,  // measure 1
0000
0000
0000
0000
,  // measure 2
0000
0000
0000
0000
,  // measure 3
0000
0000
0000
0000
,  // measure 4
0000
0000
0000
0000
,  // measure 5
0000
0000
0000
0000
,  // measure 6
0000
0000
0000
0000
,  // measure 7
0000
0000
0000
0000
0100
0010
1000
0001
,  // measure 8
0100
0000
0000
0001
0000
0000
0100
0000
0000
0001
0000
0000
1000
0000
0000
0000
,  // measure 9
0100
0000
0000
1000
0000
0000
0100
0000
0000
1000
0000
0000
0001
0000
0000
0000
,  // measure 10
0010
0000
0000
0001
0000
0000
0010
0000
0000
0001
0000
0000
1000
0000
0000
0000
,  // measure 11
0010
0000
0000
1000
0000
0000
0010
0000
0000
1000
0000
0000
0001
0000
0000
0000
,  // measure 12
0100
0000
0000
0010
0000
0000
1000
0000
0000
0010
0000
0000
0100
0000
0000
0000
,  // measure 13
0001
0000
0000
0010
0000
0000
0100
0000
0000
0010
0000
0000
0001
0000
0000
0000
,  // measure 14
1000
0000
0000
0100
0000
0000
0010
0000
0000
0100
0000
0000
1000
0000
0000
0000
,  // measure 15
0001
0000
0001
0000
0100
0010
1000
0001
,  // measure 16
0100
0000
0001
0000
0010
0000
0100
0000
0000
1000
0100
0000
0001
0000
0100
0000
,  // measure 17
0000
0000
0001
0000
0010
0000
0100
0000
0000
1000
0100
0000
0001
0000
0100
0000
,  // measure 18
0000
0000
0001
0000
0010
0000
0100
0000
0000
1000
0100
0000
0001
0000
0100
0000
,  // measure 19
0000
0000
0001
0000
0010
0000
0100
0000
0000
1000
0100
0000
0001
0000
0100
0000
,  // measure 20
0000
0000
0010
0000
1000
0000
0010
0000
0000
0001
0100
0000
1000
0000
0100
0000
,  // measure 21
0000
0000
0010
0000
0001
0000
0010
0000
0000
1000
0100
0000
0001
0000
0100
0000
,  // measure 22
0000
1000
0100
0000
0001
0000
0100
0000
0000
1000
0100
0000
0001
0000
0100
0000
,  // measure 23
0000
0100
0000
0000
0100
0001
0010
0001
,  // measure 24
0101
0000
0100
0010
0100
0000
0001
0000
1000
0000
0010
0000
1000
0000
0100
0000
,  // measure 25
1000
0010
1000
0100
1000
0010
0001
0010
,  // measure 26
0100
0000
0001
0010
0001
0000
1000
0000
0001
0000
1000
0000
0100
0000
1000
0000
,  // measure 27
0001
0000
1000
0000
0100
0000
1000
0010
1000
0000
0000
0000
0000
0000
0001
0000
,  // measure 28
0100
0000
0010
1000
0010
0000
1000
0000
0001
0000
0100
0000
0010
0000
1000
0000
,  // measure 29
0001
0100
0010
1000
0100
1000
0010
1000
,  // measure 30
0100
0000
0010
0001
0010
0000
0001
0000
1000
0000
0010
0000
0100
0000
0010
0000
,  // measure 31
1000
0010
0100
0010
0100
0001
0010
0001
,  // measure 32
0101
0000
0000
0200
,  // measure 33
0301
1000
0001
0000
1000
0001
1000
0000
0001
1000
0001
0000
1000
0001
1000
0000
,  // measure 34
0001
0010
0001
0000
0010
0001
0010
0000
0001
0010
0001
0000
0010
0001
0010
0000
,  // measure 35
0001
0100
0001
0000
0100
0001
0100
0000
0001
0100
0001
0000
0100
0001
0100
0000
,  // measure 36
0001
0100
0001
0000
0100
0001
0100
0000
0010
1000
0010
0000
1000
0010
1000
0000
,  // measure 37
0100
1000
0100
0000
1000
0100
1000
0000
0010
0100
0010
0000
0100
0001
0100
0000
,  // measure 38
0001
0010
0001
0000
0010
0001
0010
0000
0100
1000
0100
0000
1000
0100
1000
0000
,  // measure 39
0010
0100
0010
0000
0100
0010
0100
0000
0001
1000
0001
0000
1000
0001
1000
0000
,  // measure 40
2002
0000
3003
0010
2002
0000
3003
0100
,  // measure 41
1001
1010
0011
0110
,  // measure 42
2002
0000
3003
0000
,  // measure 43
1000
0001
0000
1000
0000
0001
0000
1000
,  // measure 44
0020
0000
0230
0000
,  // measure 45
0302
2003
3200
0320
,  // measure 46
0031
0000
0100
0000
0000
0001
0000
0000
1000
0000
0000
0010
0000
0000
0100
0000
,  // measure 47
0001
0000
1000
0000
0000
0100
0000
0000
0010
0000
0000
0100
0000
0000
1000
0000
,  // measure 48
0001
0000
0010
0000
0000
0100
0000
0000
1000
0000
0000
0001
0000
0000
0100
0000
,  // measure 49
0010
0000
1000
0000
0000
0100
0000
0000
1000
0000
0000
0010
0000
0000
0100
0000
,  // measure 50
0001
0000
1000
0000
0000
0001
0000
0000
0010
0000
0000
0100
0000
0000
1000
0000
,  // measure 51
0001
0000
1000
0000
0000
0001
0000
0000
0010
0000
0000
0100
0000
0000
1000
0000
,  // measure 52
0010
0000
0001
0000
0000
0010
0000
0000
0100
0000
0000
0001
0000
0000
1000
0000
,  // measure 53
0010
0000
0001
0000
0000
0010
0000
0000
0100
0000
0000
0001
0000
0000
1000
0000
,  // measure 54
1010
0000
0010
0000
1000
0100
0000
1000
0010
0000
1000
0100
0000
0010
0001
0000
,  // measure 55
1000
0000
0010
0000
1000
0100
0000
1000
0010
0000
1000
0100
0000
0010
0001
0000
,  // measure 56
1000
0000
0010
0000
1000
0100
0000
1000
0010
0000
1000
0100
0000
0010
0001
0000
,  // measure 57
1000
0000
0010
0000
1000
0100
0000
1000
0010
0000
1000
0100
0000
0010
0001
0000
,  // measure 58
0100
0000
0010
0000
1000
0100
0000
0010
0100
0000
0001
0100
0000
0010
0001
0000
,  // measure 59
1000
0000
0001
0000
1000
0100
0000
0010
0100
0000
0001
0100
0000
0010
0001
0000
,  // measure 60
1000
0000
0001
0000
1000
0100
0000
0010
0100
0000
0001
0100
0000
0010
0001
0000
,  // measure 61
1000
0000
0001
0000
1000
0100
0000
0010
0100
0000
0001
0100
0000
0010
0001
0000
,  // measure 62
1001
0000
1000
0000
0001
0100
0000
0000
0010
0000
1000
0001
0000
0000
0010
0000
,  // measure 63
1000
0000
0010
0000
0001
0100
0000
0000
0010
0000
1000
0001
0000
0000
1000
0000
,  // measure 64
0100
0000
0010
0000
0100
1000
0000
0000
0010
0000
1000
0001
0000
0000
0100
0000
,  // measure 65
0001
0000
1000
0000
0001
0100
0000
0000
0010
0000
1000
0010
0000
0000
0001
0000
,  // measure 66
0010
0000
1000
0000
0100
0010
0000
0100
0010
0000
0000
0001
0000
0000
0100
0000
,  // measure 67
0010
0000
1000
0000
0100
0010
0000
0100
0010
0000
0000
0100
0000
0000
1000
0000
,  // measure 68
0010
0000
0100
0000
0001
0010
0000
0001
0010
0000
0000
1000
0000
0000
0001
0000
;

//---------------dance-single - DDRDAIKENKAI----------------
#NOTEDATA:;
#CHARTNAME:DDRDAIKENKAI;
#STEPSTYPE:dance-single;
#DESCRIPTION:DDRDAIKENKAI;
#CHARTSTYLE:Pad;
#DIFFICULTY:Medium;
#METER:5;
#RADARVALUES:0.302597,0.391275,0.113619,0.251585,0.032463,261.000000,247.000000,14.000000,31.000000,0.000000,0.000000,0.000000,0.000000,0.000000,0.302597,0.391275,0.113619,0.251585,0.032463,261.000000,247.000000,14.000000,31.000000,0.000000,0.000000,0.000000,0.000000,0.000000;
#CREDIT:DDRDAIKENKAI;
#NOTES:
0000
0000
0000
0000
,
0000
0000
0000
0000
,
0000
0000
0000
0000
,
0000
0000
0000
0000
,
0000
0000
0000
0000
,
0000
0000
0000
0000
,
0000
0000
0000
0000
,
0000
0000
0000
0000
,
2000
0100
0000
0100
,
0000
0100
0000
3100
,
0002
0100
0000
0100
,
0000
0000
0100
0000
0000
0100
0103
0000
,
0020
1000
0000
1000
,
0000
1000
0000
1030
,
0200
0310
0020
0031
,
1001
0000
0000
0000
0100
0010
0100
0000
,
0110
0000
0100
0000
0001
0010
0100
0000
,
0110
0000
0010
0000
0100
1000
0010
0000
,
0110
0000
0100
0000
0010
1000
0100
0000
,
0110
0000
0010
0000
0100
0010
0001
0000
,
1001
0000
1000
0000
0001
0100
0010
0000
,
0110
0000
0100
0000
0010
1000
0001
0000
,
0010
0001
1000
0000
0010
1000
0001
0000
,
1001
0000
0000
0000
0000
0000
0000
0000
1000
0000
0000
1000
0000
0000
0100
0000
,
0010
0001
0010
0000
0100
1000
0100
0000
,
1000
0010
1000
0000
0001
0100
0001
0100
,
0001
1000
0001
0000
1000
0100
1000
0000
,
0010
0100
0010
0000
0100
0000
0000
0100
,
0001
0010
0001
0000
0010
0100
0010
0000
,
0100
1000
0100
0000
1000
0010
1000
0010
,
0100
0001
0100
0000
0001
1000
0001
0000
,
1000
0100
1000
0000
0100
0010
0100
0000
,
2002
0000
0000
3003
,
2000
0000
0000
0000
,
3020
0000
0000
0000
,
0230
0000
0000
0000
,
0302
0000
2003
0000
,
3200
0000
0320
0230
,
2300
0000
3002
0000
,
0203
0000
0020
0330
,
0110
0000
1001
0000
,
0110
0100
0010
1000
,
2002
0000
3003
0000
,
2000
0000
3002
0000
,
2003
0000
3002
0000
,
2003
3002
2003
3002
,
0103
0000
0100
0000
0010
0000
0100
0001
,
1000
0000
1000
0000
0100
0000
0010
0001
,
0100
0000
0100
0000
0001
0000
0001
0010
,
0100
0000
0100
0000
1000
0000
1000
0010
,
0001
0000
0010
0000
1000
0000
0001
0100
,
1000
0000
0100
0000
0001
0000
1000
0100
,
0001
0000
0100
0000
1000
0000
0001
0010
,
1000
0010
0001
1000
,
2001
0000
0000
0000
3100
0000
0000
0000
0001
0000
0000
0100
0000
0000
1000
0000
,
0001
0000
0000
0000
0100
0000
0000
0000
1000
0000
0000
0100
0000
0000
0001
0000
,
1000
0000
0000
0000
0010
0000
0000
0000
0001
0000
0000
0010
0000
0000
1000
0000
,
0001
0000
0000
0000
0010
0000
0000
0000
1000
0000
0000
0010
0000
0000
0001
0000
,
1000
0000
0000
0000
0100
0000
0000
0000
0010
0000
0000
0001
0000
0000
0100
0000
,
0010
0000
0000
0000
1000
0000
0000
0000
0100
0000
0000
0010
0000
0000
0001
0000
,
1000
0000
0000
0000
0100
0000
0000
0000
1000
0000
0000
0001
0000
0000
1000
0000
,
0010
0000
0100
0000
0001
0100
0010
1000
,
0100
0100
0100
0100
,
0100
0000
0100
0000
0100
1000
0010
0100
,
0001
0001
0001
0001
,
0001
0000
0000
1000
1000
0000
0000
0010
,
0020
0000
0000
0100
0000
0000
0001
0000
,
0000
1000
0000
0031
,
0100
0000
0000
0000
0010
0000
0000
1000
;

//---------------dance-single - DDRDAIKENKAI----------------
#NOTEDATA:;
#CHARTNAME:DDRDAIKENKAI;
#STEPSTYPE:dance-single;
#DESCRIPTION:DDRDAIKENKAI;
#CHARTSTYLE:Pad;
#DIFFICULTY:Beginner;
#METER:1;
#RADARVALUES:0.113619,0.223603,0.073041,0.105503,0.000000,98.000000,89.000000,9.000000,13.000000,0.000000,0.000000,0.000000,0.000000,0.000000,0.113619,0.223603,0.073041,0.105503,0.000000,98.000000,89.000000,9.000000,13.000000,0.000000,0.000000,0.000000,0.000000,0.000000;
#CREDIT:DDRDAIKENKAI;
#NOTES:
0000
0000
0000
0000
,
0000
0000
0000
0000
,
0000
0000
0000
0000
,
0000
0000
0000
0000
,
0000
0000
0000
0000
,
0000
0000
0000
0000
,
0000
0000
0000
0000
,
0000
0000
0000
0000
,
1000
0000
0000
0000
,
0000
0000
0000
0000
,
0001
0000
0000
0000
,
0000
0000
0000
0000
,
0100
0000
0000
0000
,
0000
0000
0000
0000
,
0010
0000
0000
0000
,
0000
0000
0000
0000
,
1000
0000
0000
0000
,
0001
0000
0000
0000
,
1000
0000
0000
0000
,
0001
0000
0000
0000
,
0100
0000
0000
0000
,
0100
0000
0000
0000
,
0010
0000
0010
0000
,
0010
0000
0000
0000
,
1000
1000
1000
0000
,
0100
0000
0100
0000
,
0010
0010
0010
0000
,
0001
0000
0001
0000
,
0100
0100
0100
0000
,
0010
0000
0010
0000
,
1000
1000
1000
0000
,
0001
0000
0001
0000
,
2002
0000
3003
0000
,
0200
0000
0300
0000
,
0020
0000
0030
0000
,
2000
0000
3000
0000
,
0002
0000
0003
0000
,
2000
0000
3000
0000
,
0020
0000
0030
0000
,
0200
0000
0300
0000
,
0110
0000
1001
0000
,
0110
0000
0000
0000
,
1001
0000
0000
0000
,
2000
0000
0000
0000
,
0000
0000
0000
0000
,
0000
0000
3000
0000
,
1001
0000
0001
0000
,
1000
0000
0010
0000
,
0100
0000
0001
0000
,
0100
0000
0010
0000
,
1000
0000
0001
0000
,
0010
0000
0100
0000
,
1000
0000
0100
0000
,
0010
0000
0001
0000
,
1001
0000
1000
0000
,
0010
0000
1000
0000
,
0100
0000
1000
0000
,
0010
0000
1000
0000
,
0001
0000
0010
0000
,
0001
0000
0100
0000
,
0001
0000
0010
0000
,
0100
0000
1000
0000
,
1001
0000
0001
0000
,
0100
0000
0010
0000
,
0110
0000
0010
0000
,
1000
0000
0001
0000
,
2000
0000
3000
0000
,
0200
0000
0300
0000
,
0020
0000
0000
0000
0000
0000
0000
0000
0000
0000
0000
0000
0000
0000
0000
0000
0000
0000
0000
0000
0000
0000
0000
0000
0000
0000
0000
0000
0000
0000
0000
0000
0000
0000
0000
0000
0000
0000
0000
0000
0000
0000
0000
0000
0000
0000
0000
0000
0000
0000
0000
0000
0000
0000
0000
0000
0000
0000
0000
0000
0000
0000
0000
0000
0000
0000
0000
0000
0000
0000
0000
0000
0000
0000
0000
0000
0000
0000
0000
0000
0000
0000
0000
0000
0000
0000
0000
0000
0000
0000
0000
0000
0000
0000
0000
0000
0000
0000
0000
0000
0000
0000
0000
0000
0000
0000
0000
0000
0000
0000
0000
0000
0000
0000
0000
0000
0000
0000
0000
0000
0000
0000
0000
0000
0000
0000
0000
0000
0000
0000
0000
0000
0000
0000
0000
0000
0000
0000
0000
0000
0000
0000
0000
0000
0000
0000
0000
0000
0000
0000
0000
0000
0000
0000
0000
0000
0000
0000
0000
0000
0000
0000
0000
0000
0000
0000
0000
0000
0000
0030
0000
0000
0000
0000
0000
0000
0000
0000
0000
0000
0000
0000
0000
0000
0000
0000
0000
0000
0000
0000
0000
0000
;

//---------------dance-single - DDRDAIKENKAI----------------
#NOTEDATA:;
#CHARTNAME:DDRDAIKENKAI;
#STEPSTYPE:dance-single;
#DESCRIPTION:DDRDAIKENKAI;
#CHARTSTYLE:Pad;
#DIFFICULTY:Easy;
#METER:3;
#RADARVALUES:0.199413,0.279482,0.097388,0.137966,0.000000,172.000000,160.000000,12.000000,17.000000,0.000000,0.000000,0.000000,0.000000,0.000000,0.199413,0.279482,0.097388,0.137966,0.000000,172.000000,160.000000,12.000000,17.000000,0.000000,0.000000,0.000000,0.000000,0.000000;
#CREDIT:DDRDAIKENKAI;
#NOTES:
0000
0000
0000
0000
,
0000
0000
0000
0000
,
0000
0000
0000
0000
,
0000
0000
0000
0000
,
0000
0000
0000
0000
,
0000
0000
0000
0000
,
0000
0000
0000
0000
,
0000
0000
0000
0000
,
1000
0000
0000
0000
,
0100
0000
1000
1000
,
0001
0000
0000
0000
,
0100
0000
0001
0001
,
0010
0000
0000
0000
,
0001
0000
1000
1000
,
0010
0000
0010
0000
,
0100
0000
0000
0000
,
0110
0000
0100
0000
,
0001
0001
1000
0100
,
0010
0000
0100
0000
,
1000
1000
0001
0100
,
0010
0000
0010
0000
,
0100
0001
1000
0000
,
1010
0000
0011
0000
,
0220
0000
0330
0000
,
0100
0100
0001
0001
,
0100
0000
0100
0000
,
0010
0010
1000
1000
,
0010
0000
0010
0000
,
1000
1000
0001
0001
,
0100
0000
0100
0000
,
0001
0001
1000
1000
,
0010
0000
0110
0000
,
2002
0000
3003
0000
,
2000
0000
0000
0000
,
3002
0000
0000
0000
,
2003
0000
0000
0000
,
3020
0000
0230
0000
,
0302
0000
0000
0000
,
0203
0000
0302
0000
,
2003
0000
0002
3003
,
1001
0000
0110
0000
,
1001
0000
0000
0000
,
1001
0000
0000
0000
,
0200
0000
0000
0000
,
0302
0000
0000
0000
,
2000
0000
3003
0000
,
1000
1000
0100
0010
,
0001
0001
0010
0100
,
1000
1000
0100
0010
,
0001
0001
0010
0100
,
0010
0010
0100
1000
,
0010
0010
0100
0001
,
0010
0010
0100
1000
,
0010
0100
0001
1000
,
1001
0001
1000
0001
,
0100
0010
0100
0010
,
1000
0001
1000
0001
,
0100
0010
0100
0010
,
1000
0100
1000
0100
,
0010
0001
0010
0001
,
1000
0010
1000
0010
,
0100
0001
0100
0001
,
1001
1000
0100
0000
,
1000
0001
0100
0000
,
0010
1000
0001
0000
,
0010
0001
0100
0000
,
0010
0000
1000
0000
,
0100
0000
0001
0000
,
0010
0000
0000
0000
1000
0000
0000
0001
;
