#TITLE:Posin';
#SUBTITLE:;
#ARTIST:Peggy Suave;
#TITLETRANSLIT:;
#SUBTITLETRANSLIT:;
#ARTISTTRANSLIT:;
#GENRE:SWING;
#CREDIT:;
#MENUCOLOR:;
#NEWMETERSYSTEM:NO;
#BANNER:Posin'.png;
#BACKGROUND:Posin'-bg.png;
#LYRICSPATH:;
#CDTITLE:;
#MUSIC:Posin'.ogg;
#OFFSET:-1.875;
#SAMPLESTART:24.054;
#SAMPLELENGTH:15.000;
#SELECTABLE:YES;
#LISTSORT:;
#BPMS:0.000=128.000;
#STOPS:;
#BGCHANGES:;
#ATTACKS:;

//---------------dance-single - DDRDAIKENKAI----------------
#NOTES:
     dance-single:
     DDRDAIKENKAI:
     Hard:
     7:
     0.482,0.508,0.168,0.285,0.025:
0000
0000
0000
0000
,
0000
0000
0000
0000
,
0000
0000
0000
0000
,
0000
0000
0000
0000
,
1000
0010
0101
0000
0010
1000
0100
0000
,
0000
0001
0100
0100
1000
0000
0001
0000
,
0200
0000
1300
0000
0100
0001
1000
0000
,
2002
0000
0000
3003
,
0001
0010
1100
0000
0001
0100
1000
0000
,
0000
0100
0001
0001
0010
0000
0100
0000
,
2000
0000
3010
0000
0001
0010
1000
0000
,
2002
0000
0000
3003
,
1000
0100
1000
0010
0100
0001
1000
0000
,
0001
0010
0001
0100
0010
1000
0001
0000
,
0010
0100
1000
0100
0001
0100
1000
0000
,
0001
0100
0010
0100
1000
0100
0001
0000
,
1000
0010
0100
0001
0010
0100
1000
0000
,
0001
0100
0010
1000
0100
0010
0001
0000
,
1000
0001
0100
0010
0100
0001
1000
1000
,
2002
0000
0000
3003
,
0001
1000
0010
1000
0001
0100
0010
1000
,
0001
0100
0010
1000
1000
0100
0010
1000
,
1000
0010
0001
1000
0100
0010
0001
1000
,
0100
0000
0010
0000
0001
0000
1000
0000
0100
0010
0100
0010
0200
0000
0300
0000
,
1000
0010
1000
0001
0100
1000
0100
0001
,
0100
1000
0100
0001
0001
0010
1000
0001
,
0001
0100
0010
0001
0100
0010
1000
0100
,
1000
0010
0100
0001
2002
0000
0000
3003
,
0001
0100
1100
0000
1000
0010
0001
0000
,
0000
0010
1000
1000
0100
0000
0010
0000
,
2000
0000
3001
0000
0100
0010
1000
0000
,
2002
0000
0000
3003
,
0001
0010
1100
0000
0010
0001
0100
0000
,
0000
1000
0100
0100
0001
0000
0010
0000
,
0200
0000
1300
0000
0010
0100
0001
0000
,
2002
0000
0000
3003
,
1000
0100
0002
0000
0103
0001
0020
0000
,
0031
0010
2000
0000
3200
0000
1000
1300
,
0010
0001
0200
0000
0301
0100
2000
0000
,
3100
1000
0020
0000
2030
0000
3010
0010
,
0100
0001
0011
0000
0100
1000
1010
0000
,
0100
0001
1001
0000
1200
0000
0010
0310
,
0001
1000
1100
0000
1000
0001
0011
0000
,
0001
0100
0110
0000
2002
0000
3003
0000
,
1000
0100
1000
0010
0100
0100
0001
0000
,
0010
1000
0010
0001
0100
0100
0010
1000
,
0001
0010
1000
0010
0100
0100
1000
0000
,
0001
0100
1000
0100
0010
0010
1000
0001
,
0010
0001
1000
0001
0100
0100
0001
0000
,
1000
0010
0100
0001
0010
0010
0001
0100
,
0010
1000
0100
0010
0001
0100
0010
1000
,
2002
0000
0000
0000
0000
0000
0000
3003
,
0001
0010
0001
1000
0100
0001
0100
1000
,
0100
0001
0100
1000
1000
0100
0010
0001
,
1000
0100
0010
0001
0100
0010
1000
0001
,
0100
0000
0010
0000
1000
0000
0100
0000
1000
0001
1000
0001
2000
0000
3000
0000
,
0001
0100
1000
0100
0010
0010
1000
0100
,
1000
0010
0001
0100
0001
0020
0000
1030
,
0100
1000
0001
0001
0100
0001
1000
1000
,
0001
0000
0010
0000
0100
0000
1000
0000
0001
1000
0001
1000
0001
0000
0100
0000
,
2200
0000
3300
0000
;

//---------------dance-single - DDRDAIKENKAI----------------
#NOTES:
     dance-single:
     DDRDAIKENKAI:
     Medium:
     5:
     0.408,0.457,0.361,0.353,0.000: // measure 1
0000
0000
0000
0000
,  // measure 2
0000
0000
0000
0000
,  // measure 3
0000
0000
0000
0000
,  // measure 4
0000
0000
0000
0000
,  // measure 5
1000
0000
0001
0000
1000
0001
0100
0000
,  // measure 6
0001
0000
1000
0000
0001
1000
0100
0000
,  // measure 7
0020
0000
0031
0000
0100
0010
1000
0000
,  // measure 8
2200
0000
0000
3300
,  // measure 9
1000
0000
0001
0000
0010
0001
0100
0000
,  // measure 10
0001
0000
1000
0000
0010
1000
0100
0000
,  // measure 11
0020
0000
0130
0000
1000
0001
0100
0000
,  // measure 12
0220
0000
0000
0330
,  // measure 13
1000
0100
1000
0000
0010
0100
0001
0000
,  // measure 14
0000
1000
0100
0010
0001
0000
1100
0000
,  // measure 15
1000
0010
1000
0000
0001
0100
0010
0000
,  // measure 16
0000
1000
0010
0100
0001
0000
0110
0000
,  // measure 17
1000
0001
1000
0000
0001
0100
1000
0000
,  // measure 18
0000
0100
0001
1000
0100
0000
0110
0000
,  // measure 19
0010
0001
0010
0000
1000
0010
0001
0000
,  // measure 20
2002
0000
0000
3003
,  // measure 21
0001
0000
1100
0000
0010
0001
0100
0000
,  // measure 22
0001
0010
0100
0000
0010
0001
0100
0010
,  // measure 23
1000
0000
0101
0000
0010
1000
0100
0000
,  // measure 24
0010
0100
1000
0000
0010
0010
0010
0000
,  // measure 25
0100
0000
1001
0000
0010
1000
0100
0000
,  // measure 26
0010
0001
0100
0000
0010
1000
0100
0010
,  // measure 27
0001
0000
1100
0000
0001
0100
1000
0000
,  // measure 28
0100
0001
2002
3003
,  // measure 29
0001
1100
0010
0101
,  // measure 30
2010
0001
0100
3010
,  // measure 31
0100
0000
0010
0000
0100
0001
0010
0000
,  // measure 32
0220
0000
0000
0330
,  // measure 33
0001
1010
0100
1001
,  // measure 34
0012
1000
0100
0013
,  // measure 35
0100
0000
0010
0000
0100
1000
0010
0000
,  // measure 36
2002
0000
0000
3003
,  // measure 37
2200
3300
0022
0033
,  // measure 38
0202
0303
2002
3003
,  // measure 39
2020
3030
0220
0330
,  // measure 40
0202
0303
0022
0033
,  // measure 41
1100
0001
0101
1000
,  // measure 42
1010
0000
0001
0000
0012
0000
0103
0100
,  // measure 43
0001
0011
1000
1010
,  // measure 44
0001
0101
2002
3003
,  // measure 45
0001
1000
0001
0000
1000
0010
0100
0000
,  // measure 46
0000
0001
1000
0100
0010
0000
0101
0000
,  // measure 47
0001
1000
0001
0000
0100
0001
0010
0000
,  // measure 48
0000
0100
0010
0001
1000
0000
0110
0000
,  // measure 49
0010
1000
0010
0000
0100
0001
1000
0000
,  // measure 50
0000
0001
0100
1000
0100
0000
0110
0000
,  // measure 51
0100
0010
0100
0000
0010
1000
0100
0000
,  // measure 52
0220
0000
0000
0330
,  // measure 53
1000
0200
0000
0310
0010
0001
0100
0000
,  // measure 54
0001
0010
0100
0000
0010
0001
0100
0000
,  // measure 55
0010
1000
0001
0000
1000
0001
0100
0000
,  // measure 56
0001
1000
0100
0010
0001
0001
0001
0000
,  // measure 57
0001
0020
0000
0130
0100
1000
0001
0000
,  // measure 58
0100
0010
1000
0000
0100
0200
0000
0310
,  // measure 59
0001
0100
1000
0000
1000
0100
0001
0000
,  // measure 60
0010
0110
1010
0101
,  // measure 61
2002
0000
3003
0000
;

//---------------dance-single - DDRDAIKENKAI----------------
#NOTES:
     dance-single:
     DDRDAIKENKAI:
     Easy:
     3:
     0.237,0.254,0.168,0.185,0.000: // measure 1
0000
0000
0000
0000
,  // measure 2
0000
0000
0000
0000
,  // measure 3
0000
0000
0000
0000
,  // measure 4
0000
0000
0000
0000
,  // measure 5
0001
0001
1000
0000
,  // measure 6
0100
0100
0010
0000
,  // measure 7
0001
0000
1000
0000
,  // measure 8
2002
0000
0000
3003
,  // measure 9
0010
0010
0100
0000
,  // measure 10
0001
0001
0100
0000
,  // measure 11
0010
0000
0100
0000
,  // measure 12
2002
0000
0000
3003
,  // measure 13
1000
0010
0001
0000
,  // measure 14
0010
1000
0100
0000
,  // measure 15
0001
0100
1000
0000
,  // measure 16
0010
1000
0100
0000
,  // measure 17
0001
0100
1000
0000
,  // measure 18
0010
0001
0100
0000
,  // measure 19
0001
0010
1000
0000
,  // measure 20
2002
0000
0000
3003
,  // measure 21
0001
0001
1000
1000
,  // measure 22
0001
0001
1000
1000
,  // measure 23
0010
0010
0100
0100
,  // measure 24
0010
0010
0010
0000
,  // measure 25
0100
0100
0001
0001
,  // measure 26
0100
0100
0001
0001
,  // measure 27
1000
1000
0010
0010
,  // measure 28
1000
1000
1001
0000
,  // measure 29
0001
0001
0001
0000
,  // measure 30
0100
0100
0100
0000
,  // measure 31
0010
0000
1000
0000
,  // measure 32
2002
0000
0000
3003
,  // measure 33
1000
1000
1000
0000
,  // measure 34
0100
0100
0100
0000
,  // measure 35
0010
0000
0001
0000
,  // measure 36
2002
0000
3003
0000
,  // measure 37
0202
0000
0303
0000
,  // measure 38
2020
0000
3030
0000
,  // measure 39
2200
0000
3300
0000
,  // measure 40
0022
0000
0033
0000
,  // measure 41
1001
0000
1001
0000
,  // measure 42
0110
0000
0110
0000
,  // measure 43
1001
0000
0110
0000
,  // measure 44
1001
0000
0110
0000
,  // measure 45
0001
0001
0100
0000
,  // measure 46
1000
1000
0010
0000
,  // measure 47
1000
1000
0100
0000
,  // measure 48
0001
0001
0010
0000
,  // measure 49
0100
0100
0010
0000
,  // measure 50
0001
0001
1000
0000
,  // measure 51
0010
0010
0100
0100
,  // measure 52
0220
0000
0000
0330
,  // measure 53
0100
0010
0100
0010
,  // measure 54
0100
0010
0100
0010
,  // measure 55
1000
0001
1000
0001
,  // measure 56
1000
0001
1000
0001
,  // measure 57
1000
0100
1000
0100
,  // measure 58
0010
0001
0010
0001
,  // measure 59
1000
0010
1000
0010
,  // measure 60
0100
0001
0100
0001
,  // measure 61
2002
0000
3003
0000
;
