#TITLE:Piano x Forte x Scandal;
#SUBTITLE:;
#ARTIST:OSTER Project feat. Yamai;
#TITLETRANSLIT:;
#SUBTITLETRANSLIT:;
#ARTISTTRANSLIT:;
#GENRE:JAZZ POP;
#CREDIT:;
#MENUCOLOR:;
#NEWMETERSYSTEM:NO;
#BANNER:Piano x Forte x Scandal.png;
#BACKGROUND:Piano x Forte x Scandal-bg.png;
#LYRICSPATH:;
#CDTITLE:;
#MUSIC:Piano x Forte x Scandal.mp3;
#OFFSET:-0.092;
#SAMPLESTART:65.846;
#SAMPLELENGTH:14.202;
#SELECTABLE:YES;
#LISTSORT:;
#BPMS:0.000=135.000;
#STOPS:;
#BGCHANGES:;
#ATTACKS:;

//---------------dance-single - DDRDAIKENKAI----------------
#NOTES:
     dance-single:
     DDRDAIKENKAI:
     Hard:
     9:
     0.648,0.634,0.281,0.421,0.483: // measure 1
0000
0000
0000
0000
,  // measure 2
0000
0000
0000
0000
,  // measure 3
0000
0000
0000
0000
,  // measure 4
0000
0000
0000
0000
,  // measure 5
1001
0000
0000
0000
1000
0000
0001
0000
0100
0001
0000
0000
1001
0000
0001
0000
,  // measure 6
0010
0000
0001
0000
0100
0000
0010
0000
1000
0001
0000
0000
1001
0000
1000
0000
,  // measure 7
0200
0000
0000
0000
0310
0000
0100
0000
1000
0001
0000
0000
1001
0000
0001
0000
,  // measure 8
0100
0000
0010
0000
0001
0000
0010
0000
1000
0100
0000
0000
1100
0000
0100
0000
,  // measure 9
0110
0000
0000
0000
1002
0000
1003
0000
0001
0100
0000
0000
0101
0000
0100
0000
,  // measure 10
0001
0000
1000
0000
0100
0000
0010
0000
0100
1000
0000
0000
1100
0000
0100
0000
,  // measure 11
1000
0010
0001
0010
1000
0010
1000
0100
,  // measure 12
0020
0000
0000
0000
0000
0030
0000
0001
0000
1000
0001
2000
0000
0000
3000
0000
,  // measure 13
1100
0000
1000
0001
0100
0010
0100
0001
,  // measure 14
2000
0000
0000
3010
1000
0100
0010
0001
,  // measure 15
0100
0000
0001
0010
1000
0010
0001
0100
,  // measure 16
0020
0000
0000
0000
1030
0000
0100
0000
1000
0010
0000
0000
0100
0000
0001
1000
,  // measure 17
0001
0000
1001
0002
0000
1003
0100
1000
,  // measure 18
0001
0000
0100
0000
0010
0100
0000
0002
0000
0000
0013
0000
0100
0000
1000
0000
,  // measure 19
0001
1000
0000
0000
1000
0000
0010
0000
1000
0000
0100
0000
0010
0000
0001
0000
,  // measure 20
2000
0000
0010
0000
0010
0000
0010
0000
3010
0000
0100
0000
0001
0000
1000
0001
,  // measure 21
0000
0000
1000
0000
1000
0000
0010
0000
0001
0000
0010
0000
0200
0000
0000
0301
,  // measure 22
0000
0000
0001
0000
0010
0000
1000
0000
0010
0000
0001
0000
0100
0010
0000
1000
,  // measure 23
0000
1000
0001
0000
1001
0000
0000
0000
0101
0000
0100
0000
0010
0000
1000
0000
,  // measure 24
0001
0000
0000
0001
0010
0000
0000
0010
0100
0000
1000
0000
0100
0010
0000
0011
,  // measure 25
0000
0000
1100
0002
0000
1003
0010
0002
,  // measure 26
0000
0013
1000
0200
0000
0310
1000
0020
,  // measure 27
0000
0000
0031
0000
0001
0010
0000
0100
0000
1000
0000
0100
0000
0010
0001
0000
,  // measure 28
0021
0000
0001
0000
0001
0000
0001
0000
0031
0000
0100
0000
0010
1000
0000
0000
,  // measure 29
1001
0000
2000
0000
0010
0000
3100
0010
,  // measure 30
0100
0000
1000
0000
0001
0000
0010
0001
0000
0000
0100
0000
0010
0000
1000
0000
,  // measure 31
0100
0000
0000
0100
0010
0000
0000
0010
0001
0000
0100
0000
0010
0000
0001
0000
,  // measure 32
0010
1000
0100
2000
0000
0010
0010
3020
,  // measure 33
0000
1030
1001
0000
2000
0001
3001
0010
,  // measure 34
1000
0000
0010
0000
0001
0000
0100
1000
0000
0000
0100
0000
0001
0000
0010
0000
,  // measure 35
0100
1000
0010
0010
0100
0001
1000
1000
,  // measure 36
0100
0010
0001
1000
1002
0000
1000
0000
,  // measure 37
0203
0000
0320
0000
,  // measure 38
1030
0010
0100
0001
1002
0000
0103
0000
,  // measure 39
0010
0000
1000
0100
0000
2000
0000
0000
3020
0000
0000
0000
0130
0000
0000
0000
,  // measure 40
0001
0010
1000
0010
0012
0000
1003
0000
,  // measure 41
0100
0000
0010
0001
0000
1000
0000
0020
0000
0000
0130
0000
0001
0000
0010
0000
,  // measure 42
0100
0000
1000
0100
0000
1000
0000
0020
0000
0000
0000
0000
0030
0000
0000
0000
,  // measure 43
1000
0000
0001
1000
0000
0001
0000
0200
0000
0000
0310
0000
0100
0010
0000
1000
,  // measure 44
0000
0000
0001
0000
0010
0000
0100
0000
1000
0000
0001
0010
0000
0100
0000
2000
,  // measure 45
0000
0000
3001
0000
0100
0010
0000
2010
0000
0000
0100
0000
3100
0000
0000
0000
,  // measure 46
0010
0000
0001
0100
0000
0010
0000
0000
1010
0000
0000
0000
0101
0000
0000
0000
,  // measure 47
0100
0001
1000
0100
0120
0000
0031
0000
,  // measure 48
0010
0000
0100
0010
0000
0100
0000
2000
0000
0000
3010
0000
1000
0000
0100
0000
,  // measure 49
0010
0000
0001
0100
0000
0010
0000
0220
0000
0000
0000
0330
0000
0000
0000
0000
,  // measure 50
0100
0000
0001
1000
0000
0001
0000
2000
0000
0000
3100
0000
0010
0100
0000
0020
,  // measure 51
0000
0000
0031
0000
0010
0000
0100
0000
1000
0000
0001
0000
0100
0010
0000
2000
,  // measure 52
0000
0000
0000
0000
0000
0000
3100
0000
0000
0000
0000
0000
0010
0000
0000
0001
0000
0000
0000
0000
0000
1002
0000
0000
0000
0000
0000
0000
0000
0000
2003
0000
0000
0000
0000
0000
0000
0000
0000
0000
3001
0000
0000
0000
0010
0000
0000
0000
,  // measure 53
0001
0000
0000
0000
0100
0000
0000
0000
0010
0000
0000
0000
0100
0000
0000
0000
0001
0000
0000
0000
1000
0000
0000
0000
0001
0000
0000
0000
0000
0000
0001
0000
0000
0000
0000
0000
1000
0000
0000
0010
0000
0000
0000
0000
0000
2000
0000
0000
,  // measure 54
0000
0000
3001
0000
0010
0000
0001
0000
1000
0000
0100
0000
1000
0000
0100
0020
,  // measure 55
0000
0000
0031
0000
1000
0000
0100
2000
0000
0000
3010
0000
0100
0000
0001
0200
,  // measure 56
0000
0000
0301
0000
0010
0000
0100
0000
0110
0000
0010
0000
0001
1000
0000
0200
,  // measure 57
0000
0000
0310
0000
0100
0000
1000
0000
0001
0100
0000
0001
0100
0000
0010
1000
,  // measure 58
0000
0010
0000
2000
0000
0000
3010
0000
0120
0000
0100
0000
0100
0000
0130
0000
,  // measure 59
0001
1000
0001
0000
1000
0001
1000
0000
1010
0000
0010
1000
0000
1000
0100
0000
,  // measure 60
0100
0010
0000
0010
0001
0000
0001
1000
0000
1000
0100
0000
0001
0000
0100
0000
,  // measure 61
1000
0010
1000
0100
0010
0001
0100
0010
,  // measure 62
1000
0000
0010
0000
0100
0000
0001
0000
0010
0000
0100
0000
1000
0001
0000
1000
,  // measure 63
0000
0100
0000
1000
0000
0001
0000
0001
0100
0000
0001
0000
0100
0010
0000
0010
,  // measure 64
1000
0000
1000
0001
0000
0001
0010
0000
0001
0000
0100
0010
0000
1000
0000
2000
,  // measure 65
0000
0000
3100
0010
0000
0001
0000
0001
2000
0000
0010
0000
0010
0000
0010
0000
,  // measure 66
3010
0000
0100
0000
0001
1000
0000
0100
0000
0110
0000
0000
0011
0000
0000
1100
,  // measure 67
0000
1000
0001
0000
0100
0010
0000
0220
0000
0000
0000
0000
0000
0000
0330
0000
;

//---------------dance-single - DDRDAIKENKAI----------------
#NOTES:
     dance-single:
     DDRDAIKENKAI:
     Challenge:
     11:
     0.962,0.966,0.429,0.454,1.000: // measure 1
0000
0000
0000
0000
,  // measure 2
0000
0000
0000
0000
,  // measure 3
0000
0000
0000
0000
,  // measure 4
1000
0100
0010
1000
0010
0001
0100
0010
0001
0010
0100
0001
2002
0000
3003
0000
,  // measure 5
1001
0000
0001
0000
0101
0000
0001
0000
1000
0100
1000
0000
1100
0000
0100
0000
,  // measure 6
1000
0000
0010
0000
0110
0000
0010
0000
1000
0001
1000
0000
1001
0000
0001
0000
,  // measure 7
0100
0000
0010
0000
1010
0000
0010
0000
1000
0001
1000
0000
1001
0000
0001
0000
,  // measure 8
0010
0000
0100
0000
0110
0000
0100
0000
1000
0010
1000
0000
1010
0000
0010
0000
,  // measure 9
0110
0000
0000
0000
2001
0000
3001
0000
0000
0010
0100
1000
0001
0010
0100
2000
,  // measure 10
0000
0000
3010
0000
0100
0001
0000
1001
0000
0101
0000
0100
0000
0001
0000
1001
,  // measure 11
0000
1000
0100
0010
0100
0010
0001
0100
0010
1000
0100
0010
0001
0010
0100
1000
,  // measure 12
0001
0000
0000
0010
0000
0000
0001
0000
0000
1000
0000
0000
0000
0000
0000
0100
0000
0000
0000
0000
0000
0010
0000
0000
0000
0000
0000
0001
0000
0000
1000
0000
0000
0001
0000
0000
1000
0000
0001
0000
1000
0000
0001
0000
1000
0000
0001
0000
,  // measure 13
2000
0000
3001
2000
0000
3001
1000
0001
0000
0001
1000
0000
0010
0000
2000
0000
,  // measure 14
3002
0000
0013
0002
0000
0013
0001
0010
0000
0010
0001
0000
0100
0000
0020
0000
,  // measure 15
1030
0000
0001
2000
0000
3001
1000
0001
0000
0001
1000
0000
0010
0000
2000
0000
,  // measure 16
3020
0000
0000
0000
0000
0000
0130
0000
0000
0020
0000
0000
0000
0000
0000
0130
0000
0000
0010
0000
0000
0100
0000
0000
0000
0000
0000
0100
0000
0000
0010
0000
1000
0000
0010
0000
1000
0000
0000
0001
0000
0000
1000
0000
0000
0000
0000
0000
,  // measure 17
1001
0000
0000
0000
0000
0101
0000
0001
0000
0001
0010
0000
0100
0000
1000
0000
,  // measure 18
0010
0000
0001
0000
0010
1000
0000
0100
0000
0010
0000
0001
0000
0100
0001
0000
,  // measure 19
2000
3001
1000
0001
0010
0001
0010
0001
0010
0001
0100
0010
1000
0100
0010
0001
,  // measure 20
1000
0100
0010
0100
0010
0001
0100
0001
0010
0001
0100
0010
1000
0001
0100
0001
,  // measure 21
1002
0000
1003
0002
0000
1003
0001
1000
0000
1000
0001
0000
1000
0001
2000
0000
,  // measure 22
3200
0000
1300
0200
0000
1300
0100
1000
0000
1000
0100
0000
0010
0001
0020
0000
,  // measure 23
0031
0000
0100
0002
0000
0103
0001
0100
0000
0100
0001
0000
0010
0100
0020
0000
,  // measure 24
0032
0000
0000
0000
0000
0000
0013
0000
0000
0002
0000
0000
0000
0000
0000
0013
0000
0000
0001
0000
0000
0010
0000
0000
0000
0000
0000
0010
0000
0000
0001
0000
0100
0000
0001
0000
0100
0000
0000
0010
0000
0000
0100
0000
0000
0000
0000
0000
,  // measure 25
0110
0000
0000
0100
0000
0110
0000
0010
0000
0010
1010
0000
0000
1001
0000
0000
,  // measure 26
0011
0000
1100
0000
0110
0000
0001
0100
,  // measure 27
0010
0000
1000
0000
0100
0010
0001
0010
0000
0100
0000
1000
0000
0010
0100
0000
,  // measure 28
0110
0000
0010
0000
1000
0001
0010
0000
0001
1000
0010
0000
1000
0100
0010
0001
,  // measure 29
1001
0000
0001
0000
0100
0001
0000
0001
0010
0000
0100
0000
1000
0010
0100
0001
,  // measure 30
1000
0000
0100
0000
0010
0001
0000
0001
0000
0100
0000
0210
0000
0000
0310
0000
,  // measure 31
0100
0000
0000
0100
0001
0010
0100
1000
0010
1000
0000
1001
0000
0001
0000
0010
,  // measure 32
0001
0100
0010
0000
0100
0010
1000
0000
0100
1000
0010
0100
0001
0010
0100
0000
,  // measure 33
0110
0000
0100
0000
1000
0010
0000
0010
0000
1000
0000
0010
0000
0100
0000
0001
,  // measure 34
0000
0100
0010
1000
0001
1000
0010
0100
0000
0001
0000
0010
0000
0001
0100
0010
,  // measure 35
1000
0000
0001
0000
0010
0100
0000
0100
1000
0000
0010
0000
0100
0000
0001
0000
,  // measure 36
1000
0000
0100
0000
0010
0001
0010
0001
2001
0000
0000
0000
0010
0000
0000
0000
,  // measure 37
3200
0000
0000
0000
0000
0000
0000
0000
0000
0000
0000
0000
0000
0000
0000
0000
0300
0000
0000
0000
0000
0000
0000
0000
0000
0000
0000
0000
0000
0000
0000
0010
0001
0000
0000
0000
1000
0000
0000
0000
0010
0000
0000
0000
1000
0000
0000
0000
0001
0000
0000
0000
0010
0000
0000
0000
0001
0000
0000
0000
0100
0000
0000
0000
,  // measure 38
0010
0000
0001
0000
0010
1000
0001
0000
2001
0000
0000
3001
0200
0000
0000
0301
,  // measure 39
0010
0000
0001
0100
0000
0010
0000
0000
1020
0000
0000
1030
0002
0000
0000
1003
,  // measure 40
0100
0000
0001
0000
0100
0000
0010
0000
0021
0000
0000
0031
0200
0000
0000
0310
,  // measure 41
1000
0000
1000
0001
0000
0100
0000
0010
0000
0010
0100
0000
0010
1000
0010
0000
,  // measure 42
1000
0000
1000
0001
0000
1000
0000
2001
0000
0000
0001
3000
0001
0100
0000
0100
,  // measure 43
0001
0000
0010
0001
0000
1000
0000
0010
0000
0001
0010
0000
0010
1000
0001
0010
,  // measure 44
0001
0100
0010
1000
0100
0010
0001
1000
0001
0010
0100
1000
0002
1000
0003
1000
,  // measure 45
0010
0000
0100
0000
0010
0000
0100
0000
0000
0000
0000
0000
0001
0000
0000
0010
0000
0000
0000
0000
0000
0012
0000
0000
0000
0000
0000
0000
0000
0000
0000
0000
0000
0013
0000
0000
0100
0000
0000
0000
0000
0000
0000
0000
0000
0100
0000
0000
,  // measure 46
0001
0000
0100
1000
0000
0010
0000
0000
0110
0000
0000
0010
1000
0000
0000
1000
,  // measure 47
0001
0000
0100
0000
1000
0000
0100
0000
0110
0000
0000
0010
1000
0000
0000
1000
,  // measure 48
0100
0000
1000
0010
0000
0001
0000
0010
0000
1000
0001
0000
1000
0100
1000
0000
,  // measure 49
0010
0000
0010
1000
0000
0100
0000
0210
0000
0000
0000
0310
0001
0000
0000
0001
,  // measure 50
0100
0000
0010
1000
0000
0001
0000
1000
0010
1000
0100
0010
0100
1000
0100
0010
,  // measure 51
0001
0010
0100
1000
0001
0010
0001
1000
0100
0010
0001
0010
0000
0100
0000
0110
,  // measure 52
0000
0000
0100
0000
0010
0000
0100
0000
0000
0000
0000
0000
0010
0000
0000
0001
0000
0000
0000
0000
0000
1002
0000
0000
0000
0000
0000
0000
0000
0000
2003
0000
0000
0000
0000
0000
0000
0000
0000
0000
0010
0000
0000
0000
0010
0000
0000
0000
,  // measure 53
3010
0000
0000
0000
0001
0000
0000
0000
0010
0000
0000
0000
1000
0000
0000
0000
0100
0000
0000
0000
0010
0000
0000
0000
0001
0000
0000
0000
0000
0000
0001
0000
0000
0000
0000
0000
0010
0000
0000
0100
0000
0000
0000
0000
0000
0110
0000
0000
,  // measure 54
0000
0000
0000
0100
0000
0000
1000
0000
0000
0001
0000
0000
0000
0000
0000
0001
0000
0000
0100
0000
0000
0010
0000
0000
0100
0000
0000
0000
0010
0000
0100
0000
0000
0001
0000
0000
1000
0000
0000
0100
0000
0000
1000
0000
0000
0002
0000
0000
,  // measure 55
0000
0000
0000
1003
0000
0000
0100
0000
0000
0010
0000
0000
0001
0000
0100
0000
0001
0000
1000
0000
0000
0200
0000
0000
0000
0000
0000
0310
0000
0000
0001
0000
0000
0010
0000
0000
0200
0000
0000
0000
0000
0000
1300
0000
0000
0002
0000
0000
,  // measure 56
0000
1003
0100
1000
0010
1000
0100
0010
0021
0000
0031
0000
0001
1000
0000
1001
,  // measure 57
0000
0001
1000
0100
0000
0100
0010
0000
0010
0100
0000
0100
1000
0000
1000
0010
,  // measure 58
0000
0000
0000
0100
0000
0000
0000
0000
0000
0110
0000
0000
0000
0000
0010
0000
1000
0000
0010
0000
0000
1000
0000
0000
0010
0000
0000
1000
0000
0000
0100
0000
0000
0010
0000
0000
0001
0000
0000
0100
0000
0000
0010
0000
0000
1000
0000
0000
,  // measure 59
0100
1000
0010
0100
0001
0010
0100
2000
0000
3001
1000
0200
0000
1300
0010
1000
,  // measure 60
0001
0100
0001
0010
0001
0100
0010
2000
0000
3100
0010
0100
1000
0001
0100
0001
,  // measure 61
1000
0000
0000
0100
0000
0000
0010
0000
0000
0100
0000
0000
1000
0000
0000
0010
0000
0000
0100
0000
0000
0001
0000
0000
1000
0000
0000
0001
0000
0000
0010
0000
0100
0000
0010
0000
0100
0000
0000
1000
0000
0000
0001
0000
0000
0100
0000
0000
,  // measure 62
0010
0100
0001
1000
0100
1000
0001
0010
0001
1000
0001
0100
0001
1000
0000
2001
,  // measure 63
0000
0000
0000
3001
0000
0000
0010
0000
0000
0002
0000
0000
0000
0000
0000
1003
0000
0000
0000
0000
0000
1000
0000
0000
0010
0000
0000
1000
0000
0000
0100
0000
0010
0000
0100
0000
0010
0000
0000
0001
0000
0000
0010
0000
0000
0100
0000
0000
,  // measure 64
1000
0010
0100
0001
0010
0001
1000
0010
1000
0001
0100
0010
0000
0110
0000
1020
,  // measure 65
0000
0000
0000
1030
0000
0000
0100
0000
0000
1000
0000
0000
0010
0000
0000
0100
0000
0000
0001
0000
0000
1000
0000
0000
0001
0000
0000
0010
0000
0000
0001
0000
0010
0000
0100
0000
1000
0000
0000
0010
0000
0000
1000
0000
0000
0100
0000
0000
,  // measure 66
0010
0001
0100
0010
1000
0100
0000
0210
0000
1300
0001
0100
0101
0000
0100
0210
,  // measure 67
0000
0310
1000
0001
0100
0001
0000
2002
0000
0000
0000
0000
0000
0000
3003
0000
;

//---------------dance-single - DDRDAIKENKAI----------------
#NOTES:
     dance-single:
     DDRDAIKENKAI:
     Medium:
     5:
     0.423,0.439,0.091,0.347,0.000: // measure 1
0000
0000
0000
0000
,  // measure 2
0000
0000
0000
0000
,  // measure 3
0000
0000
0000
0000
,  // measure 4
0000
0000
0000
0000
,  // measure 5
1001
0000
2000
0000
3001
0100
0001
0000
,  // measure 6
0010
0000
0100
0000
1000
0010
1000
0000
,  // measure 7
0100
0000
1000
0000
0001
0100
0001
0000
,  // measure 8
1000
0010
1000
0000
0001
1000
0001
0000
,  // measure 9
1001
2000
0001
3100
,  // measure 10
0001
0010
0100
0000
1000
0000
0010
0000
,  // measure 11
1000
0100
1000
0000
0010
1000
0100
0000
,  // measure 12
2000
0000
0000
0000
0001
0001
3001
0000
,  // measure 13
1002
0000
0000
0003
0100
0010
0100
0000
,  // measure 14
0002
0000
0000
0003
0010
0100
0010
0000
,  // measure 15
0200
0000
0000
0300
1000
0001
0100
0000
,  // measure 16
0020
0000
0000
0030
1000
0001
1000
0000
,  // measure 17
1001
0000
0001
0000
1000
0100
1000
0000
,  // measure 18
0010
0000
0100
0000
0001
0010
0001
0000
,  // measure 19
0010
0000
0100
0000
1000
0001
1000
0000
,  // measure 20
2002
0000
0000
3003
,  // measure 21
1001
0000
0000
0000
0001
0100
0010
0000
,  // measure 22
1000
0000
0100
0000
0010
0001
0010
0000
,  // measure 23
0100
0000
1000
0000
0001
0100
0001
0000
,  // measure 24
1000
0000
0010
0000
0001
0010
1000
0000
,  // measure 25
0001
0000
0010
0000
0100
1000
0010
0000
,  // measure 26
1000
0100
0010
0000
0100
1000
0001
0000
,  // measure 27
1000
0001
0100
0010
,  // measure 28
0220
0000
0000
0330
,  // measure 29
0110
0000
1001
0000
1000
0100
1000
0000
,  // measure 30
0001
0010
0001
0000
0100
0010
0100
0000
,  // measure 31
0020
0000
2030
0000
3100
1000
0200
0000
,  // measure 32
1300
0010
0100
0000
0001
0100
0010
0000
,  // measure 33
0220
0330
0010
1000
,  // measure 34
0001
0010
0001
0000
1000
0000
0100
0000
,  // measure 35
0010
0000
0001
0000
0100
0001
0100
0000
,  // measure 36
0010
1000
0100
2000
0002
0000
0000
0000
,  // measure 37
0000
0000
3003
0000
,  // measure 38
0001
0100
0001
0100
0020
0000
0030
0000
,  // measure 39
1000
0100
0010
0100
2000
0000
3001
0000
,  // measure 40
0010
0100
0010
0100
2000
0000
3000
0000
,  // measure 41
0001
0100
0010
0100
0002
0000
0023
0000
,  // measure 42
0130
1000
0001
0100
0020
0000
0030
0000
,  // measure 43
1000
0010
0100
0001
2000
0000
3002
0000
,  // measure 44
0203
0310
2000
0001
,  // measure 45
3001
1000
0001
1000
0002
0000
0003
0000
,  // measure 46
0010
0100
0010
0100
2000
0000
3010
0000
,  // measure 47
0100
0001
0100
0001
2000
0000
3000
0000
,  // measure 48
0100
0010
0001
0100
0020
0000
2030
0000
,  // measure 49
3001
0010
0100
1000
0002
0000
0003
0000
,  // measure 50
1000
0100
0010
0001
1000
0000
0100
0000
,  // measure 51
0010
0000
0100
1000
0100
0000
1000
0000
,  // measure 52
0010
0100
0010
0000
2000
0000
0001
0000
,  // measure 53
0010
0001
0100
3100
,  // measure 54
0010
0001
0010
0000
0001
0100
0010
0000
,  // measure 55
0100
0001
1000
0000
0100
1000
0100
0000
,  // measure 56
0010
0000
0001
1000
0001
0001
0100
0000
,  // measure 57
0010
0010
1000
0000
0100
0010
0100
0000
,  // measure 58
1000
0001
1000
0000
0020
0000
0100
0000
,  // measure 59
0100
0000
0130
0000
0001
0010
0001
0000
,  // measure 60
1000
0001
1000
0000
0100
1000
0100
0000
,  // measure 61
1000
0010
1000
0000
0010
0000
1000
0000
,  // measure 62
0001
0000
0100
0000
0001
0010
0100
0000
,  // measure 63
1000
0001
0100
0000
0020
0000
2030
0000
,  // measure 64
3100
0010
0100
1000
0002
0000
0023
0000
,  // measure 65
0130
0010
0001
0100
0020
0000
0000
0000
,  // measure 66
1030
0001
1000
0001
0200
0000
0000
0000
,  // measure 67
0310
1000
0001
0000
1001
0000
0000
0000
;

//---------------dance-single - DDRDAIKENKAI----------------
#NOTES:
     dance-single:
     DDRDAIKENKAI:
     Beginner:
     1:
     0.189,0.219,0.091,0.074,0.000: // measure 1
0000
0000
0000
0000
,  // measure 2
0000
0000
0000
0000
,  // measure 3
0000
0000
0000
0000
,  // measure 4
0000
0000
0000
0000
,  // measure 5
1000
0000
1000
0000
,  // measure 6
0001
0000
0001
0000
,  // measure 7
1000
0000
0001
0000
,  // measure 8
0100
0000
0100
0000
,  // measure 9
0110
0000
0100
0000
,  // measure 10
0001
0000
0001
0000
,  // measure 11
1000
0000
0100
0000
,  // measure 12
0220
0000
0000
0330
,  // measure 13
0000
0000
1000
1000
,  // measure 14
1000
0000
0001
0001
,  // measure 15
0001
0000
0100
0100
,  // measure 16
0100
0000
0010
0010
,  // measure 17
0010
0000
1000
0000
,  // measure 18
0001
0000
1000
0000
,  // measure 19
0100
0000
0010
0000
,  // measure 20
0220
0000
0330
0000
,  // measure 21
1001
0000
1000
1000
,  // measure 22
1000
0000
0001
0001
,  // measure 23
0001
0000
0100
0100
,  // measure 24
0100
0000
0010
0010
,  // measure 25
0010
0000
0100
0000
,  // measure 26
0001
0000
0100
0000
,  // measure 27
0010
0000
1000
0000
,  // measure 28
2002
0000
3003
0000
,  // measure 29
1000
0000
0001
0000
,  // measure 30
0100
0100
0100
0000
,  // measure 31
0010
0000
1000
0000
,  // measure 32
0100
0100
0100
0000
,  // measure 33
0110
0000
0010
0000
,  // measure 34
0001
0001
0001
0000
,  // measure 35
1000
0000
0001
0000
,  // measure 36
1000
1000
2000
0000
,  // measure 37
0000
0000
3000
0000
,  // measure 38
0000
0000
1001
0000
,  // measure 39
0100
0100
0100
0000
,  // measure 40
0010
0010
0010
0000
,  // measure 41
1000
1000
1000
0000
,  // measure 42
0001
0001
0001
0000
,  // measure 43
1000
1000
1000
0000
,  // measure 44
0100
0000
0010
0000
,  // measure 45
0100
0000
0110
0000
,  // measure 46
0010
0010
0010
0000
,  // measure 47
0001
0001
0001
0000
,  // measure 48
1000
1000
1000
0000
,  // measure 49
0010
0010
0010
0000
,  // measure 50
0100
0100
0100
0000
,  // measure 51
0001
0000
1000
0000
,  // measure 52
0001
0000
2002
0000
,  // measure 53
0000
0000
3003
0000
,  // measure 54
0000
0000
1000
0000
,  // measure 55
0001
0000
1000
0000
,  // measure 56
0001
0000
0100
0000
,  // measure 57
0100
0000
0010
0000
,  // measure 58
0010
0000
1000
1000
,  // measure 59
1000
1000
1000
0000
,  // measure 60
0001
0000
1000
0000
,  // measure 61
0100
0000
0010
0000
,  // measure 62
0001
0000
0100
0000
,  // measure 63
0010
0000
1000
0000
,  // measure 64
0001
0000
1000
0000
,  // measure 65
0010
0000
0100
0000
,  // measure 66
0001
0000
1001
0000
,  // measure 67
0010
0000
1001
0000
;

//---------------dance-single - DDRDAIKENKAI----------------
#NOTES:
     dance-single:
     DDRDAIKENKAI:
     Easy:
     4:
     0.308,0.302,0.140,0.330,0.000: // measure 1
0000
0000
0000
0000
,  // measure 2
0000
0000
0000
0000
,  // measure 3
0000
0000
0000
0000
,  // measure 4
0000
0000
0000
0000
,  // measure 5
1002
0000
1000
1000
,  // measure 6
2003
0000
3001
0100
,  // measure 7
0020
0000
1000
1030
,  // measure 8
0001
0010
1000
0100
,  // measure 9
0120
0230
0000
0001
,  // measure 10
0302
0000
0013
0100
,  // measure 11
2000
0000
3100
0010
,  // measure 12
0002
0000
2000
0000
,  // measure 13
3003
0000
1000
1000
,  // measure 14
0002
0000
0103
0010
,  // measure 15
0100
0000
0010
0010
,  // measure 16
2000
0000
3100
0010
,  // measure 17
0002
0003
1000
0100
,  // measure 18
0010
0100
1000
0001
,  // measure 19
1000
0000
0001
0000
,  // measure 20
2002
0000
0000
0000
,  // measure 21
3003
0000
0001
0001
,  // measure 22
0010
0000
0001
0100
,  // measure 23
0010
0000
0100
0001
,  // measure 24
0010
0100
1000
0001
,  // measure 25
1001
0000
1000
0010
,  // measure 26
1000
0100
0010
0001
,  // measure 27
0200
0000
0310
0010
,  // measure 28
0220
0000
0000
0330
,  // measure 29
0110
0020
0100
0130
,  // measure 30
0001
0010
0100
1000
,  // measure 31
0010
0001
0010
1000
,  // measure 32
0100
0100
0010
0001
,  // measure 33
2002
3003
0000
0001
,  // measure 34
0010
0001
0100
0010
,  // measure 35
1000
0100
0010
0100
,  // measure 36
1000
0001
2000
0000
,  // measure 37
0010
0000
0200
3300
,  // measure 38
0100
0010
0220
0330
,  // measure 39
0010
0001
1000
0001
,  // measure 40
0010
0100
0220
0330
,  // measure 41
0100
1000
0001
1000
,  // measure 42
0100
0010
0220
0330
,  // measure 43
0010
0001
0100
0010
,  // measure 44
1000
0100
2000
0000
,  // measure 45
0000
3000
2002
3003
,  // measure 46
0001
0100
0010
0100
,  // measure 47
0001
1000
2002
3003
,  // measure 48
1000
0010
0100
0010
,  // measure 49
1000
0001
2002
3003
,  // measure 50
1000
1000
0001
0010
,  // measure 51
0100
1000
0010
0001
,  // measure 52
0100
1000
1002
1000
,  // measure 53
1003
0100
1000
0010
,  // measure 54
1000
0010
0100
0001
,  // measure 55
0100
0001
0010
0001
,  // measure 56
0010
0001
1000
0100
,  // measure 57
1000
0010
1000
0100
,  // measure 58
1000
0010
0200
0000
,  // measure 59
0000
0300
1001
0001
,  // measure 60
1000
0100
0010
0100
,  // measure 61
1000
0010
1000
0010
,  // measure 62
0100
0001
0010
0001
,  // measure 63
0100
0010
0100
0001
,  // measure 64
0010
0100
1000
0001
,  // measure 65
0100
0001
2000
0000
,  // measure 66
3001
0100
0220
0330
,  // measure 67
1000
0001
1001
0000
;
