#TITLE:Papaoutai;
#SUBTITLE:;
#ARTIST:Pentatonix ft. Lindsey Stirling;
#TITLETRANSLIT:;
#SUBTITLETRANSLIT:ft. Lindsey Stirling;
#ARTISTTRANSLIT:Pentatonix;
#GENRE:POP-CAPELLA;
#CREDIT:;
#MENUCOLOR:;
#NEWMETERSYSTEM:NO;
#BANNER:Papaoutai.png;
#BACKGROUND:Papaoutai-bg.png;
#LYRICSPATH:;
#CDTITLE:CDtitle.png;
#MUSIC:Papaoutai.ogg;
#OFFSET:0.000;
#SAMPLESTART:34.793;
#SAMPLELENGTH:16.330;
#SELECTABLE:YES;
#LISTSORT:;
#DISPLAYBPM:117.000;
#BPMS:0.000=117.095,67.000=117.035,131.000=116.235,139.000=117.235,147.000=117.035;
#STOPS:66.000=0.256
,66.500=0.256
,193.000=0.256
,193.500=0.256
;
#BGCHANGES:4.000=Papaoutai.avi=1.000=0=0=1,
239.500=Papaoutai-bg.png=1.000=0=0=1,
99999=-nosongbg-=1.000=0=0=0 // don't automatically add -songbackground-
;
#ATTACKS:;

//---------------dance-single - DDRDAIKENKAI----------------
#NOTES:
     dance-single:
     DDRDAIKENKAI:
     Hard:
     8:
     0.552,0.518,0.220,0.189,0.488: // measure 1
0000
0000
0000
0000
,  // measure 2
1000
0000
0000
1000
0000
0000
1000
0000
1000
0000
0000
0000
0001
0000
0001
0000
,  // measure 3
0100
0000
0000
0100
0000
0000
0100
0000
0010
0000
0000
0000
0100
0000
0100
0000
,  // measure 4
0001
0000
0000
0010
0000
0001
0000
0010
0000
0001
0000
0000
0100
0000
0100
0000
,  // measure 5
0010
0000
0000
1000
0000
0010
0000
1000
0000
0010
0000
0000
1000
0000
1000
0000
,  // measure 6
0100
0000
0000
0100
0000
0000
1000
0000
0001
0000
0000
0000
0001
0000
0001
0000
,  // measure 7
0100
0000
0000
0100
0000
0000
0010
0000
1000
0000
0000
0000
0001
0000
0001
0000
,  // measure 8
1000
0000
0000
1000
0000
0001
1000
0000
1000
0000
0000
0000
0001
0000
0001
0000
,  // measure 9
0100
0000
0010
0100
0000
0010
0100
0000
0100
0000
0000
0000
0010
0000
1000
0000
,  // measure 10
1001
0000
0000
0010
0000
0000
0100
0000
0200
0000
0000
0301
0000
0000
0001
0000
,  // measure 11
1000
0000
0000
0100
0000
0000
0010
0000
0020
0000
0000
0031
0000
0000
0001
0000
,  // measure 12
1000
0000
0000
0001
0000
0000
0100
0000
0000
0010
0000
0010
0200
0000
0001
0000
,  // measure 13
0301
0000
0000
1000
0000
0100
1000
0000
0200
0000
0010
0000
0010
0000
0310
0000
,  // measure 14
0001
0000
0000
0100
0000
0000
0010
0000
2000
0000
0000
3010
0000
0000
0010
0000
,  // measure 15
1000
0000
0000
0100
0000
0000
0010
0000
0002
0000
0000
0000
1003
0000
1000
0000
,  // measure 16
0100
0000
0000
0001
0100
0000
1000
0000
0010
0000
0001
0000
0010
0000
1000
0000
,  // measure 17
0001
0000
0000
1000
0000
0100
0010
0000
0001
0000
1001
0000
0210
0000
0000
0000
,  // measure 18
0301
0000
0010
0000
0000
1000
0000
0010
0001
0000
1000
0000
1001
0000
0000
0000
,  // measure 19
1000
0000
0100
0000
0000
0001
0000
0100
1000
0000
0001
0000
1001
0000
0000
0000
,  // measure 20
1000
0000
0010
0000
0000
0100
0000
0001
0010
0000
0100
0000
1000
0000
1000
0000
,  // measure 21
0001
0000
0001
0000
0100
0010
0000
0100
0010
0000
0010
0000
0110
0000
0000
0000
,  // measure 22
0100
0000
0100
0000
0000
0001
0000
1000
0100
0000
1000
0000
1001
0000
0000
0000
,  // measure 23
1000
0000
1000
0000
0000
0001
0000
0010
0001
0000
0100
0000
0110
0000
0000
0000
,  // measure 24
0100
0000
0100
0000
0000
0010
0000
1000
0010
0000
0100
0000
0001
0000
0001
0000
,  // measure 25
1000
0000
1000
0000
0000
0010
0000
0010
0100
0000
0001
0000
1001
0000
0000
0001
,  // measure 26
1000
0000
0100
0000
0010
0000
0001
0000
0100
0000
1000
0000
0100
0000
0000
0010
,  // measure 27
1000
0000
0100
0000
1000
0000
0010
0000
0100
0000
0001
0000
0010
0000
0000
0100
,  // measure 28
0001
0100
1000
0010
0001
0010
1000
1000
,  // measure 29
0001
0000
0001
0000
0100
0010
0000
0010
0100
0000
0001
0000
1001
0000
0000
0001
,  // measure 30
0100
0000
0010
0000
1000
0000
0000
0100
0010
0000
0100
0000
1000
0000
0000
0010
,  // measure 31
0100
0000
0001
0000
0010
0000
0000
0100
1000
0000
0010
0000
0001
0000
0000
0010
,  // measure 32
1000
0000
0100
0000
0010
0000
0000
0001
0100
0000
1000
0000
0100
0000
0100
0000
,  // measure 33
0010
0000
0010
0000
1000
0001
0000
0001
1000
0000
2000
0000
3000
0000
0100
1000
,  // measure 34
0000
0100
1000
0000
2000
0000
3000
0000
0000
0000
0000
0000
0001
0000
0010
0001
,  // measure 35
0000
0010
0001
0000
0002
0000
0003
0000
0000
0000
0000
0000
0100
0000
0000
0010
,  // measure 36
0000
0000
1000
0000
0000
0001
0000
1000
0001
0000
0000
0000
0100
0000
0001
0100
,  // measure 37
0000
0001
0100
0000
0002
0000
0003
0000
0000
0000
0000
0000
0000
0000
1000
0100
,  // measure 38
0000
1000
0100
0000
2000
0000
3000
0000
0000
0000
0000
0000
0001
0000
0000
0010
,  // measure 39
0000
0000
0100
0000
2000
0000
0000
0000
0001
0000
3001
0000
0000
0000
0000
1000
,  // measure 40
0100
0000
1000
0000
0010
0000
1000
0000
0100
0000
1000
0000
0000
0000
0000
0001
,  // measure 41
0000
0010
0100
0000
1000
0000
0000
0000
0011
0000
0000
0000
1010
0000
0010
0100
,  // measure 42
0000
0001
1000
0000
0002
0000
1000
0000
1003
0000
0000
0000
0011
0000
0010
0100
,  // measure 43
0000
1000
0001
0000
2000
0000
0001
0000
3001
0000
0000
0000
1002
0000
0000
0103
,  // measure 44
0000
0001
0100
0000
0010
0100
0000
0020
1000
0000
1030
0000
0100
0000
0010
0100
,  // measure 45
0000
1000
0100
0000
0010
0000
0001
0000
1001
0000
0000
0000
0101
0000
0001
1000
,  // measure 46
0000
0100
1000
0000
0002
0000
0103
0000
0110
0000
0000
0000
1010
0000
0010
1000
,  // measure 47
0000
0001
0100
0000
0020
0000
1030
0000
0100
0000
0200
0000
0300
0000
0000
1000
,  // measure 48
0100
0000
0010
0000
0100
0000
1000
0000
0001
0000
0100
0000
0010
0000
0000
1000
,  // measure 49
0000
0010
0100
0000
0001
0000
1001
0000
0120
0000
0000
1030
0100
0000
1000
0000
,  // measure 50
0010
0100
0000
0100
0010
0000
1000
0000
1001
0000
0000
0001
0010
0000
0001
0000
,  // measure 51
0100
0010
0000
0010
0100
0000
0001
0000
1001
0000
0000
0001
1000
0000
0100
0000
,  // measure 52
0001
0100
0000
0100
1000
0000
0010
0000
1000
0000
1000
0000
0001
0000
0001
0000
,  // measure 53
1000
0010
0000
0010
0100
0000
0001
0000
1001
0000
0000
0001
1000
0000
0100
0000
,  // measure 54
0010
0001
0000
0001
0010
0000
0100
0000
1100
0000
0000
0100
1000
0000
0010
0000
,  // measure 55
0100
0001
0000
0001
0100
0000
0010
0000
0110
0000
0000
0010
1000
0000
0001
0000
,  // measure 56
0100
0010
0000
0010
0100
0000
0001
0000
0100
0000
0100
0000
0010
0000
0010
0000
,  // measure 57
0100
0001
0000
0001
1000
0000
1000
0000
0001
0000
0000
0010
0000
0000
0200
0000
,  // measure 58
0000
1300
0010
1000
0010
0000
0010
0000
1000
0000
0000
0010
0000
0000
0200
0000
,  // measure 59
0000
0301
0010
0001
0010
0000
0010
0000
0001
0000
0000
0100
0000
0000
0020
0000
,  // measure 60
0000
1030
0001
1000
0001
0000
0001
0000
0101
0000
0000
1100
0000
0000
1001
0000
;

//---------------dance-single - DDRDAIKENKAI----------------
#NOTES:
     dance-single:
     DDRDAIKENKAI:
     Medium:
     6:
     0.397,0.353,0.031,0.173,0.150: // measure 1
0000
0000
0000
0000
,  // measure 2
0100
0000
0100
0000
0100
0000
0100
0001
,  // measure 3
0010
0000
0010
0000
0010
0000
0010
0100
,  // measure 4
1000
0000
1000
0000
1000
0000
1000
0001
,  // measure 5
0100
0000
0100
0000
0100
0000
0100
0001
,  // measure 6
1000
0000
0001
0000
1000
0000
0010
1000
,  // measure 7
0100
0000
0010
0000
0100
0000
0010
0001
,  // measure 8
1000
0000
0001
0000
1000
0000
0001
0100
,  // measure 9
0010
0000
0100
0000
0010
0000
0100
0010
,  // measure 10
2000
0000
0000
3200
0000
0000
0320
0000
0000
0000
0000
0000
0030
0000
0000
0000
,  // measure 11
0002
0000
0000
0203
0000
0000
0320
0000
0000
0000
0000
0000
0030
0000
0000
0000
,  // measure 12
2000
0000
0000
3002
0000
0000
2003
0000
0000
0000
0000
0000
3000
0000
0000
0000
,  // measure 13
0020
0000
0000
0230
0000
0000
0320
0000
0000
0000
0000
0000
2030
0000
0000
0000
,  // measure 14
3001
0000
0000
0100
0000
0000
0010
0000
2000
0000
0000
0000
3000
0000
0000
0000
,  // measure 15
0001
0000
0000
0010
0000
0000
0100
0000
2000
0000
0000
0000
3001
0000
0001
0000
,  // measure 16
1000
0000
0000
0100
0000
0000
0020
0000
0001
0000
0000
0000
0031
0000
0000
0000
,  // measure 17
0100
0000
0000
0010
0000
0000
0100
0000
0010
0000
1001
0000
0100
0000
0000
0000
,  // measure 18
0010
0000
1000
0000
0100
0000
0000
1000
0001
0000
0000
0000
0100
0000
0000
0000
,  // measure 19
0001
0000
0010
0000
0100
0000
0000
0010
0001
0000
0000
0000
1000
0000
0000
0000
,  // measure 20
0100
0000
1000
0000
0001
0000
0000
0100
0010
0000
0000
0000
1000
0000
0001
0000
,  // measure 21
1000
0001
0100
0010
0100
0000
0010
0000
,  // measure 22
1000
0000
0100
0000
0010
0000
0000
0001
1000
0000
0000
0000
0100
0000
0000
0000
,  // measure 23
0010
0000
0001
0000
0100
0000
0000
0001
1000
0000
0000
0000
0100
0000
0000
0000
,  // measure 24
1000
0000
0001
0000
0100
0000
0000
0010
1000
0000
0000
0000
0100
0000
0010
0000
,  // measure 25
0100
0000
0010
0000
0001
0000
1000
0000
0001
0000
0000
0000
1000
0000
0000
1000
,  // measure 26
0100
0000
0000
0000
0010
0000
0001
0000
0100
0000
0000
0000
0001
0000
0000
0001
,  // measure 27
0010
0000
0000
0000
0100
0000
1000
0000
0001
0000
0000
0000
0100
0000
0000
0100
,  // measure 28
0010
0000
0100
0001
1000
0000
0010
0100
,  // measure 29
0010
0000
0100
0000
0001
0000
1000
0000
0001
0000
0000
0000
1000
0000
0000
1000
,  // measure 30
0100
0000
0000
0000
0010
0000
0001
0000
0100
0000
0000
0000
0001
0000
0000
0001
,  // measure 31
0100
0000
0000
0000
0010
0000
1000
0000
0100
0000
0000
0000
1000
0000
0000
1000
,  // measure 32
0001
0000
0100
0001
1000
0000
0010
0100
,  // measure 33
0010
0000
0100
0000
0001
0000
1000
0000
0002
0000
0000
0000
1003
0000
0000
0100
,  // measure 34
0000
0000
0010
0000
0001
0000
0000
0000
0000
0000
0000
0000
1000
0000
0000
0100
,  // measure 35
0000
0000
0010
0000
0001
0000
0000
0000
0000
0000
0000
0000
1000
0000
0000
0010
,  // measure 36
0000
0000
0100
0000
0000
0001
0000
0000
1000
0000
0000
0000
0001
0000
0000
0100
,  // measure 37
0000
0000
0010
0000
1000
0000
0000
0000
0000
0000
0000
0000
0001
0000
0000
0010
,  // measure 38
0000
0000
0001
0000
0010
0000
0000
0000
0000
0000
0000
0000
0100
0000
0000
1000
,  // measure 39
0000
0100
1000
0000
0001
0001
0100
0000
,  // measure 40
0010
0000
0000
0000
1000
0000
0100
0000
1000
0000
0100
0000
0010
0000
0000
0001
,  // measure 41
0000
1000
0100
0000
0110
0000
0100
0010
,  // measure 42
0100
0010
0002
0000
0103
0000
0010
1000
,  // measure 43
0010
1000
0200
0000
1300
0000
0001
0000
,  // measure 44
0100
0010
1000
0010
0100
0000
0001
0010
,  // measure 45
0100
0010
0002
0000
1003
0000
0100
0010
,  // measure 46
0001
0100
0020
0000
1030
0000
0100
1000
,  // measure 47
0010
0100
0002
0000
1003
1000
0001
0000
,  // measure 48
1000
0100
1000
0100
0010
0000
0001
0000
,  // measure 49
0100
0010
1000
0110
0001
0000
0010
0100
,  // measure 50
1000
0000
0000
0001
0100
0000
0000
0000
0010
0000
0000
0000
1000
0000
0100
0000
,  // measure 51
0010
0000
0000
0001
1000
0000
0000
0000
0100
0000
0000
0000
1000
0000
0001
0000
,  // measure 52
0100
0000
0000
0010
1000
0000
0000
0000
0010
0000
0100
0000
0010
0000
0100
0000
,  // measure 53
0001
1000
0001
0000
0010
0000
0001
0100
,  // measure 54
0010
0000
0000
1000
0001
0000
0000
0000
1000
0000
0000
0000
0100
0000
1000
0000
,  // measure 55
0010
0000
0000
0100
0001
0000
0000
0000
0010
0000
0000
0000
0100
0000
1000
0000
,  // measure 56
0001
0000
0000
0100
0010
0000
0000
0000
1000
0000
0001
0000
1000
0000
0001
0000
,  // measure 57
0100
0000
0010
0000
0100
0000
0000
0000
0010
0000
0000
1000
0000
0000
0001
0000
,  // measure 58
0000
0000
0100
0000
0010
0000
0000
0000
0100
0000
0000
0001
0000
0000
1000
0000
,  // measure 59
0000
0000
0010
0000
0100
0000
0000
0000
0001
0000
0000
1000
0000
0000
0100
0000
,  // measure 60
0000
0000
0010
0000
0001
0000
0000
0000
1000
0000
0000
1000
0000
0000
1001
0000
;

//---------------dance-single - DDRDAIKENKAI----------------
#NOTES:
     dance-single:
     DDRDAIKENKAI:
     Challenge:
     10:
     0.772,0.778,0.268,0.331,0.948:
0000
0000
0000
0000
,
1000
0000
0001
1000
0000
0001
1000
0000
0001
0000
0000
0000
0100
0000
0010
0000
,
1000
0000
0100
1000
0000
0100
1000
0000
0100
0000
0000
0000
1000
0000
0010
0000
,
0100
0000
0001
0010
0000
0001
0000
0010
0000
0001
0000
0000
0100
0000
0010
0000
,
1000
0000
0001
1000
0000
0001
0000
1000
0000
0001
0000
0000
0100
0000
0010
0000
,
1000
0000
0010
0100
0000
0010
1000
0000
0001
0000
0000
0000
1000
0000
0001
0000
,
0100
0000
0010
0100
0000
0001
0010
0000
0001
0000
0000
0000
0010
0000
0100
0000
,
1000
0000
1000
0100
0000
0100
1000
0010
1000
0000
0000
0000
0001
0000
0100
0000
,
0010
1000
0010
1000
0000
1000
0001
0000
1000
0000
0000
0000
0001
0000
0002
0000
,
0003
0000
1000
0100
0000
0001
0100
0000
1000
0000
0001
0000
1001
0000
0000
0000
,
0100
0000
0001
0010
0000
1000
0010
0000
0001
0000
0100
0000
0110
0000
0000
0000
,
1000
0000
0100
1000
0000
0010
0100
0000
0001
0100
0000
0020
1000
0000
1030
0000
,
0001
0000
0001
0010
0000
0010
0100
0000
1000
0000
0020
0000
0032
0000
0023
0000
,
1030
0000
0100
0010
0000
0001
0100
0000
0010
0000
1000
0000
2010
0000
0000
0000
,
3010
0000
0100
0001
0000
0010
0100
0000
2000
0000
3001
0000
0101
0000
2200
0000
,
3300
0000
0000
1000
0100
0000
0010
0000
0100
0000
1000
0000
0010
0000
0001
0000
,
0010
0000
0000
1000
0000
0001
0100
0000
0010
0000
1001
0000
0210
0000
0000
0302
,
1003
0000
0020
0000
0130
0001
0000
0001
1000
0000
0010
0000
0110
0000
0000
2000
,
3001
0000
0200
0000
0310
1000
0000
1000
0001
0000
0100
0000
0101
0000
0000
0002
,
0103
0000
0020
0000
1030
0100
0000
0100
1000
0000
0010
0000
1010
0000
1010
0000
,
0101
0000
0101
0000
0001
0010
0000
0100
1000
0000
0001
0000
1000
0001
1000
0100
,
0010
0100
1000
0000
0001
0100
0000
0100
0010
0000
1000
0000
0001
1000
0001
0010
,
0100
0010
0001
0000
1000
0010
0000
0010
0100
0000
0001
0000
1000
0001
1000
0100
,
0010
0100
1000
0000
0001
0100
0000
0100
0001
0000
1000
0000
1010
0000
1010
0000
,
0101
0000
0101
0000
0001
0010
0000
0010
0100
0000
1000
0000
0001
1000
0000
1000
,
0100
0000
0010
0100
0010
0001
0010
0100
2000
0000
3001
0000
0100
0010
0000
0010
,
1000
0000
0010
1000
0100
1000
0001
0000
0002
0000
1003
0000
0010
0100
0000
0100
,
0010
0000
1000
0001
1000
0100
0010
0100
1000
0100
0010
0001
1000
0010
0100
0010
,
0001
0010
0100
0010
1000
0001
0100
0010
0200
0000
0301
0000
0100
0010
0000
0010
,
1000
0000
0100
1000
0010
0100
0001
0010
0002
0000
1003
0000
0001
0010
0000
0010
,
0100
0000
1000
0001
1000
0000
2000
0000
3020
0000
0100
0000
0130
0001
0000
0001
,
0010
0000
1000
0010
0001
0100
0010
0100
1000
0100
0010
0100
0001
0010
0100
1000
,
0010
1000
0100
0010
0001
0010
1000
0010
0002
0000
0000
0000
0003
0000
1000
0001
,
0000
0100
0010
0000
0020
0000
0030
0000
0000
0000
0000
0000
1000
0000
0010
0001
,
0000
0010
1000
0000
2000
0000
3000
0000
0000
0000
0000
0000
0002
0000
0000
0103
,
0000
0010
0100
0000
0010
1000
0000
1000
0001
0000
1000
0000
0100
0000
0010
0100
,
0000
0000
0000
0000
0000
0000
0000
0000
0000
0000
0000
0000
1000
0000
0000
0000
0000
0000
0000
0000
0000
0000
0000
0000
0001
0000
0000
0000
0000
0000
0000
0000
0000
0000
0000
0000
0000
0000
0000
0000
0000
0000
0000
0000
0000
0000
0000
0000
2000
0000
0000
0000
0000
0000
0000
0000
0000
0000
0000
0000
0000
0000
0000
0000
0000
0000
0000
0000
0000
0000
0000
0000
3000
0000
0000
0000
0000
0000
0000
0000
0000
0000
0000
0000
0000
0000
0000
0000
0000
0000
0000
0000
0000
0000
0000
0000
0000
0000
0000
0000
0000
0000
0000
0000
0000
0000
0000
0000
0000
0000
0000
0000
0000
0000
0000
0000
0000
0000
0000
0000
0000
0000
0000
0000
0000
0000
0000
0000
0000
0000
0000
0000
0000
0000
0000
0000
0000
0000
0000
0000
0000
0000
0000
0000
0000
0000
0000
0000
0000
0000
0000
0000
0000
0000
0000
0000
0000
0000
0000
0000
0000
0000
0001
0000
0000
0000
0000
0000
0000
0000
0000
0000
0000
0000
0000
0000
0000
0000
0000
0000
0000
0000
0000
0000
0100
0000
0000
0000
0000
0000
0000
0000
,
0000
0000
0010
0000
0000
1000
0000
0000
0002
0000
0000
0000
1003
0000
0000
0000
0000
0000
0000
0000
0000
0000
0000
0000
1000
0000
0000
0000
0010
0000
0100
0000
,
0000
0010
0100
0000
0002
0000
0003
0000
0101
0000
1100
0000
0000
0000
0000
1000
,
0100
0000
0010
0000
0100
0000
1000
0000
0100
0000
0010
0000
0000
0000
0000
0001
,
0000
1000
0010
0000
0002
0000
0023
0000
2030
0000
3100
0000
0110
0000
0010
0001
,
0000
0001
0100
0020
0000
1030
0100
1000
0001
0000
0001
0000
1001
0000
0001
1000
,
0000
1000
0010
0200
0000
0301
0100
0001
1000
0000
1000
0000
1001
0000
1000
0100
,
0000
0100
0010
0002
0000
1003
0100
1000
0010
0000
0010
0000
0110
0000
0100
0001
,
0000
0001
0010
0200
0000
1300
0001
1000
0001
0000
0001
0000
1001
0000
1000
0001
,
0000
1000
0100
1000
0010
0100
0001
0100
0010
0000
0010
0000
0110
0000
0100
0001
,
0000
1000
0100
0010
0001
0010
0100
0010
0001
0000
0001
0000
1001
0000
1000
0100
,
0000
1000
0010
0100
0001
1000
0010
1000
0001
0000
0001
0000
0101
0000
0100
0001
,
0000
1000
0100
0000
0010
0000
1001
0000
0100
0001
0010
0001
0100
0001
0010
0001
,
1000
0100
0010
0100
1000
0100
0010
0001
0100
0010
0100
0001
0100
0010
0100
0001
,
1000
0010
0100
0001
0010
0001
0100
0010
1000
0001
0010
0001
1000
0001
0010
0001
,
1000
0001
0100
0010
1000
0100
0010
0001
0010
0100
1000
0100
0010
0100
1000
0100
,
0010
0001
0100
0010
1000
0100
0010
0001
0100
1000
0100
0001
1000
0100
0010
0001
,
1000
0010
0100
1000
0100
0001
0100
0010
0002
0000
0013
1000
0100
0010
0100
0001
,
0100
1000
0010
0100
0001
0100
0010
1000
0002
0000
1003
0100
0010
0001
0100
0010
,
2000
0000
3001
0100
0010
1000
0100
0010
0001
0010
0100
1000
0001
0100
0010
1000
,
0001
0100
0010
0100
0001
0000
0001
0000
1001
0000
0001
0100
0000
0010
1000
0002
,
0000
0103
1000
0100
0010
0000
0010
0000
0110
0000
0100
0010
0000
1000
0100
0020
,
0000
0031
0100
0001
1000
0000
1000
0000
1100
0000
0100
0010
0000
0001
0010
2000
,
0000
3010
0001
0100
0010
0000
0010
0000
1010
0000
0000
0011
0000
0000
1001
0000
;

//---------------dance-single - DDRDAIKENKAI----------------
#NOTES:
     dance-single:
     DDRDAIKENKAI:
     Beginner:
     1:
     0.170,0.188,0.008,0.094,0.000:
0000
0000
0000
0000
,
1000
0000
1000
0000
,
0001
0000
0001
0000
,
1000
0000
1000
0000
,
0001
0000
0001
0000
,
0100
0000
0100
0000
,
0010
0000
0010
0000
,
0100
0000
0100
0000
,
0010
0000
0010
0000
,
1000
1000
1000
0000
,
0001
0001
0001
0000
,
1000
0000
0001
0000
,
1000
1000
1000
0000
,
0010
0010
0010
0000
,
0100
0100
0100
0000
,
0001
0000
1000
0000
,
0001
0000
1000
1000
,
1000
1000
0000
0001
,
0001
0001
0000
0100
,
0100
0100
0000
0010
,
0010
0010
0010
0010
,
0010
0010
0000
1000
,
1000
1000
0000
0001
,
0001
0001
0000
0100
,
0100
0100
0100
0100
,
0100
0000
0001
0000
,
1000
0000
0001
0000
,
0100
0000
0001
0001
,
0001
0001
0001
0000
,
1000
0000
0001
0000
,
1000
0000
0001
0000
,
0010
0000
0100
0100
,
0100
0100
0100
0200
,
0000
0300
0000
2000
,
0000
3000
0000
0002
,
0000
0003
0000
0200
,
0000
0300
0000
0020
,
0000
0030
0000
0200
,
0000
0300
0000
0002
,
0000
0003
0000
2000
,
0000
3000
0000
1001
,
0000
0001
0000
1000
,
0000
0001
0000
0100
,
0000
0010
0000
0100
,
0000
0010
0000
0100
,
0000
0001
0000
1000
,
0000
0100
0000
0010
,
0000
0001
0000
1000
,
0000
0001
0001
0001
,
0001
0000
0100
0100
,
0100
0000
0010
0010
,
0010
0000
1000
1000
,
1000
1000
1000
1000
,
1000
0000
0100
0100
,
0100
0000
0001
0001
,
0001
0000
1000
1000
,
1000
1000
2000
0000
,
3000
0000
0002
0000
,
0003
0000
0200
0000
,
0300
0000
0000
0000
0020
0000
0000
0030
;

//---------------dance-single - DDRDAIKENKAI----------------
#NOTES:
     dance-single:
     DDRDAIKENKAI:
     Easy:
     3:
     0.244,0.283,0.055,0.205,0.000: // measure 1
0000
0000
0000
0000
,  // measure 2
2000
0000
3000
0000
,  // measure 3
0002
0000
0003
0000
,  // measure 4
0200
0000
0300
0000
,  // measure 5
0020
0000
0030
0000
,  // measure 6
2000
0000
3001
0000
,  // measure 7
2000
0000
3100
0000
,  // measure 8
0020
0000
0031
0000
,  // measure 9
0200
0000
0301
0000
,  // measure 10
0001
0100
0010
0000
,  // measure 11
1000
0100
0010
0000
,  // measure 12
0001
1000
0001
1000
,  // measure 13
0010
0100
0002
0003
,  // measure 14
1000
1000
0100
0000
,  // measure 15
0001
0001
0100
0000
,  // measure 16
1000
0010
0001
0010
,  // measure 17
1000
0000
0001
0000
2002
3003
0001
0000
,  // measure 18
0001
0100
0010
1000
,  // measure 19
1000
0100
0010
0001
,  // measure 20
0001
0100
0010
1000
,  // measure 21
0001
1000
0001
0100
,  // measure 22
0100
0010
1000
0001
,  // measure 23
0001
0010
0100
1000
,  // measure 24
1000
0001
0100
0010
,  // measure 25
0010
0100
0100
0001
,  // measure 26
1000
0100
1000
0001
,  // measure 27
1000
0100
1000
0001
,  // measure 28
0100
0010
0100
0001
,  // measure 29
0001
0010
0010
0100
,  // measure 30
1000
0100
0001
0100
,  // measure 31
1000
0100
0001
0100
,  // measure 32
1000
0010
1000
0100
,  // measure 33
0100
0010
0010
0002
,  // measure 34
0000
0003
0000
0200
,  // measure 35
0000
0300
0000
0020
,  // measure 36
0000
0030
0000
2000
,  // measure 37
0000
3000
0000
0002
,  // measure 38
0000
0013
0000
0200
,  // measure 39
0000
1300
0000
0002
,  // measure 40
0000
0103
0000
0020
,  // measure 41
0000
1030
0000
1001
,  // measure 42
0001
1000
0000
1001
,  // measure 43
1000
0001
0000
0100
,  // measure 44
0100
0010
0010
1000
,  // measure 45
0001
1001
0000
0110
,  // measure 46
0010
0100
0100
0001
,  // measure 47
0010
0001
0001
1000
,  // measure 48
0100
0001
0100
1000
,  // measure 49
0001
0000
2002
3003
0001
0000
1000
0000
,  // measure 50
0001
1000
0010
0100
,  // measure 51
0010
0100
0001
0010
,  // measure 52
0100
1000
0010
0010
,  // measure 53
0100
0100
0001
1000
,  // measure 54
0001
1000
0100
0010
,  // measure 55
0100
0010
0001
0100
,  // measure 56
0010
1000
0001
0001
,  // measure 57
1000
1000
0200
0000
,  // measure 58
1000
1300
0002
0000
,  // measure 59
0100
0103
0020
0000
,  // measure 60
1000
0000
1030
0000
2002
0000
0000
3003
;
