#TITLE:Once Upon a Time;
#SUBTITLE:;
#ARTIST:Pamsy;
#TITLETRANSLIT:;
#SUBTITLETRANSLIT:;
#ARTISTTRANSLIT:;
#GENRE:SUPER EUROBEAT;
#CREDIT:;
#MENUCOLOR:;
#NEWMETERSYSTEM:NO;
#BANNER:Once Upon a Time.png;
#BACKGROUND:Once Upon a Time-bg.png;
#LYRICSPATH:;
#CDTITLE:;
#MUSIC:Once Upon a Time.ogg;
#OFFSET:0.000;
#SAMPLESTART:50.160;
#SAMPLELENGTH:12.980;
#SELECTABLE:YES;
#LISTSORT:;
#BPMS:0.000=148.325;
#STOPS:;
#BGCHANGES:;
#ATTACKS:;

//---------------dance-single - DDRDAIKENKAI----------------
#NOTES:
     dance-single:
     DDRDAIKENKAI:
     Hard:
     8:
     0.586,0.548,0.241,0.356,0.189:
0000
0000
0000
0000
,
0000
0000
0000
0000
,
0000
0000
0000
0000
,
0000
0000
0000
0000
,
0000
0000
0000
0000
,
0000
0000
0000
0000
,
0000
0000
0000
0000
,
0000
0000
0000
0000
,
2002
0000
0000
3003
,
0001
0000
0100
0000
0010
0000
1000
0100
0000
1000
0100
0000
0010
0000
0001
0000
,
0010
0000
0100
0000
1000
0000
0001
0100
0000
0001
0100
0000
0010
0000
1000
0000
,
0001
0000
1000
0000
0010
0000
0100
0010
0000
0100
0020
0000
0000
0000
1030
0000
,
0100
0000
0010
0000
0100
0000
1000
0010
0000
1000
0010
0000
1000
0000
0001
0000
,
0010
0000
0001
0000
1000
0000
0001
0100
0000
0001
0100
0000
0010
0000
1000
0000
,
0100
0000
1000
0000
0010
0000
0100
0010
0000
0100
0010
0000
1000
0000
0001
0000
,
0010
0000
0100
0000
1000
0000
0001
0100
0000
0001
0100
0000
0010
0000
1000
0000
,
0100
0010
0001
1000
1100
0000
1001
0000
,
1000
0100
1000
0010
0100
0001
0010
0001
,
1000
0100
0001
0100
1000
0010
0001
0000
,
0010
1000
0100
1000
0010
0100
0001
0010
,
0002
0023
0230
2300
,
3001
0010
0001
0100
0010
1000
0100
0010
,
0001
0100
1000
0100
0001
0010
1000
0000
,
0010
0001
0100
0010
1000
0100
0010
0001
,
2000
0000
3020
0000
0230
0000
0301
1000
,
0002
0000
0013
0200
0000
1300
0001
0200
,
0000
0010
0310
1000
1001
0000
0101
0000
,
1020
0000
1030
0200
0000
0310
0001
0200
,
0000
0001
0001
0302
0000
1003
0100
0020
,
0001
0031
0100
0100
0010
0010
1000
2000
,
3001
0100
0010
1000
2002
0000
3003
0000
,
1000
0010
1000
0010
0100
0001
0100
0002
,
0000
0000
0103
0010
0000
1000
0000
0000
1001
0000
0000
0000
0101
0000
0000
0000
,
0001
0010
0001
0010
0100
1000
0100
2000
,
0000
0000
3100
0010
0000
0001
0000
0000
0101
0000
0000
0000
0110
0000
0000
0000
,
1001
0000
1000
0001
1000
0010
0100
0020
,
0000
1000
2030
0100
3000
0100
0001
0100
,
1000
1000
0010
0010
0100
0100
0001
0001
,
1000
0010
0100
0001
1000
0100
0010
0001
,
1000
0100
0001
0100
0010
0001
0100
0002
,
0000
0000
1003
0001
0000
1000
0000
0000
1001
0000
0000
0000
0101
0000
0000
0000
,
0001
0100
1000
0100
0010
1000
0100
2000
,
0000
0000
3010
0100
0000
0010
0000
0000
1010
0000
0000
0000
1001
0000
0000
0000
,
0120
0000
1030
0100
1000
0010
0100
0002
,
0000
1000
2003
0001
3000
0001
0100
0200
,
0000
0310
0110
0000
1010
0000
0101
0000
,
1000
0100
1000
0010
0100
0001
0010
0001
,
0011
0000
0010
0000
1000
0000
0010
0001
0000
0010
0001
0000
1000
0000
0100
0000
,
0010
0000
0001
0000
0100
0000
0010
1000
0000
0010
1000
0000
0001
0000
0010
0000
,
0001
0000
0100
0000
1000
0000
0100
0001
0000
0100
0002
0000
0000
0000
1003
0000
,
0100
0000
0010
0000
0100
0000
1000
0010
0000
1000
0010
0000
0100
0000
0001
0000
,
1000
0000
0100
0000
0010
0000
0100
1000
0000
0100
1000
0000
0010
0000
0100
0000
,
0001
0000
0010
0000
0100
0000
0010
0001
0000
0010
0001
0000
0100
0000
0010
0000
,
1000
0000
0001
0000
0100
0000
0010
0100
0000
0010
0100
0000
0001
0000
1000
0000
,
0010
0100
0001
0100
0110
0000
2002
0000
,
3003
0000
0000
0000
;

//---------------dance-single - DDRDAIKENKAI----------------
#NOTES:
     dance-single:
     DDRDAIKENKAI:
     Medium:
     6:
     0.422,0.461,0.168,0.262,0.073: // measure 1
0000
0000
0000
0000
,  // measure 2
0000
0000
0000
0000
,  // measure 3
0000
0000
0000
0000
,  // measure 4
0000
0000
0000
0000
,  // measure 5
0000
0000
0000
0000
,  // measure 6
0000
0000
0000
0000
,  // measure 7
0000
0000
0000
0000
,  // measure 8
0000
0000
0000
0000
,  // measure 9
2002
0000
0000
3003
,  // measure 10
0001
0000
0000
0000
0100
0000
0000
0010
0000
0000
0010
0000
1000
0000
0000
0000
,  // measure 11
0001
0000
0000
0000
1000
0000
0000
0100
0000
0000
0100
0000
0010
0000
0000
0000
,  // measure 12
0001
0000
0000
0000
1000
0000
0000
0010
0000
0000
0010
0000
0000
0000
1000
0000
,  // measure 13
0001
0000
0000
0000
0100
0000
0000
0001
0000
0000
0001
0000
2000
0000
0000
0000
,  // measure 14
3100
0000
0000
0000
0010
0000
0000
0001
0000
0000
0001
0000
1000
0000
0000
0000
,  // measure 15
0001
0000
0000
0000
0100
0000
0000
0010
0000
0000
0010
0000
0100
0000
0000
0000
,  // measure 16
0001
0000
0000
0000
1000
0000
0000
0100
0000
0000
0100
0000
0010
0000
0000
0000
,  // measure 17
0001
1000
0110
1001
,  // measure 18
1000
0000
0001
0100
0010
1000
0001
0000
,  // measure 19
1000
0000
0100
0010
0001
0010
0100
0000
,  // measure 20
1000
0000
0010
0100
0001
0010
0001
0000
,  // measure 21
0200
0320
2030
3200
,  // measure 22
0310
0000
0001
0010
0100
1000
0001
0000
,  // measure 23
0100
0000
0010
1000
0100
1000
0001
0000
,  // measure 24
0100
0000
0010
1000
0010
1000
0001
0000
,  // measure 25
0020
0032
0203
0320
,  // measure 26
2030
0000
3001
0020
0000
0230
0000
2300
,  // measure 27
0000
0000
0010
3100
,  // measure 28
0010
0000
0001
0200
0000
0320
0000
2030
,  // measure 29
0000
0000
0000
3000
0000
0001
0001
0002
,  // measure 30
0000
0000
1000
0000
1003
0010
1000
0020
,  // measure 31
0100
0130
2002
3003
,  // measure 32
0001
0010
0001
0000
1000
0100
1000
0000
,  // measure 33
0001
0100
0110
1001
,  // measure 34
1000
0010
1000
0000
0001
0100
0001
0000
,  // measure 35
1000
0100
0110
1001
,  // measure 36
1100
0000
1000
0010
1000
0100
0010
0000
,  // measure 37
0001
0000
0100
0001
0010
0100
1000
0000
,  // measure 38
0010
0001
0010
1000
,  // measure 39
0001
1000
0001
1000
0100
0010
0100
0000
,  // measure 40
0010
0001
0010
0000
0100
1000
0100
0000
,  // measure 41
1000
0001
1001
0101
,  // measure 42
0001
0010
0001
0000
0100
0010
0100
0000
,  // measure 43
0010
1000
1100
0110
,  // measure 44
0011
0000
0010
0100
0010
0100
1000
0000
,  // measure 45
0010
0000
0100
0001
1000
0100
1000
0000
,  // measure 46
0001
0010
0100
1000
,  // measure 47
0001
0010
0001
0010
0100
1000
0100
0000
,  // measure 48
1000
0000
0010
0000
1000
0000
0000
0001
0000
0000
0001
0000
0100
0000
0000
0000
,  // measure 49
0010
0000
0100
0000
0010
0000
0000
1000
0000
0000
1000
0000
0100
0000
0000
0000
,  // measure 50
0010
0000
0100
0000
0010
0000
0000
0001
0000
0000
0001
0000
0000
0000
1000
0000
,  // measure 51
0100
0000
1000
0000
0100
0000
0000
1000
0000
0000
1000
0000
0002
0000
0000
0000
,  // measure 52
0103
0000
0010
0000
1000
0000
0000
0001
0000
0000
0001
0000
1000
0000
0000
0000
,  // measure 53
0010
0000
0100
0000
0001
0000
0000
1000
0000
0000
1000
0000
0100
0000
0000
0000
,  // measure 54
0010
0000
0001
0000
0100
0000
0000
0010
0000
0000
0010
0000
1000
0000
0100
0000
,  // measure 55
1000
0001
0100
0000
0110
0000
2002
0000
,  // measure 56
3003
0000
0000
0000
;

//---------------dance-single - DDRDAIKENKAI----------------
#NOTES:
     dance-single:
     DDRDAIKENKAI:
     Easy:
     3:
     0.288,0.317,0.073,0.315,0.000:
0000
0000
0000
0000
,
0000
0000
0000
0000
,
0000
0000
0000
0000
,
0000
0000
0000
0000
,
0000
0000
0000
0000
,
0000
0000
0000
0000
,
0000
0000
0000
0000
,
0000
0000
0000
0000
,
2002
0000
0000
3003
,
0001
1000
0200
0300
,
0010
0001
0020
0030
,
0001
1000
0020
0030
,
0100
0001
0200
0300
,
0010
1000
0100
0100
,
0010
0001
0100
0100
,
0001
1000
0001
0001
,
1000
0001
1001
1001
,
0001
1000
0100
0010
,
0001
0100
0010
1000
,
0001
0010
0100
1000
,
0002
0000
0000
0000
,
1003
0100
1000
0010
,
0100
0001
0010
0001
,
1000
0001
0100
0010
,
2000
0000
0000
0000
,
3010
0010
0100
0100
,
0002
0000
1000
1003
,
0100
0100
0010
0010
,
0002
0000
1000
1003
,
2000
0000
0010
0010
,
0020
3030
0220
0330
,
0001
0010
0100
1000
,
0002
0000
1000
1003
,
1000
0100
0010
0001
,
2000
0000
0001
3001
,
0200
0000
0010
0310
,
2000
0000
0001
3001
,
1000
0100
1000
0100
,
0010
0001
0010
0001
,
0010
0100
0010
0100
,
2000
0000
0001
3001
,
1000
0001
1000
0001
,
0200
0000
0010
0310
,
2000
0000
0100
3100
,
0020
0000
0001
0031
,
1000
0100
0010
0001
,
2002
0000
0000
3003
,
1000
0001
2000
3000
,
0010
0100
0020
0030
,
0100
0001
0200
0300
,
0001
0010
0002
0003
,
1000
0100
1000
0010
,
0100
0001
0010
0001
,
1000
0001
1000
1000
,
0010
0010
0110
2002
,
3003
0000
0000
0000
;

//---------------dance-single - DDRDAIKENKAI----------------
#NOTES:
     dance-single:
     DDRDAIKENKAI:
     Challenge:
     10:
     0.695,0.750,0.514,0.199,0.440:
0000
0000
0000
0000
,
0000
0000
0000
0000
,
0000
0000
0000
0000
,
0000
0000
0000
0000
,
0000
0000
0000
0000
,
0000
0000
0000
0000
,
0000
0000
0000
0000
,
0000
0000
0000
0000
,
2002
0000
3003
0000
,
0001
0000
0100
0000
0010
0000
1000
0100
0000
1000
0100
0000
0010
0000
0001
0000
,
0010
0000
0100
0000
1000
0000
0001
0100
0000
0010
1000
0100
0010
0001
0010
0100
,
1000
0000
0001
0000
0010
0000
0001
0100
0000
0100
0002
0000
0000
0000
1003
0000
,
0010
0000
0001
0000
0010
0000
1000
0100
0000
0100
1000
0010
0100
0001
0100
0010
,
1000
0000
0100
0000
0010
0000
0001
0100
0000
0010
1000
0000
0001
0000
0010
0000
,
1000
0000
0001
0000
0100
0000
1000
0001
0000
0001
0100
0010
1000
0010
0100
0000
,
0110
0000
0010
0000
1000
0000
0100
0010
0000
0100
1000
0000
0001
0000
0010
0000
,
1000
0010
0001
0100
0110
0000
1001
0000
,
1000
0100
1100
1000
0001
0010
0011
0001
,
0100
0010
0110
0100
0001
1000
1001
0000
,
1000
0010
0011
0010
1000
0100
1100
0100
,
0002
0023
2030
3200
,
1300
0010
1001
0100
0010
0001
1100
0001
,
0100
0010
0101
0010
1000
0100
1001
0000
,
0001
0010
0011
0001
1000
0010
1010
1000
,
0100
0001
0010
0001
0100
1000
0001
0000
,
2001
0000
3010
0210
0000
0301
0010
2010
,
0000
0010
3010
0001
0101
0000
1100
0000
,
1020
0000
0130
0120
0000
0130
0001
0102
,
0000
0013
0100
1100
0000
1000
0100
0011
,
0001
0100
0001
0100
0010
1000
0010
1000
,
0100
0010
0100
1000
0100
0010
0001
2000
0002
0000
0000
0000
3003
0000
0000
0000
,
0011
0001
0100
1000
0100
0001
0010
1000
,
0010
0000
0001
1000
0000
0001
0000
0000
0011
0000
0000
0000
1100
0000
0000
0000
,
0101
0100
1000
0100
0001
0010
1000
0010
,
0001
0000
0100
0010
0000
1000
0000
0000
1010
0000
0001
0000
0101
0000
0100
0000
,
1002
0000
0000
0000
0013
0001
0010
0100
1000
0010
0100
0001
1000
0100
1000
0010
,
0000
0110
0110
1010
0000
1000
0010
0110
,
0010
0001
0010
1000
0100
0001
0100
1000
,
0001
0010
0001
1000
0100
0010
0100
1000
0100
0010
0001
1000
0010
0100
0010
1000
,
0001
0100
0010
0001
0010
0100
0001
1000
,
0100
0000
1000
0010
0000
1000
0000
0000
1010
0000
0000
0000
0101
0000
0000
0000
,
1000
0010
0100
1000
0100
0010
1000
0100
,
0010
0000
0001
1000
0000
0001
0000
0000
0011
0000
0001
0000
0101
0000
0100
0000
,
0110
0000
0000
0000
0010
1000
0100
1000
0010
0100
0001
0010
0001
0100
0001
1000
,
0000
1001
1001
0110
0000
0010
0010
0110
,
0100
0001
0100
1000
0100
0001
0100
1000
,
0100
0010
0100
0010
1000
0100
1000
0100
0010
0001
0010
0001
0010
0100
0010
0100
,
1000
0000
0100
0000
0010
0000
0100
0001
0000
0100
0001
0000
0100
0000
1000
0000
,
0010
0000
0001
0000
0010
0000
1000
0001
0000
1000
0001
0100
0010
1000
0100
0010
,
0001
0000
0010
0000
0001
0000
0100
0010
0000
0010
2000
0000
0000
0000
3100
0000
,
0001
0000
0100
0000
0010
0000
0001
1000
0000
0100
1000
0001
0100
0001
0010
0001
,
1000
0000
0100
0000
0001
0000
0100
1000
0000
0100
1000
0000
0001
0000
0010
0000
,
1000
0000
0001
0000
0100
0000
1000
0010
0000
0010
1000
0100
0010
0001
0100
0000
,
0110
0000
0010
0000
1000
0000
0100
0010
0000
0001
0100
0000
0010
0000
1000
0000
,
0100
0001
0100
1000
1010
0000
2002
0000
,
3003
0000
0000
0000
;

//---------------dance-single - DDRDAIKENKAI----------------
#NOTES:
     dance-single:
     DDRDAIKENKAI:
     Beginner:
     1:
     0.190,0.230,0.052,0.042,0.000:
0000
0000
0000
0000
,
0000
0000
0000
0000
,
0000
0000
0000
0000
,
0000
0000
0000
0000
,
0000
0000
0000
0000
,
0000
0000
0000
0000
,
0000
0000
0000
0000
,
0000
0000
0000
0000
,
2002
0000
3003
0000
,
1000
0000
0001
0001
,
0001
0000
1000
1000
,
1000
0000
0010
0010
,
0010
0000
0100
0000
,
0010
0000
0100
0100
,
0100
0000
0001
0001
,
0001
0000
1000
1000
,
1000
0000
1001
0000
,
1000
0000
0001
0000
,
0100
0100
0100
0000
,
0010
0000
0100
0000
,
0002
0000
0003
0000
,
1000
0000
0001
0000
,
1000
1000
1000
0000
,
0010
0000
0100
0000
,
0020
0000
0030
0000
,
1000
0000
0100
0000
,
0010
0000
0001
0001
,
0001
0000
0100
0000
,
0010
0000
1000
1000
,
1000
0000
0001
0000
,
1000
0000
1001
0000
,
0001
0001
0001
0000
,
0100
0100
0100
0000
,
0010
0010
0010
0000
,
1000
1000
1000
0000
,
0001
0000
1000
0000
,
0001
0000
1000
0000
,
0010
0000
0010
0000
,
0100
0100
0100
0100
,
0100
0100
0100
0000
,
0010
0010
0010
0000
,
1000
1000
1000
0000
,
0001
0001
0001
0000
,
1000
0000
0001
0000
,
1000
0000
0001
0000
,
0100
0000
0010
0000
,
0100
0100
0100
0000
,
0001
0001
0001
0000
,
1000
1000
1000
0000
,
0100
0100
0100
0000
,
0010
0010
0010
0000
,
0001
0000
1000
0000
,
0010
0000
0100
0000
,
0010
0010
0010
0000
,
1000
0000
1001
1001
;
