#TITLE:Na Na Na;
#SUBTITLE:;
#ARTIST:Pentatonix;
#TITLETRANSLIT:;
#SUBTITLETRANSLIT:;
#ARTISTTRANSLIT:;
#GENRE:POP-CAPELLA;
#CREDIT:;
#MENUCOLOR:;
#NEWMETERSYSTEM:NO;
#BANNER:Na Na Na.png;
#BACKGROUND:Na Na Na-bg.png;
#LYRICSPATH:;
#CDTITLE:CDTitle.png;
#MUSIC:Na Na Na.ogg;
#OFFSET:0.000;
#SAMPLESTART:41.515;
#SAMPLELENGTH:9.560;
#SELECTABLE:YES;
#LISTSORT:;
#BPMS:0.000=103.998,40.000=207.996,224.000=103.998,228.000=207.996;
#STOPS:;
#BGCHANGES:;
#ATTACKS:;

//---------------dance-single - DDRDAIKENKAI----------------
#NOTES:
     dance-single:
     DDRDAIKENKAI:
     Hard:
     9:
     0.690,0.852,0.403,0.444,0.126: // measure 1
0000
0000
0000
0000
,  // measure 2
0000
0000
0000
0000
,  // measure 3
1000
0000
0010
0010
0100
0000
0001
0000
1000
0000
0100
0100
0010
0000
0001
0000
,  // measure 4
0100
0000
0010
0010
1000
0000
0001
0000
0010
0000
0001
0001
0100
0000
0010
0000
,  // measure 5
1000
0000
0001
0001
1000
0000
0100
0000
0010
0000
0100
0100
1000
0000
0010
0000
,  // measure 6
0001
0000
0010
0010
0100
0000
0001
1000
0000
1000
0000
0100
0010
0100
2000
0000
,  // measure 7
3001
0000
1000
1000
0100
0000
1000
0000
0010
0000
1000
1000
0001
0000
1000
0000
,  // measure 8
0100
0000
0010
0010
0001
0000
0010
0000
0100
0000
0010
0010
1000
0000
0010
0000
,  // measure 9
0001
0000
0100
0100
0010
0000
0100
0000
1000
0000
0100
0100
0010
0000
0001
0000
,  // measure 10
1000
0000
0100
0100
0001
0000
1000
0010
0000
0010
0000
1000
0100
1000
0200
0000
,  // measure 11
0310
0001
0010
0001
0010
0001
0100
0000
,  // measure 12
0010
1000
0010
1000
0010
1000
0100
0000
,  // measure 13
1000
0001
1000
0001
1000
0001
0100
0000
,  // measure 14
0001
1000
0001
1000
0001
1000
0100
0000
,  // measure 15
1000
0001
0100
0010
2000
0000
0000
0010
,  // measure 16
0000
0010
0000
3010
0100
0001
0010
0000
,  // measure 17
0011
0000
0000
2100
0000
0000
0000
0001
,  // measure 18
0000
0001
0000
3001
0200
0000
0310
0000
,  // measure 19
1000
0100
1000
0100
0010
0001
0100
0000
,  // measure 20
0001
0010
0001
0010
0100
1000
0001
0000
,  // measure 21
1000
0010
1000
0010
0100
0001
1000
0000
,  // measure 22
0001
0100
0001
0100
0010
1000
0001
0000
,  // measure 23
1000
0010
0100
0001
0200
0000
0000
0010
,  // measure 24
0000
0010
0000
0310
0001
0010
1000
0000
,  // measure 25
1100
0000
0000
0021
0000
0000
0000
0001
,  // measure 26
0000
0031
1000
0001
0200
0000
0310
0000
,  // measure 27
0120
0000
0000
1030
0100
0001
0000
0100
,  // measure 28
0000
1000
0000
0001
0100
0000
0010
0000
,  // measure 29
0120
0000
0000
2030
0000
0000
3200
0000
,  // measure 30
0000
1300
0001
0010
0001
0000
0100
0000
,  // measure 31
0120
0000
0000
0130
0001
0010
0000
1000
,  // measure 32
0000
0010
0000
0001
0100
0000
0010
0000
,  // measure 33
2010
0000
0000
3200
0000
0000
0320
0000
,  // measure 34
0000
0031
1000
0100
1000
0000
0001
0000
,  // measure 35
0102
0000
0000
0013
1000
0010
0000
0001
,  // measure 36
0000
0100
0000
0010
1000
0000
0100
0000
,  // measure 37
0210
0000
0000
2300
0000
0000
3002
0000
,  // measure 38
0000
0103
0010
0100
0001
0000
1000
0000
,  // measure 39
1020
0000
0000
1030
0100
1000
0000
0010
,  // measure 40
0000
0001
0000
0010
0100
0000
0001
0000
,  // measure 41
0102
0000
0000
2003
0000
0000
3200
0000
,  // measure 42
0000
0310
0001
0100
0010
0000
1000
0000
,  // measure 43
1200
0000
0000
1300
0001
0100
0001
0000
,  // measure 44
0011
0000
0000
0001
1000
0010
1000
0000
,  // measure 45
1200
0000
0000
2300
0000
0000
3020
0000
,  // measure 46
0000
0130
0001
0100
0002
0000
0013
0000
,  // measure 47
0011
0000
0000
0010
0100
1000
0100
0000
,  // measure 48
1100
0000
0000
1000
0100
0010
0001
0000
,  // measure 49
1002
0000
1000
2003
0000
0010
3020
0000
,  // measure 50
0100
0130
0001
0010
1000
0010
0001
0000
,  // measure 51
0101
0000
0000
0100
0110
0000
0010
0000
,  // measure 52
1010
0000
0000
1000
1100
0000
0100
0000
,  // measure 53
0110
0000
0000
0010
0011
0000
0001
0000
,  // measure 54
1001
0000
0000
1000
1010
0000
0010
0000
,  // measure 55
0110
0000
0000
0100
1100
0000
0100
0000
,  // measure 56
0101
0000
0000
0001
0011
0000
0010
0000
,  // measure 57
1100
0000
0020
0000
0031
0000
0001
0000
0100
0001
0010
0100
1000
0001
1000
0000
,  // measure 58
1020
0000
0000
0031
0010
1000
0000
0001
,  // measure 59
0000
0100
0000
0010
0100
0000
0001
0000
,  // measure 60
1002
0000
0000
1003
0100
0001
0000
0100
,  // measure 61
0000
0010
0001
0010
0100
0000
1000
0000
,  // measure 62
1002
0000
0000
1003
0010
0001
0000
0010
,  // measure 63
0000
1000
0000
0001
0010
0000
0100
0000
,  // measure 64
1200
0000
0000
1300
0100
0001
0000
0100
,  // measure 65
0000
0010
0001
0010
0100
0000
1000
0000
,  // measure 66
1020
0000
0000
1030
0100
1000
0000
0010
,  // measure 67
0000
0100
0000
0001
0010
0000
0100
0000
,  // measure 68
0210
0000
0000
0310
0001
0010
0000
0100
,  // measure 69
0000
1000
0001
0100
0001
0000
1000
0000
,  // measure 70
1020
0000
0000
1030
0100
1000
0000
0001
,  // measure 71
0000
0010
0000
0001
0100
0000
0010
0000
,  // measure 72
0120
0000
0000
0130
0001
1000
0000
0100
,  // measure 73
0000
0010
0001
0010
0200
0000
1300
0000
,  // measure 74
2002
0000
3003
0000
;

//---------------dance-single - DDRDAIKENKAI----------------
#NOTES:
     dance-single:
     DDRDAIKENKAI:
     Easy:
     3:
     0.223,0.407,0.081,0.151,0.000: // measure 1
0000
0000
0000
0000
,  // measure 2
0000
0000
0000
0000
,  // measure 3
1000
0000
0001
0000
1000
1000
1000
0000
,  // measure 4
0001
0000
1000
0000
0001
0001
0001
0000
,  // measure 5
0100
0000
0010
0000
0100
0100
0100
0000
,  // measure 6
0020
0000
0000
0030
,  // measure 7
1000
0000
0010
0000
0100
0100
0001
0000
,  // measure 8
0100
0000
0010
0000
1000
1000
0010
0000
,  // measure 9
0100
0000
0001
0000
1000
1000
0100
0000
,  // measure 10
0020
0000
0000
0030
,  // measure 11
0001
0000
0100
0000
,  // measure 12
0001
0000
0100
0000
,  // measure 13
0010
0000
1000
0000
,  // measure 14
0010
0000
1000
0000
,  // measure 15
0200
0000
0000
0000
,  // measure 16
0000
0000
0300
0000
,  // measure 17
0020
0000
0000
0000
,  // measure 18
0000
0000
0030
0000
,  // measure 19
0001
0000
1000
0000
,  // measure 20
0001
0000
1000
0000
,  // measure 21
0010
0000
0100
0000
,  // measure 22
0010
0000
0100
0000
,  // measure 23
0002
0000
0000
0000
,  // measure 24
0000
0000
0003
0000
,  // measure 25
2000
0000
0000
0000
,  // measure 26
0000
0000
3000
0000
,  // measure 27
1001
0000
1000
0000
,  // measure 28
0001
0000
1000
0000
,  // measure 29
0001
0000
0001
0000
,  // measure 30
1000
0000
0000
0000
,  // measure 31
1001
0000
1000
0000
,  // measure 32
0001
0000
1000
0000
,  // measure 33
0001
0000
0001
0000
,  // measure 34
1000
0000
0000
0000
,  // measure 35
0110
0000
0100
0000
,  // measure 36
0010
0000
1000
0000
,  // measure 37
0001
0000
0100
0000
,  // measure 38
0001
0000
0000
0000
,  // measure 39
0110
0000
0010
0000
,  // measure 40
0100
0000
1000
0000
,  // measure 41
0010
0000
0100
0000
,  // measure 42
0001
0000
0000
0000
,  // measure 43
2000
0000
0000
0000
,  // measure 44
0000
0000
3100
0000
,  // measure 45
0020
0000
0000
0000
,  // measure 46
0000
0000
0031
0000
,  // measure 47
0200
0000
0000
0000
,  // measure 48
0000
0000
0310
0000
,  // measure 49
2000
0000
0000
0000
,  // measure 50
0000
0000
3001
0000
,  // measure 51
2000
0000
0000
0000
,  // measure 52
0000
3000
1001
0000
,  // measure 53
0002
0000
0000
0000
,  // measure 54
0003
0000
1001
0000
,  // measure 55
0200
0000
0000
0000
,  // measure 56
0000
0000
0300
0110
,  // measure 57
0010
0000
0100
0100
0100
0000
0001
0000
,  // measure 58
1000
0000
0100
0000
,  // measure 59
0010
0000
0001
0000
,  // measure 60
0100
0000
0010
0000
,  // measure 61
1000
0000
0001
0000
,  // measure 62
1000
0000
0010
0000
,  // measure 63
0100
0000
0001
0000
,  // measure 64
0010
0000
0100
0000
,  // measure 65
1000
0000
0100
0000
,  // measure 66
0010
0000
0001
0000
,  // measure 67
1000
0000
0010
0000
,  // measure 68
0100
0000
0001
0000
,  // measure 69
1000
0000
0001
0000
,  // measure 70
0100
0000
0010
0000
,  // measure 71
1000
0000
0100
0000
,  // measure 72
0010
0000
0100
0000
,  // measure 73
1000
0000
0001
0000
,  // measure 74
2002
0000
3003
0000
;

//---------------dance-single - DDRDAIKENKAI----------------
#NOTES:
     dance-single:
     DDRDAIKENKAI:
     Medium:
     6:
     0.474,0.667,0.081,0.675,0.040: // measure 1
0000
0000
0000
0000
,  // measure 2
0000
0000
0000
0000
,  // measure 3
2000
0000
3002
0000
0103
0010
1000
0001
,  // measure 4
2000
0000
3200
0000
0310
0001
1000
0001
,  // measure 5
0020
0000
0130
0000
1000
0001
0100
0010
,  // measure 6
2000
0000
0000
0000
3020
0000
0000
0100
0000
0100
0000
0130
0000
0001
1000
0000
,  // measure 7
1200
0000
0320
0000
0031
0100
0010
1000
,  // measure 8
0200
0000
2300
0000
3010
0001
0010
1000
,  // measure 9
0002
0000
0013
0000
0100
1000
0001
0100
,  // measure 10
0020
0000
0000
0000
2030
0000
0000
0001
0000
0001
0000
3001
0000
1000
0200
0000
,  // measure 11
0320
0000
0032
0000
,  // measure 12
0000
0000
0000
0000
2003
0000
0000
0002
,  // measure 13
3000
0000
0103
0000
,  // measure 14
0010
1000
0010
1000
,  // measure 15
0200
0000
0000
2300
0000
0000
0000
0010
,  // measure 16
0000
0010
0000
3020
0000
0000
1030
0000
,  // measure 17
0200
0000
0000
0310
0000
0000
0000
0001
,  // measure 18
0000
0001
0000
0001
0200
0000
0301
0000
,  // measure 19
0020
0000
0230
0000
,  // measure 20
0000
0000
0000
0000
2300
0000
0000
0002
,  // measure 21
3000
0000
0203
0000
,  // measure 22
0310
1000
0010
1000
,  // measure 23
0002
0000
0000
2003
0000
0000
0000
0100
,  // measure 24
0000
0100
0000
3200
0000
0000
0310
0000
,  // measure 25
0002
0000
0000
0103
0000
0000
0000
0100
,  // measure 26
0000
0100
0000
0100
0010
0000
0100
0000
,  // measure 27
0120
0000
0000
0000
1030
0001
0000
1000
,  // measure 28
0000
0001
0000
1000
0001
0000
0100
0000
,  // measure 29
0020
0000
0000
0000
0130
0001
0000
1000
,  // measure 30
0000
0100
0100
0100
,  // measure 31
0020
0000
0000
0000
0031
1000
0000
0001
,  // measure 32
0000
1000
0000
0001
0010
0000
0100
0000
,  // measure 33
0020
0000
0000
0030
0100
1000
0000
0100
,  // measure 34
0000
1000
1000
0001
,  // measure 35
0200
0000
0000
0000
0310
1000
0000
0010
,  // measure 36
0000
1000
0000
0010
0100
0000
0001
0000
,  // measure 37
0020
0000
0000
0000
0130
0010
0000
0100
,  // measure 38
0000
0010
0010
0001
,  // measure 39
2000
0000
0000
0000
3001
0100
0000
0001
,  // measure 40
0000
0100
0000
0001
0010
0000
0100
0000
,  // measure 41
2000
0000
0000
0000
3010
0100
0000
0010
,  // measure 42
0000
0100
0100
0001
,  // measure 43
0012
0000
1000
0000
,  // measure 44
0103
0000
0010
1000
,  // measure 45
0200
0000
0000
0302
0000
0000
0203
0000
,  // measure 46
0000
2300
0000
0000
3001
0000
0000
0000
,  // measure 47
1002
0000
0010
0000
,  // measure 48
1003
0000
0001
1000
,  // measure 49
0000
0000
2000
3000
0000
0002
0003
0000
,  // measure 50
2000
3000
0000
0200
0300
0000
1000
0000
,  // measure 51
1020
0000
0000
0000
,  // measure 52
0000
0000
1030
0100
,  // measure 53
0020
0000
0000
0032
0000
0000
0203
0000
,  // measure 54
0000
2300
0000
0000
3100
0000
0000
0000
,  // measure 55
0120
0000
0000
0000
,  // measure 56
0000
0000
1030
0001
,  // measure 57
1000
0100
0010
0010
0100
1000
0100
0010
,  // measure 58
1002
0000
0000
0000
1003
0001
0000
1000
,  // measure 59
0000
0001
0000
1000
0100
0000
0010
0000
,  // measure 60
0002
0000
0000
0000
1003
0001
0000
1000
,  // measure 61
0000
0010
0010
0100
,  // measure 62
0020
0000
0000
0000
1030
0001
0000
1000
,  // measure 63
0000
0001
0000
1000
0100
0000
0010
0000
,  // measure 64
0200
0000
0000
0000
1300
0001
0000
1000
,  // measure 65
0000
0001
0001
0100
,  // measure 66
0020
0000
0000
0000
1030
0100
0000
0010
,  // measure 67
0000
0001
0000
0010
0100
0000
1000
0000
,  // measure 68
0002
0000
0000
0000
0013
0100
0000
0010
,  // measure 69
0000
0001
0001
1000
,  // measure 70
0002
0000
0000
0000
1003
0010
0000
0100
,  // measure 71
0000
0001
0000
0100
0010
0000
1000
0000
,  // measure 72
0002
0000
0000
0000
1003
0010
0000
0100
,  // measure 73
0000
0001
0001
1000
,  // measure 74
2002
0000
0000
0000
0000
0000
0000
0000
0000
0000
0000
0000
0000
0000
0000
0000
0000
0000
0000
0000
0000
0000
0000
0000
0000
0000
0000
0000
0000
0000
0000
0000
0000
0000
0000
0000
0000
0000
0000
0000
0000
0000
0000
0000
0000
0000
0000
0000
0000
0000
0000
0000
0000
0000
0000
0000
0000
0000
0000
0000
0000
0000
0000
0000
0000
0000
0000
0000
0000
0000
0000
0000
0000
0000
0000
0000
0000
0000
0000
0000
0000
0000
0000
0000
0000
0000
0000
0000
0000
0000
0000
0000
0000
0000
0000
0000
0000
3003
0000
0000
0000
0000
0000
0000
0000
0000
0000
0000
0000
0000
0000
0000
0000
0000
0000
0000
0000
0000
0000
0000
0000
0000
0000
0000
0000
0000
0000
0000
0000
0000
0000
0000
0000
0000
0000
0000
0000
0000
0000
0000
0000
0000
0000
0000
0000
0000
0000
0000
0000
0000
0000
0000
0000
0000
0000
0000
0000
0000
0000
0000
0000
0000
0000
0000
0000
0000
0000
0000
0000
0000
0000
0000
0000
0000
0000
0000
0000
0000
0000
0000
0000
0000
0000
0000
0000
0000
0000
0000
0000
0000
0000
0000
;
