#TITLE:Mythril Mines;
#SUBTITLE:;
#ARTIST:Kenji Ito;
#TITLETRANSLIT:;
#SUBTITLETRANSLIT:;
#ARTISTTRANSLIT:;
#GENRE:;
#CREDIT:;
#BANNER:Mythril Mines.png;
#BACKGROUND:Mythril Mines-bg.png;
#LYRICSPATH:;
#CDTITLE:;
#MUSIC:Mythril Mines.ogg;
#OFFSET:0.000;
#SAMPLESTART:39.660;
#SAMPLELENGTH:13.000;
#SELECTABLE:YES;
#BPMS:0.000=149.000;
#STOPS:195.750=0.403
;
#TIMESIGNATURES:0.000=4=4
;
#BGCHANGES:;
#KEYSOUNDS:;
#ATTACKS:;

//---------------dance-single - DDRDAIKENKAI----------------
#NOTES:
     dance-single:
     DDRDAIKENKAI:
     Challenge:
     11:
     0.824,0.846,0.038,0.143,1.000,586.000,4.000,15.000,0.000,0.000,1.000,-1.000,-1.000,0.824,0.846,0.038,0.143,1.000,586.000,4.000,15.000,0.000,0.000,1.000,-1.000,-1.000: // measure 1
0000
0000
0000
0000
,  // measure 2
0000
0000
0000
0000
,  // measure 3
0000
0000
0000
0000
,  // measure 4
0000
0000
0000
0000
,  // measure 5
0100
0001
0010
0001
0100
0110
0000
0101
,  // measure 6
0000
0100
0010
0100
0001
0022
0033
2002
,  // measure 7
0000
0000
0000
0000
0000
0000
0000
0000
3003
0000
0000
0000
0000
0000
1000
0001
,  // measure 8
1000
0001
1000
0001
1000
0000
1000
0001
1000
0001
1000
0001
0010
0001
1000
0001
,  // measure 9
0100
0010
0100
0001
0010
0001
0100
0010
,  // measure 10
0100
0001
1000
0010
1000
0100
0010
0001
,  // measure 11
0010
0100
1000
0001
1000
0100
0001
0100
,  // measure 12
1000
0010
0100
0001
0010
1000
0010
0001
,  // measure 13
2000
0000
0000
0000
0000
0000
3001
0010
0100
1000
0001
0100
0010
1000
0100
1000
,  // measure 14
0010
0100
0001
0010
0001
1000
0100
1000
0001
0100
0001
1000
0100
1000
0001
1000
,  // measure 15
0020
0000
0000
0000
0000
0030
0100
0010
0100
0000
0001
0000
0100
0000
1000
0000
,  // measure 16
0010
0000
0100
0000
0001
0010
0100
1000
0100
0010
0001
0010
0100
1000
0010
0100
,  // measure 17
0001
0000
0000
0000
0001
0000
1000
0010
1000
0010
1000
0010
0100
0010
1000
0001
,  // measure 18
1000
0000
0001
0000
0100
0000
0010
1000
0000
0010
1000
0000
1000
0000
0010
0100
,  // measure 19
0010
0000
0000
0000
0000
0000
0100
0000
0000
0000
0000
0000
0001
0000
0000
0000
0000
0000
0010
0000
0000
0001
0000
0000
0000
0000
0000
0010
0000
0000
0001
0000
0010
0000
0001
0000
0010
0000
0000
0000
0000
0000
0100
0000
0000
0000
0000
0000
,  // measure 20
1000
0001
0100
1000
0100
0001
1000
0001
,  // measure 21
0100
0000
0000
0000
0010
0000
0000
1000
0000
0001
1000
0001
0000
0100
0000
0001
,  // measure 22
0100
0000
0010
0000
0100
0000
0001
0010
0000
0001
0010
0000
0010
0000
0001
0010
,  // measure 23
0001
0000
0000
0000
0000
0000
0100
0000
0000
0000
0000
0000
0010
0000
0000
0000
0000
0000
1000
0000
0000
0010
0000
0000
0000
0000
0000
0010
0000
0000
1000
0000
0100
0000
1000
0000
0100
0000
0000
0000
0000
0000
1000
0000
0000
0000
0000
0000
,  // measure 24
0010
0100
0001
0010
0100
1000
0010
0100
,  // measure 25
0002
0000
0000
0000
0003
2000
3200
2300
,  // measure 26
3001
0010
0001
1000
0001
0100
0001
0010
0001
0100
0010
1000
0100
1000
0010
0100
,  // measure 27
0001
1000
0100
1000
0000
1000
0100
1000
0000
1000
0010
1000
0000
1000
0010
1000
,  // measure 28
0010
1000
0100
1000
0010
0100
0001
0010
0001
0100
0010
1000
0100
0010
0001
0010
,  // measure 29
0100
1000
0100
1000
0000
1000
0100
1000
0000
1000
0001
1000
0000
1000
0001
0100
,  // measure 30
0001
0010
0001
0100
0001
0010
0001
1000
0100
1000
0001
0100
0001
1000
0100
1000
,  // measure 31
0010
0100
0010
1000
0000
1000
0010
0100
0000
0100
0010
0100
0000
0100
0001
0010
,  // measure 32
0100
1000
0100
0010
0001
0010
0100
1000
0001
0100
0010
1000
0001
1000
0010
1000
,  // measure 33
0001
0100
0010
1000
0100
0000
1000
0010
0100
0001
0010
0100
1000
0001
0100
0010
,  // measure 34
1000
0000
0100
0000
1000
0000
0001
0100
0000
0001
0100
0000
0010
0000
1000
0100
,  // measure 35
1000
0000
0000
0000
0000
0000
0010
0000
0000
0000
0000
0000
0100
0000
0000
0000
0000
0000
0001
0000
0000
0010
0000
0000
0000
0000
0000
0001
0000
0000
0010
0000
0001
0000
0010
0000
0001
0000
0000
0000
0000
0000
0100
0000
0000
0000
0000
0000
,  // measure 36
0010
0000
1000
0000
0100
0000
1000
0010
0000
1000
0010
0000
0100
0000
0001
1000
,  // measure 37
0001
0000
0100
0000
0010
0000
1000
0100
0000
1000
0100
1000
0000
0001
0000
0010
,  // measure 38
0001
0000
0100
0000
0001
0000
0010
0100
0000
0010
0100
0000
1000
0000
0001
0100
,  // measure 39
0001
0000
0000
0000
0000
0000
1000
0000
0000
0000
0000
0000
0100
0000
0000
0000
0000
0000
1000
0000
0000
0010
0000
0000
0000
0000
0000
1000
0000
0000
0010
0000
1000
0000
0010
0000
0100
0000
0000
0000
0000
0000
0010
0000
0000
0000
0000
0000
,  // measure 40
0100
0000
0001
0000
0010
0000
0001
0100
0000
0001
0100
0000
0010
0000
1000
0100
,  // measure 41
1000
0000
0100
0000
0010
0000
0001
0010
0000
0100
2000
0001
3200
0001
0320
0001
,  // measure 42
0130
0010
1000
0100
0010
0001
0010
0100
1000
0010
0100
0001
0010
0001
0100
0010
,  // measure 43
1000
0100
1000
0010
0000
0010
1000
0010
0000
0010
1000
0010
0000
0010
1000
0100
,  // measure 44
0010
0001
0010
0100
1000
0001
0100
0001
1000
0100
1000
0001
0010
0001
0100
0001
,  // measure 45
1000
0001
1000
0001
0000
0001
1000
0001
0000
0001
1000
0001
0000
0001
1000
0001
,  // measure 46
1000
0010
1000
0100
1000
0010
1000
0001
1000
0010
1000
0100
0010
0100
1000
0010
,  // measure 47
0100
0001
0010
0100
0000
0100
0010
0100
0000
0100
0010
0100
0000
0100
0010
0100
,  // measure 48
1000
0010
1000
0001
1000
0010
1000
0001
0010
0001
1000
0001
0010
0001
1000
0001
,  // measure 49
1000
0000
0000
0000
0000
0000
0000
0000
0000
0000
0000
0000
0010
0000
0000
0000
0000
0000
0000
0000
0000
0000
0000
0000
1000
0000
0000
0000
0000
0000
0000
0000
0000
0000
0000
0000
0001
0000
0000
0000
0000
0000
0000
0000
0000
0000
0000
0000
0100
0000
0000
0000
0000
0000
0000
0000
0000
0000
0000
0000
0000
0000
0000
0000
0000
0000
0000
0000
0000
0000
0000
0000
0100
0000
0000
0000
0000
0000
0000
0000
0000
0000
0000
0000
0001
0000
0000
0000
0000
0000
0000
0000
0000
0000
0000
0000
0100
0000
0000
0000
0000
0000
0000
0000
0000
0000
0000
0000
0010
0000
0000
0000
0000
0000
0000
0000
0000
0000
0000
0000
1000
0000
0000
0000
0000
0000
0000
0000
0000
0000
0000
0000
0001
0000
0000
0000
0000
0000
0000
0000
0000
0000
0000
0000
1000
0000
0000
0000
0000
0000
0000
0000
0000
0000
0000
0000
0010
0000
0000
0000
0000
0000
0000
0000
0000
0000
0000
0000
2000
0000
0000
0000
0000
0000
0000
0000
0000
0000
0000
0000
0002
3003
0000
0000
0000
0000
0000
0000
0000
0000
0000
0000
,  // measure 50
0000
0000
1000
0100
1000
0010
0100
0001
,  // measure 51
0010
0001
0100
0010
1000
0010
0100
0001
,  // measure 52
0010
0001
1000
0010
0100
0001
1000
0100
,  // measure 53
0010
0001
1000
0010
0001
0010
1000
0100
,  // measure 54
0001
0000
0100
0000
1000
0010
0100
0001
1000
0010
0100
0001
1000
0010
0100
0001
,  // measure 55
1000
0010
0100
0001
1000
0100
0010
0001
1000
0100
0010
0001
1000
0100
0010
0001
,  // measure 56
1000
0100
0010
0001
1000
0001
0010
0001
1000
0010
1000
0001
0400
0000
0000
0000
,  // measure 57
0000
0000
0000
0000
,  // measure 58
0000
0301
0000
0000
;

//---------------dance-single - DDRDAIKENKAI----------------
#NOTES:
     dance-single:
     DDRDAIKENKAI:
     Hard:
     8:
     0.490,0.496,0.010,0.257,0.024,332.000,1.000,27.000,0.000,0.000,0.000,-1.000,-1.000,0.490,0.496,0.010,0.257,0.024,332.000,1.000,27.000,0.000,0.000,0.000,-1.000,-1.000: // measure 1
0000
0000
0000
0000
,  // measure 2
0000
0000
0000
0000
,  // measure 3
0000
0000
0000
0000
,  // measure 4
0000
0000
0000
0000
,  // measure 5
0100
0010
1000
0010
0100
0001
0000
0100
,  // measure 6
0000
0100
0001
0010
0100
1000
0000
2000
,  // measure 7
0000
0000
0000
0000
3000
0000
0000
0000
0000
0000
0000
0000
0000
0000
0001
2000
,  // measure 8
0002
0000
0000
0003
,  // measure 9
3001
0100
0001
0100
0010
1000
0010
1000
,  // measure 10
0001
0010
0001
0010
0100
1000
0100
1000
,  // measure 11
0001
0100
0001
0100
0001
1000
0001
1000
,  // measure 12
0100
1000
0100
1000
0010
1000
0010
1000
,  // measure 13
0002
0000
0000
1003
0100
0010
0001
0010
,  // measure 14
0100
1000
0001
0100
0010
1000
0100
1000
,  // measure 15
0002
0000
0000
1000
1003
0001
0100
0001
,  // measure 16
0100
0010
1000
0010
0100
0001
0200
0000
,  // measure 17
0001
0001
0001
0301
,  // measure 18
1000
0100
0010
0001
0200
0000
0000
0000
,  // measure 19
0000
0000
0000
0000
0000
0000
0000
0000
0300
0000
0001
0010
0001
0000
0100
0000
,  // measure 20
0001
0100
0010
0100
0001
0010
0001
1000
,  // measure 21
0200
0000
0000
0300
,  // measure 22
0100
0010
0100
0010
0002
0000
0000
0000
,  // measure 23
0000
0000
0000
0000
0003
0000
0000
0000
0000
0000
0001
1000
0001
0000
0010
0000
,  // measure 24
0001
0010
0100
1000
0010
0100
0001
1000
,  // measure 25
0002
0000
0000
0000
0003
1000
0100
0010
,  // measure 26
0001
0010
0100
0010
0001
1000
0001
0100
,  // measure 27
0020
1000
0000
0100
0000
1000
0030
0100
,  // measure 28
1000
0010
1000
0100
0001
0100
1000
0010
,  // measure 29
2000
0001
0000
0100
0000
0001
3000
1000
,  // measure 30
0001
0010
0100
0010
0001
0010
1000
0010
,  // measure 31
0200
0010
0000
0001
0000
0010
0300
0001
,  // measure 32
1000
0010
1000
0001
0100
0001
1000
0100
,  // measure 33
2000
0100
3100
0020
0001
0031
2000
0001
,  // measure 34
3001
0010
0001
0100
0020
0000
1000
0000
,  // measure 35
0000
0000
0000
0000
1030
0000
0000
0000
0000
0000
1000
0010
1000
0000
0001
0000
,  // measure 36
0010
1000
0010
0001
0100
0010
1000
0001
,  // measure 37
0200
0000
0000
0300
,  // measure 38
0100
0010
0100
0010
2000
0000
0001
0000
,  // measure 39
0000
0000
0000
0000
3001
0000
0000
0000
0000
0000
1000
0010
1000
0000
0010
0000
,  // measure 40
1000
0010
0100
0010
1000
0010
0100
0001
,  // measure 41
2000
0000
0000
0000
3000
0001
0010
0100
,  // measure 42
1000
0010
0100
0001
0010
0001
0100
0010
,  // measure 43
1000
0001
0000
1000
0000
0001
0000
0100
,  // measure 44
0010
1000
0100
0001
0100
1000
0010
0100
,  // measure 45
0001
0100
0000
1000
0000
0010
0000
0100
,  // measure 46
0010
1000
0100
0010
0001
0100
1000
0100
,  // measure 47
0001
0010
0000
0100
0000
1000
0000
0001
,  // measure 48
1000
0001
0010
1000
0010
0001
1000
0100
,  // measure 49
0020
0000
0000
0000
0000
0000
0000
0000
0000
0000
0000
0000
0000
0000
0000
0000
0000
0000
0000
0000
0000
0000
0000
0000
0001
0000
0000
0000
0000
0000
0000
0000
0000
0000
0000
0000
0000
0000
0000
0000
0000
0000
0000
0000
0000
0000
0000
0000
0031
0000
0000
0000
0000
0000
0000
0000
0000
0000
0000
0000
0000
0000
0000
0000
0000
0000
0000
0000
0000
0000
0000
0000
2000
0000
0000
0000
0000
0000
0000
0000
0000
0000
0000
0000
0000
0000
0000
0000
0000
0000
0000
0000
0000
0000
0000
0000
0010
0000
0000
0000
0000
0000
0000
0000
0000
0000
0000
0000
0000
0000
0000
0000
0000
0000
0000
0000
0000
0000
0000
0000
3010
0000
0000
0000
0000
0000
0000
0000
0000
0000
0000
0000
0000
0000
0000
0000
0000
0000
0000
0000
0000
0000
0000
0000
2000
0000
0000
0000
0000
0000
0000
0000
0000
0000
0000
0000
0000
0000
0000
0000
0000
0000
0000
0000
0000
0000
0000
0000
0002
0000
0000
0000
0000
0000
0000
0000
0000
0000
0000
0000
0000
3003
0000
0000
0000
0000
0000
0000
0000
0000
0000
0000
,  // measure 50
0000
0000
0100
0001
0100
0010
0100
0001
,  // measure 51
1000
0001
0100
0010
0100
0001
0010
0001
,  // measure 52
0100
0010
1000
0010
0100
0001
0010
0100
,  // measure 53
1000
0001
0100
0010
0100
0001
1000
0100
,  // measure 54
0010
0001
1000
0100
1000
0010
0100
0001
,  // measure 55
0010
0100
1000
0010
0100
0001
1000
0100
,  // measure 56
0010
0001
0100
0010
1000
0001
0200
0000
,  // measure 57
0010
0000
0001
0000
0010
0000
0301
0010
,  // measure 58
0001
1000
2002
0000
0000
0000
3003
0000
;

//---------------dance-single - DDRDAIKENKAI----------------
#NOTES:
     dance-single:
     DDRDAIKENKAI:
     Medium:
     5:
     0.302,0.437,0.000,0.210,0.000,200.000,0.000,22.000,0.000,0.000,0.000,-1.000,-1.000,0.302,0.437,0.000,0.210,0.000,200.000,0.000,22.000,0.000,0.000,0.000,-1.000,-1.000:
0000
0000
0000
0000
,
0000
0000
0000
0000
,
0000
0000
0000
0000
,
0000
0000
0000
0000
,
1000
0001
1000
0001
0000
0100
0000
0100
,
0000
0001
1000
0001
0000
0010
0000
0020
,
0000
0000
0000
0000
,
0002
0000
0000
0033
,
0001
1000
0000
0001
0000
0100
0000
0100
,
0000
0001
0000
1000
0000
0010
0000
0010
,
0000
1000
0000
0100
0000
0010
0000
0010
,
0000
0100
0000
1000
0000
0001
0000
0001
,
0200
0000
0000
0301
0000
1000
0000
1000
,
0000
0100
0000
1000
0000
0010
0000
0010
,
0000
0100
0000
0001
0000
1000
0000
1000
,
0000
0001
0000
0100
0000
0010
0000
2000
,
0002
0000
0000
3003
,
0001
0100
0001
0100
0002
0000
0000
0000
,
0000
0000
0003
0000
0000
1000
0100
0000
,
1000
0100
1000
0000
0010
0100
0010
0000
,
0200
0001
0000
0301
,
0001
0010
0001
0010
0002
0000
0000
0000
,
0000
0000
0003
0000
0000
1000
0100
1000
,
0100
0000
1000
0000
0010
0100
0010
0100
,
0020
0000
0000
0000
0030
1000
0010
1000
,
0010
1000
0001
1000
,
0200
0000
0000
0300
,
1000
0100
1000
0001
,
0200
0000
0000
0300
,
0001
0010
0001
1000
,
0200
0000
0000
0300
,
1000
0010
1000
0001
,
2000
0000
0000
3000
,
0001
0010
0001
0010
0002
0000
0000
0000
,
0000
0000
0003
0000
0000
1000
0100
1000
,
0100
0000
1000
0000
0010
0100
0010
0100
,
0020
0000
0000
0030
,
1000
0001
1000
0001
2000
0000
0000
0000
,
0000
0000
3000
0000
0000
0001
0100
0001
,
0100
0000
0010
0000
1000
0001
1000
0001
,
2000
0000
0000
0000
3000
0001
0010
0001
,
0010
0001
1000
0001
,
0200
0000
0000
0300
,
0010
0100
0001
1000
,
0200
0000
0000
0300
,
1000
0010
1000
0001
,
0200
0000
0000
0300
,
0001
0100
0001
1000
,
0020
0000
0000
0000
,
0130
0000
1000
0100
1000
0000
0010
0100
,
0010
0000
0100
0001
0100
0000
0001
0010
,
0001
0000
0010
0100
0010
0000
0100
1000
,
0100
0000
1000
0010
1000
0000
0001
0100
,
0001
0000
1000
0001
1000
0001
1000
0001
,
1000
0001
0100
0010
0100
0010
0100
0010
,
0100
0010
0100
0010
1000
0010
0200
0000
,
0000
0000
0000
0000
,
0000
0301
0000
0000
;

//---------------dance-single - DDRDAIKENKAI----------------
#NOTES:
     dance-single:
     DDRDAIKENKAI:
     Easy:
     3:
     0.218,0.248,0.000,0.210,0.000,138.000,0.000,22.000,0.000,0.000,0.000,-1.000,-1.000,0.218,0.248,0.000,0.210,0.000,138.000,0.000,22.000,0.000,0.000,0.000,-1.000,-1.000:
0000
0000
0000
0000
,
0000
0000
0000
0000
,
0000
0000
0000
0000
,
0000
0000
0000
0000
,
0001
0001
0001
0001
,
1000
1000
1000
1000
,
0002
0000
0000
0000
,
2000
0000
0000
3003
,
0001
1000
0000
0001
,
0000
0100
0000
0010
,
1000
0100
0000
1000
,
0000
0010
0000
0100
,
0002
1003
1000
0001
,
0010
1000
0010
0001
,
0200
0300
0001
0010
,
0100
1000
0100
0020
,
0000
0000
0000
0030
,
0001
0010
0002
0000
,
0000
0003
0000
0100
,
0100
0001
0100
0001
,
0200
0000
0000
0300
,
0010
1000
0020
0000
,
0000
0000
0030
1000
,
1000
0001
1000
0010
,
2000
0000
3000
0001
,
1000
0000
0001
0000
,
0200
0000
0000
0300
,
0001
0000
1000
0000
,
0200
0000
0000
0300
,
1000
0000
0010
0000
,
0200
0000
0000
0300
,
0001
0000
0100
0000
,
0020
0000
0000
0030
,
1000
0100
2000
0000
,
3000
0000
0000
0001
,
0001
0100
0001
0001
,
0200
0000
0000
0300
,
0001
0010
0002
0000
,
0000
0003
0000
1000
,
1000
0100
1000
1000
,
0200
0000
0300
1000
,
1000
0010
1000
0010
,
2000
0000
0000
3000
,
0001
0100
0001
0100
,
0002
0000
0000
0003
,
1000
0001
1000
0001
,
2000
0000
0000
3000
,
0010
0100
0010
0100
,
0002
0000
0000
0000
,
0003
1000
1000
0001
,
0001
1000
1000
0001
,
0001
0100
0100
0010
,
0010
0100
0100
0010
,
0010
1000
0100
1000
,
0100
0010
0001
0010
,
0001
1000
0001
1000
,
0001
0100
0010
0100
,
0010
2000
0000
3000
;

//---------------dance-single - DDRDAIKENKAI----------------
#NOTES:
     dance-single:
     DDRDAIKENKAI:
     Beginner:
     1:
     0.158,0.220,0.019,0.200,0.000,93.000,2.000,21.000,0.000,0.000,0.000,-1.000,-1.000,0.158,0.220,0.019,0.200,0.000,93.000,2.000,21.000,0.000,0.000,0.000,-1.000,-1.000:
0000
0000
0000
0000
,
0000
0000
0000
0000
,
0000
0000
0000
0000
,
0000
0000
0000
0000
,
0000
0000
0000
0000
,
0000
0000
0000
0000
,
0000
0000
0000
0000
,
0000
0000
0000
0000
,
0000
1000
0000
0001
,
0000
1000
0000
0001
,
0000
0100
0000
0010
,
0000
0100
0000
0010
,
0010
0000
1000
0000
,
0100
0000
1000
0000
,
0001
0000
0100
0000
,
0001
0000
1000
0000
,
2002
0000
3003
0000
,
0001
0001
0002
0000
,
0000
0003
0000
1000
,
1000
1000
1000
1000
,
2000
0000
3000
0000
,
0010
0010
0020
0000
,
0000
0030
0000
0100
,
0100
0100
0100
0100
,
0200
0000
0300
0000
,
0001
0000
0001
0000
,
0002
0000
0003
0000
,
1000
0000
1000
0000
,
2000
0000
3000
0000
,
0010
0000
0010
0000
,
0020
0000
0030
0000
,
0100
0000
0100
0000
,
0200
0000
0300
0000
,
0001
0001
0002
0000
,
0003
0000
0000
1000
,
1000
1000
1000
1000
,
2000
0000
3000
0000
,
0100
0100
0200
0000
,
0000
0300
0000
0010
,
0010
0010
0010
0010
,
0020
0030
0000
0001
,
0001
0000
0001
0000
,
0002
0000
0003
0000
,
0100
0000
0100
0000
,
0200
0000
0300
0000
,
0010
0000
0010
0000
,
0020
0000
0030
0000
,
1000
0000
1000
0000
,
2000
0000
0000
0000
,
3000
0000
1000
0000
,
0001
0000
1000
0000
,
0001
0000
0100
0000
,
0010
0000
0100
0000
,
0010
0010
0000
1000
,
0000
0001
0000
1000
,
0000
0100
0000
0200
,
0000
0000
0000
0300
,
0000
0220
0000
0330
;
