#VERSION:0.83;
#TITLE:Mysterious Time;
#SUBTITLE:;
#ARTIST:Y&Co.;
#TITLETRANSLIT:;
#SUBTITLETRANSLIT:;
#ARTISTTRANSLIT:;
#GENRE:;
#ORIGIN:;
#CREDIT:;
#BANNER:Mysterious Time.png;
#BACKGROUND:Mysterious Time-bg.png;
#PREVIEWVID:;
#JACKET:Mysterious Time-jacket.png;
#CDIMAGE:;
#DISCIMAGE:;
#LYRICSPATH:;
#CDTITLE:cdtitle.png;
#MUSIC:Mysterious Time.ogg;
#OFFSET:-1.567000;
#SAMPLESTART:53.220001;
#SAMPLELENGTH:12.300000;
#SELECTABLE:YES;
#BPMS:0.000=155.000;
#STOPS:;
#DELAYS:;
#WARPS:;
#TIMESIGNATURES:0.000=4=4;
#TICKCOUNTS:0.000=4;
#COMBOS:0.000=1;
#SPEEDS:0.000=1.000=0.000=0;
#SCROLLS:0.000=1.000;
#FAKES:;
#LABELS:0.000=Song Start;
#BGCHANGES:;
#KEYSOUNDS:;
#ATTACKS:
;

//---------------dance-single - DDRDAIKENKAI----------------
#NOTEDATA:;
#CHARTNAME:DDRDAIKENKAI;
#STEPSTYPE:dance-single;
#DESCRIPTION:DDRDAIKENKAI;
#CHARTSTYLE:;
#DIFFICULTY:Challenge;
#METER:10;
#RADARVALUES:0.983594,1.051708,0.542467,0.333826,0.972268,825.000000,760.000000,65.000000,40.000000,15.000000,0.000000,11.000000,0.000000,0.000000,0.983594,1.051708,0.542467,0.333826,0.972268,825.000000,760.000000,65.000000,40.000000,15.000000,0.000000,11.000000,0.000000,0.000000;
#CREDIT:DDRDAIKENKAI;
#NOTES:
// measure 0
0000
0000
0000
0000
,  // measure 1
0000
0000
0000
0000
,  // measure 2
0000
0000
0000
0000
,  // measure 3
0000
0000
1001
0000
0000
0000
11M0
0000
000M
0000
0101
M000
0000
0000
0M01
0010
,  // measure 4
0001
0100
0110
0010
1000
0100
1100
0100
,  // measure 5
0010
0000
0001
0000
0011
0000
0001
0000
1000
0000
0010
0000
1010
0000
0010
0100
,  // measure 6
0001
0100
0110
0010
1010
1000
1100
0100
,  // measure 7
2002
0000
0000
3003
,  // measure 8
0001
0010
0001
0010
0001
0000
1000
0100
1000
0100
1000
0000
0010
0100
0010
0100
,  // measure 9
0010
0000
0100
0001
0100
0001
0100
0000
0001
1000
0001
1000
0004
0000
1003
0100
,  // measure 10
1000
0010
1000
0010
1000
0000
0010
0100
0010
0100
0010
0000
0100
0001
0100
0001
,  // measure 11
0100
0000
0001
0010
0001
0010
0001
0000
1000
0100
1000
0100
4000
0000
3010
0100
,  // measure 12
0001
0010
0001
0010
0001
0000
0100
0001
0100
0001
0100
0000
0010
0100
0010
0100
,  // measure 13
0010
0000
1000
0100
1000
0100
1000
0000
0010
0100
0010
0100
0040
0000
1030
0100
,  // measure 14
1000
0001
1000
0001
1000
0000
0001
0100
0001
0100
0001
0000
1000
0100
1000
0100
,  // measure 15
1000
0000
0010
0100
0010
0100
0010
0000
1000
0001
1000
0001
1000
0001
0100
0010
,  // measure 16
0100
0001
0101
0001
0010
0001
0101
0001
,  // measure 17
1000
0100
0110
0100
1000
0010
0110
0010
,  // measure 18
1000
0001
1001
0001
0100
0010
0110
0010
,  // measure 19
1000
0100
1100
0100
0010
0001
0011
0001
,  // measure 20
1000
0010
1010
0010
0100
0010
1010
0010
,  // measure 21
0100
0000
0001
0000
1001
0000
0001
0000
1000
0000
0100
0000
0110
0000
0100
1000
,  // measure 22
0001
0100
0110
0000
0102
0000
1003
0000
,  // measure 23
1001
0000
0000
0000
0000
0000
1100
0000
0000
1010
0000
0000
0000
0000
0000
0110
0000
0000
0000
0000
0000
0001
1000
0001
,  // measure 24
1000
0000
0000
0000
1100
0000
1000
0000
0010
0000
0100
0000
0001
0010
0001
0100
,  // measure 25
0010
0000
1000
0000
0001
0000
1000
0000
0100
0000
0010
0000
0001
0010
0001
0100
,  // measure 26
0010
0000
1000
0000
0010
0000
0100
0000
0001
0000
0010
0000
0001
0010
0001
0100
,  // measure 27
0010
0000
1000
0000
0100
0000
0010
0000
0001
0000
1000
0000
0100
1000
0010
0100
,  // measure 28
0001
0000
0010
0000
0001
0100
0010
1000
0100
0000
0010
0001
0010
0001
0100
0010
,  // measure 29
1000
0000
0001
0000
0010
0001
1000
0100
1000
0000
0010
0000
0110
0000
0101
0000
,  // measure 30
1001
0000
0001
0000
1000
0100
1000
0010
0100
0000
0101
0000
1001
0000
1010
0000
,  // measure 31
1000
0000
1100
0000
0100
0000
0220
0000
0330
0000
2001
0000
0000
3001
1000
0000
,  // measure 32
1010
0020
0032
0023
0230
0320
0032
0023
,  // measure 33
0230
2000
0300
3100
0001
1000
0100
0010
,  // measure 34
M00M
0000
1001
0000
1000
0100
1000
0000
0001
0000
0100
0000
0010
0000
1000
0000
,  // measure 35
M00M
0000
1001
0000
0001
1000
0001
0000
0100
0000
0010
0000
0100
0000
0001
0000
,  // measure 36
M00M
1000
2100
3010
0000
0010
0100
0001
,  // measure 37
0010
0100
1000
0010
0001
0010
0110
0020
,  // measure 38
0000
0000
0130
0000
0001
0010
0001
0000
2000
0000
0000
3010
0100
0000
0001
0000
,  // measure 39
0100
0000
0010
0000
1000
0100
1000
0000
0020
0000
0000
0130
0001
0000
1000
0000
,  // measure 40
0001
0000
0000
0001
0010
0000
0100
0000
1000
0000
0000
1000
0010
0000
1000
0000
,  // measure 41
1100
0000
0000
0011
0000
0000
0001
0000
2000
0000
3010
0200
0301
0000
0200
0310
,  // measure 42
1000
0000
0010
0000
1000
0001
0100
0001
1000
0000
0100
1000
0000
0010
0100
0001
,  // measure 43
0010
0000
0001
0100
0010
1000
0100
0010
0001
0000
1000
0100
0000
1000
0010
0100
,  // measure 44
0001
0000
0010
0000
0001
0100
0010
1000
0100
0000
0010
0100
0000
1000
0100
0010
,  // measure 45
0001
0000
1000
0010
1000
0001
1000
0000
0001
0100
0001
0010
0001
0000
0120
0000
,  // measure 46
0000
1030
1100
0200
0000
0310
0011
0001
,  // measure 47
1000
0100
1000
0010
0100
0000
0020
0000
0000
0000
1030
0000
1100
0000
0100
2000
,  // measure 48
3010
0100
0001
0100
0010
1000
0100
1000
0010
0100
0001
0010
0100
1000
0100
0020
,  // measure 49
0000
0000
0000
0001
0001
0100
0001
0001
,  // measure 50
003M
0000
1001
0000
0002
1003
0001
0000
1000
0000
0100
0000
1000
0000
0001
0000
,  // measure 51
M00M
0000
1010
0000
0010
0100
0010
0000
1000
0000
0100
0000
1000
0000
0001
0000
,  // measure 52
M00M
1000
1100
0002
0003
0001
0101
0100
,  // measure 53
0001
0100
0010
1000
0100
1000
1001
0002
,  // measure 54
1000
0000
1003
0000
0001
0010
0001
0000
0102
0000
0000
0103
0010
0000
1000
0000
,  // measure 55
0100
0000
0001
0000
0100
1000
0100
0000
0210
0000
0000
0310
0001
0000
0100
0000
,  // measure 56
0101
0000
0000
0110
0000
0000
1010
0000
1100
0000
0000
0110
0000
0000
0011
0000
,  // measure 57
1001
0000
0000
0120
0000
0000
0100
0000
1000
0000
0000
1030
0000
0000
0001
0000
,  // measure 58
1000
0100
1000
0100
1000
0000
0010
0100
0010
0100
0010
0000
0100
0001
0100
0001
,  // measure 59
0100
0000
0001
0010
0001
0010
0001
0000
1000
0100
1000
0100
4000
0000
3001
0010
,  // measure 60
0001
0100
0001
0100
0001
0000
0100
0010
0100
0010
0100
0000
0010
1000
0010
1000
,  // measure 61
0010
0000
1000
0100
1000
0100
1000
0000
0001
0010
0001
0010
0004
0000
1003
0100
,  // measure 62
0010
0001
0010
0001
0010
0000
0001
1000
0001
1000
0001
0000
1000
0010
1000
0010
,  // measure 63
1000
0000
0001
0100
0001
0100
0001
0000
1000
0100
1000
0100
4000
0000
3001
0100
,  // measure 64
0010
1000
0010
1000
0010
0000
1000
0010
1000
0010
1000
0100
1000
0010
0100
0001
,  // measure 65
0010
0000
0001
1000
0001
1000
0001
0000
1000
0010
1000
0010
4000
3001
0100
0001
,  // measure 66
0010
0001
0100
0010
1000
0100
1000
0000
0010
0100
0001
0010
0100
1000
0001
0000
,  // measure 67
1000
0100
0010
0001
0100
0000
0010
1000
0100
0000
1000
0010
0100
0001
0010
0000
,  // measure 68
0001
1000
0100
1000
0100
0000
0010
0001
0010
0001
0100
0001
1000
0010
1000
0001
,  // measure 69
0100
0000
0010
1000
0001
1000
0100
1000
0200
0000
0000
0320
0000
0000
0032
0000
,  // measure 70
0103
0010
1000
0001
1000
0100
1000
0010
0100
0001
0010
0001
0100
0001
0010
0001
,  // measure 71
1000
0100
1000
0001
0010
0001
1000
0100
1000
0010
0100
0001
0010
0001
0100
0010
,  // measure 72
1000
0100
0010
0100
1000
0001
0100
0001
0010
0001
0100
0010
1000
0100
1000
0001
,  // measure 73
0020
0000
0031
0100
0010
1000
0100
1000
0002
0000
1003
0100
1000
0010
0100
0001
,  // measure 74
0100
0010
0100
0010
0400
0000
0301
0100
0001
1000
0001
1000
0004
0000
1003
0100
,  // measure 75
1000
0010
4000
3001
0100
0010
0400
0301
1000
0010
0100
0001
0010
0001
0100
0020
,  // measure 76
2000
0000
0000
3030
0000
0000
0000
0000
;

//---------------dance-single - DDRDAIKENKAI----------------
#NOTEDATA:;
#CHARTNAME:DDRDAIKENKAI;
#STEPSTYPE:dance-single;
#DESCRIPTION:DDRDAIKENKAI;
#CHARTSTYLE:;
#DIFFICULTY:Hard;
#METER:9;
#RADARVALUES:0.742763,0.860489,0.267061,0.484048,0.383900,623.000000,591.000000,32.000000,58.000000,0.000000,0.000000,0.000000,0.000000,0.000000,0.742763,0.860489,0.267061,0.484048,0.383900,623.000000,591.000000,32.000000,58.000000,0.000000,0.000000,0.000000,0.000000,0.000000;
#CREDIT:DDRDAIKENKAI;
#NOTES:
0000
0000
0000
0000
,
0000
0000
0000
0000
,
0000
0000
0000
0000
,
0000
0000
0000
0000
0000
0000
1000
0000
0100
0000
0000
0010
0000
0000
0001
0000
,
0100
0010
0100
0010
1000
0001
1000
0001
,
0010
0000
0100
0000
0010
0000
0100
0000
1000
0000
0001
0000
1000
0000
0001
1000
,
0100
1000
0010
1000
0100
0010
0001
0100
,
0220
0000
0000
0330
,
1000
0001
1000
0000
0010
0000
1000
0001
1000
0000
0010
0000
0100
0001
0100
0000
,
0010
0000
0100
0001
0100
0000
0010
0000
1000
0000
0100
0000
1000
0000
0001
0000
,
1000
0100
1000
0000
0100
0000
1000
0010
1000
0000
0100
0000
0010
0100
0010
0000
,
0001
0000
1000
0010
1000
0000
0001
0000
0100
0000
0010
0000
0100
0000
0010
0000
,
1000
0100
1000
0000
0001
0000
0100
0010
0100
0000
0001
0000
1000
0010
1000
0000
,
0100
0000
0010
0001
0010
0000
0001
0000
0100
0000
0010
0000
0100
0000
0001
0000
,
1000
0100
1000
0100
1000
0000
0001
0010
0001
0010
0001
0000
0100
0010
0100
0010
,
0100
0000
0001
1000
0001
1000
0001
0000
0100
0010
0100
0010
0100
0000
0001
0000
,
0100
0000
0101
0000
1010
0000
0100
0002
,
0000
0003
0010
0000
1000
0000
0010
0000
0001
0000
0100
0000
0010
0000
1000
0000
,
0100
0000
0011
0000
1200
0000
0310
0002
,
0000
0103
0020
0000
1030
0200
0000
2300
,
0010
3000
1010
0000
0110
0000
0100
0002
,
0000
0000
1003
0000
0100
0000
1000
0000
0001
0000
0100
0000
0001
0000
0100
0010
,
0100
0110
2100
3001
,
0011
0000
0000
0000
0100
0000
0101
0000
0000
0000
1001
0000
0000
0000
0001
1000
,
0001
0000
1001
0001
0100
0010
1000
0100
,
0000
1000
0010
0100
0002
0023
0000
0230
,
0000
1300
0100
0010
0001
0100
0010
1000
,
0100
1000
0001
0010
0002
0203
0000
0320
,
0000
1030
0100
1000
0010
1000
0001
0100
,
0010
0100
0001
0010
0002
2003
0010
3010
,
1010
1000
0001
1000
0200
2300
3020
0230
,
0300
0202
0303
2002
3003
0022
0033
0210
,
0000
1300
0100
0010
0100
1000
0100
0010
,
0001
2000
0000
0010
3010
0100
0001
1000
,
0000
0001
1001
1000
0100
1000
0001
0100
,
0000
0010
0010
1000
0100
1000
0010
0100
,
0000
0001
0011
0020
0000
0130
1000
0001
,
0010
0001
0100
0010
1000
0100
1000
2000
,
0000
3010
0100
0001
0010
0100
1000
0100
,
0010
0001
0100
0010
1000
0100
0010
0001
,
0020
0000
0000
0032
0000
0000
1003
0000
0020
0000
0000
2030
0000
0000
3001
0000
,
0101
0000
0000
0110
0000
0000
0000
0000
0000
0000
0001
0000
0100
0000
0010
0000
,
0100
0000
0001
0000
0010
0000
0001
0000
0100
0000
0010
1000
0000
0100
1000
0000
,
0010
0000
0100
0000
0001
0000
0010
0000
0001
0000
0100
0010
0000
0100
0001
0000
,
1000
0000
0010
0000
1000
0000
0100
0000
1000
0000
0001
0010
0000
0001
0100
0000
,
0010
0000
1000
0000
0100
0000
0010
0000
0001
0010
0001
0010
0001
0000
1002
0000
,
0000
1003
0010
0200
0000
0301
0010
0100
,
1000
0100
0010
0002
0000
1003
0010
1000
,
0001
0100
0000
0010
0100
0000
0010
1000
0000
0100
1000
0000
0010
0000
0100
0002
,
0000
0000
0000
0010
0013
0100
1000
0001
,
0000
1000
1001
0001
0010
0001
0100
0010
,
0000
0100
0100
0010
1000
0010
0100
0001
,
0000
1000
1001
0002
0000
0103
0010
1000
,
0001
0010
0001
0100
0010
1000
0100
2000
,
0000
3001
1000
0001
0010
0001
0100
1000
,
0100
0001
0010
0100
1000
0010
1000
0001
,
0011
0000
0000
1001
0000
0000
1000
0000
1100
0000
0000
1010
0000
0000
0010
0000
,
0110
0000
0000
0202
0000
0000
0303
0000
0000
0000
0001
0000
0100
0000
0010
0000
,
1000
0100
1000
0000
0100
0000
0010
0001
0010
0000
0001
0000
0100
0010
0100
0000
,
0010
0000
1000
0001
1000
0000
0100
0000
0010
0000
0100
0000
0010
0000
0001
0000
,
0100
0010
0100
0000
0001
0000
1000
0100
1000
0000
0010
0000
0100
0010
0100
0000
,
0001
0000
0100
0010
0100
0000
0010
0000
1000
0000
0001
0000
1000
0000
1000
0000
,
0100
0010
0100
0000
1000
0000
0001
0010
0001
0000
1000
0000
0001
0100
0001
0000
,
0100
0000
0010
1000
0010
0000
0100
0000
0001
0000
1000
0000
0001
0000
0010
0000
,
0100
1000
0100
0000
0010
0000
0001
0100
0001
0000
0010
0000
0100
0010
0100
0010
,
0100
0000
1000
0001
1000
0001
2000
0000
3020
0000
0000
0230
0000
0000
0302
0000
,
1003
0100
1000
0000
0010
0000
0010
0000
1000
0001
1000
0000
0010
0000
0010
0000
,
0100
0001
0100
0000
0010
0000
1000
0100
1000
0000
0001
0000
0001
0000
1000
0000
,
0100
0010
0100
0010
0001
0000
1000
0000
0010
0100
0010
0000
1000
0000
0001
0000
,
0010
0000
0001
0100
0001
0000
2000
0000
3002
0000
0000
0203
0000
0000
0320
0000
,
1030
0100
1000
0100
1000
0000
0001
1000
0001
1000
0001
0000
0010
0100
0010
0100
,
0010
0000
0100
1000
0100
1000
0100
0000
0010
0000
0001
0000
0010
0000
0001
0000
,
0100
0010
0100
0010
0100
0000
0010
1000
0010
1000
0010
0000
0100
0001
0100
0001
,
0100
0000
0001
1000
0001
1000
0001
0000
0010
0000
0100
0000
0010
0000
0001
0100
,
0002
0000
0010
0000
0013
0000
0001
1000
0020
0000
1000
0000
1030
0000
0010
1000
,
0002
0013
2000
3010
0001
0001
1000
1000
,
2002
0000
0000
3003
0000
0000
0000
0000
;

//---------------dance-single - DDRDAIKENKAI----------------
#NOTEDATA:;
#CHARTNAME:DDRDAIKENKAI;
#STEPSTYPE:dance-single;
#DESCRIPTION:DDRDAIKENKAI;
#CHARTSTYLE:;
#DIFFICULTY:Medium;
#METER:7;
#RADARVALUES:0.515046,0.509919,0.216987,0.125185,0.050074,432.000000,406.000000,26.000000,15.000000,0.000000,0.000000,0.000000,0.000000,0.000000,0.515046,0.509919,0.216987,0.125185,0.050074,432.000000,406.000000,26.000000,15.000000,0.000000,0.000000,0.000000,0.000000,0.000000;
#CREDIT:DDRDAIKENKAI;
#NOTES:
0000
0000
0000
0000
,
0000
0000
0000
0000
,
0000
0000
0000
0000
,
0000
0000
0000
0000
,
1000
0000
1100
0000
0010
0001
0100
0000
,
0010
0000
0110
0000
0010
1000
0001
0000
,
0100
0010
1000
0000
0010
0100
0001
0000
,
2002
0000
0000
0000
0000
0000
0000
0000
0000
0000
0000
0000
0000
3003
0000
0000
,
1000
0100
1000
0000
0001
0010
0001
0000
,
0100
0010
0100
0000
0001
0010
0001
0010
,
0001
1000
0001
0000
1000
0100
1000
0000
,
0010
0100
0010
0000
0100
0001
0100
0001
,
1000
0001
1000
0000
0100
1000
0100
0000
,
1000
0010
1000
0000
0010
0100
0010
0100
,
0001
0100
0001
0000
0010
0001
0010
0000
,
0100
1000
0100
0000
1000
0001
1000
0001
,
1000
0000
1001
0000
0101
0000
0001
1000
,
0000
0100
1000
0100
1000
0100
0000
0000
,
0010
0000
0110
0000
0011
0000
0001
1000
,
0000
0100
1000
0000
0010
0100
0000
0001
,
0000
0000
0101
0000
0110
0000
0010
1000
,
0000
0100
1000
0100
1000
0100
0000
1000
,
0001
1001
0101
0001
,
0011
0000
0010
0100
0000
1100
0000
1000
,
0010
0000
0100
0010
1000
0000
0010
0100
,
0000
0001
0010
0000
0100
0020
0000
0031
,
0000
1000
0100
0000
1000
0001
0000
0100
,
0000
0010
0100
0000
0010
2000
0000
3100
,
0000
1000
0001
1000
0001
1000
0000
0001
,
0000
0010
0001
0000
0100
0010
1000
0001
,
1000
0001
0100
0000
0010
0100
0010
1000
,
0000
1010
0000
0110
0000
0101
0000
1002
,
0000
1003
0010
1000
0010
1000
0010
1000
,
0001
0000
0000
0010
0001
0010
0001
0010
,
0000
0000
0000
0001
0100
0001
0100
0010
,
0000
0000
0000
1000
0010
0100
0001
1000
,
0000
0000
1001
0000
0001
1000
0100
0000
,
1000
0001
0100
0000
0001
1000
0100
2000
,
0000
3001
0010
0000
0001
0100
0010
0000
,
0100
0010
1000
0000
0010
1000
0100
0000
,
0010
0000
0000
0010
0000
0000
0010
0000
0001
0000
0000
0001
0000
0000
0001
0000
,
1000
0000
0000
2001
0000
0000
3001
0000
0100
0000
0000
0001
0000
0000
0100
0000
,
0010
0000
0100
0000
0010
0000
0000
0000
1000
0000
0000
1000
0000
0000
1000
0000
,
0001
0000
0100
0000
0001
0000
0000
0000
0100
0000
0000
0100
0000
0000
0100
0000
,
0010
0000
1000
0000
0010
0000
0000
0000
1000
0000
0000
1000
0000
0000
1000
0000
,
0001
0010
0001
0001
1000
0010
1000
0002
,
0000
1003
0100
0000
1000
0010
0100
0000
,
0010
1000
0001
0000
0100
0001
1000
0100
,
0020
0001
0100
1000
,
0200
0000
0000
0330
,
1000
0100
1000
0000
0010
0100
0010
0000
,
1000
0001
1000
0000
0001
0100
0001
0000
,
0010
0000
0110
0000
0010
0001
0100
0000
,
0010
1000
0100
0000
0010
0001
0100
0000
,
0010
1000
0010
0000
1000
0001
1000
0000
,
0001
0100
0001
0000
0100
0010
0100
0000
,
0010
0000
0000
0010
0000
0000
0010
0000
1000
0000
0000
1000
0000
0000
1000
0000
,
0001
0000
0000
0002
0000
0000
0000
0000
0000
0000
0000
0000
0003
0000
0000
0000
,
1000
0001
1000
0000
0001
0100
0001
0000
,
0100
0010
0100
0000
0010
1000
0010
1000
,
0100
1000
0100
0000
0010
0100
0010
0000
,
0001
0010
0001
0000
1000
0001
1000
0001
,
0100
0001
0100
0000
0010
0100
0010
0000
,
1000
0010
1000
0000
0100
1000
0100
1000
,
0010
1000
0010
0000
0100
0010
0100
0000
,
0001
0000
0010
0000
0001
0000
0010
0000
0001
0000
0000
0010
0000
0000
0100
0000
,
1000
0000
1100
0000
0010
0100
0001
0000
,
0010
0000
0011
0000
0001
0100
0001
0100
,
0010
0000
0110
0000
0010
1000
0100
0000
,
1000
0000
0000
0000
1000
0000
0010
0000
0100
0000
0000
0010
0000
0000
1000
0000
,
0100
0000
1100
0000
1000
0001
0100
0000
,
0001
0000
0011
0000
0001
1000
0100
0000
,
1000
0010
0100
0000
0010
0100
0001
0000
,
0010
0001
0100
0000
0010
1000
0100
0000
,
1000
1000
2000
3000
0001
0001
0002
0003
,
0100
0100
0010
0010
1000
1000
0001
0001
,
2002
0000
0000
3003
0000
0000
0000
0000
;

//---------------dance-single - DDRDAIKENKAI----------------
#NOTEDATA:;
#CHARTNAME:DDRDAIKENKAI;
#STEPSTYPE:dance-single;
#DESCRIPTION:DDRDAIKENKAI;
#CHARTSTYLE:;
#DIFFICULTY:Beginner;
#METER:1;
#RADARVALUES:0.200296,0.318699,0.083456,0.083456,0.000000,168.000000,158.000000,10.000000,10.000000,0.000000,0.000000,0.000000,0.000000,0.000000,0.200296,0.318699,0.083456,0.083456,0.000000,168.000000,158.000000,10.000000,10.000000,0.000000,0.000000,0.000000,0.000000,0.000000;
#CREDIT:DDRDAIKENKAI;
#NOTES:
0000
0000
0000
0000
,
0000
0000
0000
0000
,
0000
0000
0000
0000
,
0000
0000
0000
0000
,
1000
0000
0001
0000
,
1000
0000
0001
0000
,
0100
0000
0100
0000
,
0220
0000
0330
0000
,
1000
1000
1000
0000
,
0001
0001
0001
0000
,
0100
0100
0100
0000
,
0010
0010
0010
0000
,
1000
0000
1000
0000
,
0100
0000
0100
0000
,
0010
0000
0010
0000
,
0001
0001
0001
0001
,
0000
0001
0000
1000
,
0000
0001
0000
0100
,
0000
0010
0000
1000
,
0000
0001
0000
0100
,
0000
0001
0000
1000
,
0000
0001
0000
0100
,
0000
0010
0010
0000
,
1000
0000
1000
0000
,
0001
0001
0001
0000
,
1000
1000
1000
0000
,
0010
0010
0010
0000
,
0100
0100
0100
0000
,
0001
0000
1000
0000
,
0001
0000
1000
0000
,
0010
0000
0100
0000
,
0010
0010
0010
0010
,
0020
0000
0000
0000
,
0030
0000
0000
0000
,
0100
0100
0000
0100
,
0000
0001
0000
0001
,
0000
1000
0000
1000
,
0000
0010
0000
0010
,
0010
0000
1000
0000
,
0100
0000
0010
0000
,
0001
0000
1000
0000
,
2002
0000
3003
0000
,
1000
0000
0001
0000
,
0100
0000
0010
0010
,
0010
0000
0100
0000
,
0001
0000
1000
1000
,
1000
0000
0010
0000
,
0100
0000
0001
0001
,
0002
0000
0000
0000
,
0003
0000
0000
0000
,
1000
1000
0000
0001
,
0000
0100
0000
0010
,
0010
0010
0010
0000
,
1000
0000
0010
0000
,
0100
0000
0001
0000
,
0010
0000
0100
0000
,
0110
0000
0110
0000
,
2002
0000
3003
0000
,
1000
0000
0001
0000
,
0100
0000
0010
0000
,
0010
0000
0100
0000
,
0001
0000
1000
0000
,
0001
0000
0010
0000
,
0100
0000
1000
0000
,
1000
0000
0100
0000
,
0010
0000
0001
0000
,
1000
0000
1000
0000
,
0001
0000
0001
0000
,
0100
0000
0100
0000
,
0010
0000
0010
0000
,
1000
1000
1000
0000
,
0001
0001
0001
0000
,
0100
0100
0100
0000
,
0010
0010
0010
0000
,
1001
0000
1001
0000
,
0110
0000
0110
0000
,
2002
0000
0000
3003
0000
0000
0000
0000
;

//---------------dance-single - DDRDAIKENKAI----------------
#NOTEDATA:;
#CHARTNAME:DDRDAIKENKAI;
#STEPSTYPE:dance-single;
#DESCRIPTION:DDRDAIKENKAI;
#CHARTSTYLE:;
#DIFFICULTY:Easy;
#METER:5;
#RADARVALUES:0.346941,0.446210,0.200296,0.242024,0.000000,291.000000,267.000000,24.000000,29.000000,0.000000,0.000000,0.000000,0.000000,0.000000,0.346941,0.446210,0.200296,0.242024,0.000000,291.000000,267.000000,24.000000,29.000000,0.000000,0.000000,0.000000,0.000000,0.000000;
#CREDIT:DDRDAIKENKAI;
#NOTES:
0000
0000
0000
0000
,
0000
0000
0000
0000
,
0000
0000
0000
0000
,
0000
0000
0000
0000
,
1000
1100
0001
0101
,
0001
0100
0010
1000
,
0100
1100
0110
0011
,
2002
0000
0000
3003
,
1000
1000
0001
0001
,
0100
0000
0100
0000
0010
0100
0010
0000
,
0100
0100
0010
0010
,
1000
0000
1000
0000
0001
1000
0001
0000
,
1000
1000
0100
0100
,
0010
0000
0010
0000
0001
0010
0001
0000
,
0001
0001
0010
0010
,
0100
0000
0100
0000
1000
0100
1000
0000
,
0000
0001
0001
1000
,
0010
0010
0100
0001
,
0000
1000
1000
0001
,
0100
0100
0010
1000
,
1000
0001
0001
1000
,
0100
0010
0001
0100
,
0010
0110
0110
0000
,
0100
0000
0100
0100
0000
0000
0000
0000
,
0010
1000
0100
1000
,
0010
0100
0001
0001
,
1000
0100
1000
0010
,
0100
0001
0010
0010
,
0100
1000
0100
0010
,
0001
1000
0100
0100
,
1000
0000
0010
0000
0100
0000
0100
0001
,
0000
1001
0000
1001
0000
1001
0000
0000
,
0002
2003
3200
2300
,
0002
3003
0000
0000
0000
0000
0000
0000
,
1100
1001
0001
0010
,
0001
1000
0010
0010
,
0100
0110
0010
0110
,
0010
1000
0001
0001
,
0010
0010
0001
0001
,
0100
0100
1000
1000
,
0200
0000
0302
0000
,
0020
0000
0000
0033
0000
0000
0000
0000
0000
0000
0000
0000
0000
0000
0000
0000
,
0020
0000
0032
0000
,
0023
0000
0130
1000
,
0002
0000
0203
0000
,
0320
0000
1030
0100
,
2000
0000
3002
0000
,
0023
0000
0130
2000
,
0002
0000
0000
0000
,
3003
0000
0000
0000
,
1001
1100
1000
0001
,
1000
0001
0100
0001
,
1000
1100
0001
0101
,
0010
0010
0001
0100
,
0010
0010
1000
1000
,
0100
0100
0001
0001
,
0022
0000
0000
0033
0000
0000
0000
0000
2200
0000
0000
3300
0000
0000
0000
0000
,
2002
0000
0000
3003
0000
0000
0000
0000
0000
0000
0000
0000
0000
0000
0000
0000
,
0101
0100
0001
0010
,
0001
0000
0100
0000
0010
0100
0010
0000
,
1000
0100
1000
0010
,
1000
0000
0100
0000
1000
0010
1000
0000
,
0001
0100
0001
1000
,
0001
0000
0100
0000
0010
0100
0010
0000
,
1000
0100
1000
0001
,
1000
0000
0010
0000
0100
0010
0100
0000
,
0010
0010
1000
1000
,
0100
0100
0001
0001
,
0010
0001
0100
1000
,
0010
0000
0100
0000
0001
1000
0001
0000
,
0010
0010
1000
1000
,
0100
0100
0001
0001
,
0010
0001
0100
1000
,
0010
0000
0100
0000
0001
0010
0001
0000
,
1000
0001
1000
0000
0001
1000
0001
0000
,
0100
0010
0100
0000
0010
0100
0010
0000
,
0220
0000
0000
0000
0000
0000
0000
0000
0000
0000
0000
0000
0000
0000
0000
0000
0000
0000
0000
0000
0000
0000
0000
0000
0000
0000
0000
0000
0000
0000
0000
0000
0000
0000
0000
0000
0000
0000
0000
0000
0000
0000
0000
0000
0000
0000
0000
0000
0000
0000
0000
0000
0000
0000
0000
0000
0000
0000
0000
0000
0000
0000
0000
0000
0000
0000
0000
0000
0000
0000
0000
0000
0000
0330
0000
0000
0000
0000
0000
0000
0000
0000
0000
0000
0000
0000
0000
0000
0000
0000
0000
0000
0000
0000
0000
0000
0000
0000
0000
0000
0000
0000
0000
0000
0000
0000
0000
0000
0000
0000
0000
0000
0000
0000
0000
0000
0000
0000
0000
0000
0000
0000
0000
0000
0000
0000
0000
0000
0000
0000
0000
0000
0000
0000
0000
0000
0000
0000
0000
0000
0000
0000
0000
0000
0000
0000
0000
0000
0000
0000
0000
0000
0000
0000
0000
0000
0000
0000
0000
0000
0000
0000
0000
0000
0000
0000
0000
0000
0000
0000
0000
0000
0000
0000
0000
0000
0000
0000
0000
0000
0000
0000
0000
0000
0000
0000
0000
0000
0000
0000
0000
0000
;
