#TITLE:Myriagon;
#SUBTITLE:;
#ARTIST:Kita Khyber;
#TITLETRANSLIT:;
#SUBTITLETRANSLIT:;
#ARTISTTRANSLIT:;
#GENRE:NU-MEGALO;
#CREDIT:;
#MENUCOLOR:;
#NEWMETERSYSTEM:NO;
#BANNER:Myriagon.png;
#BACKGROUND:Myriagon-bg.png;
#LYRICSPATH:;
#CDTITLE:CDTitle.png;
#MUSIC:Myriagon.ogg;
#OFFSET:-0.057;
#SAMPLESTART:94.400;
#SAMPLELENGTH:12.000;
#SELECTABLE:YES;
#LISTSORT:;
#BPMS:0.000=173.000,64.000=86.500,68.000=345.999,196.000=173.000,324.000=86.500,328.000=345.999,467.021=345.979;
#STOPS:;
#BGCHANGES:;
#ATTACKS:;

//---------------dance-single - DDRDAIKENKAI----------------
#NOTES:
     dance-single:
     DDRDAIKENKAI:
     Hard:
     10:
     0.798,1.000,0.151,0.109,0.226:
0000
0000
0000
0000
,
0000
0000
0000
0000
,
0000
0000
0000
0000
,
0000
0000
0000
0000
,
0000
0000
0000
0000
,
0000
0000
0000
0000
,
0000
0000
0000
0000
,
0000
0000
0000
0000
,
1000
0000
0100
0000
0001
0000
0000
0100
0000
0000
0100
0000
1000
0000
0000
0000
,
0001
0000
0010
0000
0100
0000
0000
0010
0000
0000
0100
0000
1000
0000
0000
0000
,
0100
0000
1000
0000
0010
0000
0000
1000
0000
0000
0001
0000
0100
0000
0000
0000
,
0010
0000
1000
0000
0001
0000
0000
0000
1000
0000
0000
0001
0000
0000
0001
0000
,
1000
0000
0001
0000
0100
0000
0000
0001
0000
0000
1000
0000
0001
0000
0000
0000
,
1000
0000
0001
0000
0100
0000
0000
0010
0000
0000
0010
0000
0100
0000
0000
0000
,
0001
0000
1000
0000
0001
0000
0000
0100
0000
0000
0100
0000
0001
0000
0000
0000
,
1000
0000
0010
0000
0001
0000
0010
0000
1000
0000
0001
1000
0000
0001
1000
0000
,
0010
0000
1000
0000
0100
0000
0010
0001
0000
0010
0001
0000
0010
0000
0100
0000
1000
0000
0001
0000
0100
0000
0010
2000
0000
0000
0000
0000
0000
0000
0000
0000
,
3001
1000
0100
0010
,
0001
1000
0010
0100
,
0001
0010
0100
1000
,
0001
0010
0100
0010
,
0001
0100
0010
1000
,
0010
0100
0001
0100
,
0010
1000
0100
0010
,
0001
0000
1000
0100
0000
0100
1000
0000
,
0001
0100
0010
1000
,
0100
0010
0001
1000
,
0001
0010
0100
1000
,
0010
0100
0001
1000
,
0001
0010
0001
1000
,
0100
1000
0001
0100
,
0001
1000
0100
1000
,
0001
0000
0100
0010
0000
0010
1000
0000
,
0010
0100
0010
1000
,
0010
0100
0001
1000
,
0001
0010
0001
0100
,
0010
1000
0100
1000
,
0001
1000
0100
0010
,
0001
0010
0100
1000
,
0001
0100
0001
1000
,
0001
0000
1000
0100
0000
1000
0001
0000
,
0100
0010
0100
0001
,
0100
0010
0100
0001
,
1000
0010
1000
0100
,
1000
0010
1000
0001
,
0010
0100
1000
0001
,
1000
0100
0010
0001
,
1000
0001
0100
0010
,
1000
0000
0001
1000
0000
0001
1000
0000
,
0010
0100
0010
1000
0010
0100
0010
1000
,
0100
0010
0100
1000
0100
0010
0100
1000
,
0001
0100
0010
0100
0001
0100
0010
0100
,
0001
0010
0100
0010
0001
0010
0100
0010
,
0001
1000
0100
0010
0001
0010
0100
1000
,
0010
0100
0010
1000
0001
0100
0010
1000
,
0100
0010
0100
0010
0001
0010
0001
0100
,
0010
1000
0001
0100
0010
1000
0001
0100
,
0001
1000
0010
0100
0101
0001
1000
0100
,
0010
0001
1000
0010
1001
0010
1000
0100
,
1000
0001
0100
0010
0110
0010
1000
0100
,
1100
1000
1010
1000
2002
3003
0110
0000
,
0101
0001
0010
0001
1001
0001
0100
0010
,
1000
0100
0010
0001
1001
0001
1000
0010
,
0100
0001
1000
0100
1100
0100
0010
0100
,
0110
0100
1100
1000
2002
3003
1100
0000
,
1001
0000
0001
0000
0100
0000
0001
0000
1000
0000
0010
0100
0010
0000
1000
0000
,
0100
0000
0010
0100
0010
0000
0100
0000
1000
0000
0001
0100
0001
0000
1000
0000
,
0010
0000
0100
0000
0001
0000
1000
0000
0100
0000
1000
0001
1000
0000
0010
0000
,
0100
0000
0001
1000
0001
0000
0100
0000
0010
0000
1000
0001
1000
0000
0010
0000
,
1000
0000
0100
0000
0010
0000
0100
0000
1000
0000
0001
0010
0001
0000
1000
0000
,
0100
0000
1000
0001
1000
0000
0010
0000
0100
0000
0001
1000
0001
0000
0100
0000
,
0010
0000
1000
0000
0100
0000
1000
0000
0010
0000
1000
0100
1000
0000
0010
0000
,
0100
0000
0001
0010
0001
0000
1000
0000
0001
0000
1000
0010
1000
0000
0001
0000
,
1000
0000
0010
0000
0100
0000
0001
0000
1000
0000
0001
0100
0001
0000
1000
0000
,
0100
0000
0010
0100
0010
0000
0100
0000
1000
0000
0001
0010
0001
0000
1000
0000
,
0010
0000
0100
0000
0001
0000
0010
0000
0100
0000
1000
0100
1000
0000
0010
0000
,
0100
0000
0010
1000
0010
0000
0100
0000
0010
0000
1000
0001
1000
0000
0010
0000
,
0100
0000
0001
0000
0010
0000
0100
0000
1000
0000
0001
0010
0001
0000
0010
0000
,
0100
0000
1000
0010
1000
0000
0100
0000
0010
0000
0001
1000
0001
0000
0100
0000
,
0010
0000
1000
0000
0100
0000
0010
0000
0100
0000
1000
0010
1000
0000
0100
0000
,
1000
0000
0010
0100
0010
0000
1000
0000
0100
0000
0010
0001
0010
0000
0100
0000
,
1000
0000
1000
0100
1000
0000
0001
0010
0000
0001
0010
0000
0001
0100
0001
0000
0001
0000
1000
0010
1000
0000
1000
0200
0000
0000
0000
0000
0000
0000
0000
0000
,
1300
0001
0100
0010
,
1000
0001
1000
0010
,
0100
0001
0010
0100
,
1000
0100
0010
0100
,
1000
0010
0100
0001
,
1000
0001
0010
0100
,
0010
0001
0100
0010
,
1000
0000
0001
0010
0000
0001
0010
0000
,
0001
0010
0100
1000
,
0001
0100
0010
1000
,
0001
1000
0010
0100
,
0001
0010
0100
1000
,
0001
1000
0100
1000
,
0010
1000
0100
1000
,
0010
0100
0001
1000
,
0010
0000
0100
0001
0000
0100
0001
0000
,
0010
0001
0100
0010
,
1000
0100
0010
0001
,
1000
0010
0100
0001
,
0010
0100
1000
0001
,
0100
0010
1000
0001
,
1000
0010
0100
0001
,
1000
0100
0010
0001
,
1000
0000
0010
0100
0000
0010
0100
0000
,
0010
1000
0100
1000
,
0010
1000
0001
1000
,
0010
1000
0100
0010
,
0001
1000
0010
0100
,
0001
0010
0100
1000
,
0001
0100
0010
1000
,
0001
1000
0001
1000
0001
0000
0100
0000
,
0001
1000
0001
1000
0001
0000
0100
0000
,
0102
0000
0203
0000
0310
0100
0010
0100
,
0020
0230
0302
1003
,
2002
0000
0000
3003
;

//---------------dance-single - DDRDAIKENKAI----------------
#NOTES:
     dance-single:
     DDRDAIKENKAI:
     Challenge:
     12:
     1.000,1.000,0.360,0.444,0.741:
0000
0000
0000
0000
,
0000
0000
0000
0000
,
0000
0000
0000
0000
,
0000
0000
0000
0000
,
0000
0000
0000
0000
,
0000
0000
0000
0000
,
0000
0000
0000
0000
,
0000
0000
0000
0000
,
1000
0000
0001
0000
0100
0000
0010
1000
0100
1000
0010
0000
0100
0000
0000
0000
,
0001
0000
0010
0000
0100
0000
1000
0100
0010
0001
0100
0000
0010
0000
0000
0000
,
1000
0000
0001
0000
0010
0000
0001
1000
0100
1000
0001
0000
0100
0000
0000
0000
,
0010
0000
0100
0000
0001
0000
0010
0100
1000
0100
0010
0000
0001
1000
0010
0100
,
0001
0000
1000
0000
0010
0000
0100
0001
0010
0100
1000
0000
0001
0000
0000
0000
,
1000
0000
0010
0000
0100
0000
0010
1000
0100
0010
0001
0000
1000
0000
0000
0000
,
0010
0000
0100
0000
0001
0000
1000
0001
0100
0010
1000
0000
0001
0000
0000
0000
,
1000
0100
0010
0001
0100
0000
0001
0010
0100
0000
1000
0100
0000
1000
0010
0000
,
0100
0000
0001
0010
0001
0000
0100
0010
0000
1000
0100
0000
1000
0001
1000
0000
1000
0000
0001
0100
0001
0000
1000
0200
0000
0000
0000
0000
0000
0000
0000
0000
,
1300
0000
0001
0000
0100
0010
1000
0100
,
2000
3020
0230
0302
,
0013
0000
0100
0000
1000
0100
0010
0001
,
0200
0320
2030
3200
,
0310
0000
0100
0000
1000
0010
0100
0001
,
0020
0032
0203
0320
,
1030
0000
0100
0000
0010
0001
0010
0100
,
1000
0000
0001
0100
0000
0010
1000
0100
,
1000
0000
0010
0000
0100
0001
0010
0001
,
0200
0320
2030
3200
,
1300
0000
0001
0000
0010
0001
1000
0100
,
2000
3002
0203
0302
,
1003
0000
0010
0000
1000
0010
0100
0010
,
2000
3200
0320
0230
,
1300
0000
0001
0000
0010
0100
1000
0100
,
0010
0000
0001
0100
0000
0010
1000
0001
,
2000
0000
3010
0000
0100
0001
1000
0010
,
0200
0302
2003
3020
,
0130
0000
0001
0000
0010
0100
1000
0100
,
0020
0032
2003
3020
,
0130
0000
0001
0000
1000
0100
0010
0001
,
0200
0320
0230
0302
,
0013
0000
0100
0000
1000
0001
0100
0010
,
1000
0000
1000
0100
0000
0100
0010
0001
,
0010
0000
0100
0000
1000
0010
0100
0001
,
2000
3020
0230
0302
,
0013
0000
0100
0000
1000
0001
0100
0010
,
2000
3002
2003
3020
,
0130
0000
0001
0000
1000
0100
1000
0001
,
0200
0302
2003
3200
,
1300
0001
1000
0000
0010
0100
0010
1000
,
0001
0000
1000
0100
0000
0100
0010
0001
,
1000
0000
0001
0100
0001
0000
0001
1000
0000
1000
0100
0000
0100
1000
0100
0000
,
0100
0000
0100
0010
0001
0000
0001
0010
0000
0010
0100
0000
1000
0100
1000
0000
,
1000
0000
1000
0010
0100
0000
0100
0010
0000
0010
1000
0000
0001
1000
0001
0000
,
0001
0000
0001
0100
0001
0000
0001
1000
0000
1000
0100
0000
1000
0010
1000
0000
,
1000
0000
1000
0010
0100
0000
0100
0001
0000
0001
0010
0000
0010
0100
0010
0000
,
0100
0000
0100
1000
0100
0000
1000
0010
0000
0010
0100
0000
0100
0001
0100
0000
,
0100
0000
0100
0010
1000
0000
1000
0001
0000
0001
0010
0000
0100
0010
0100
0000
,
0100
0000
0100
1000
0100
0000
0100
0010
0000
0010
0001
0000
1000
0100
1000
0000
,
0001
0010
0001
1000
0001
0010
0001
1000
0100
1000
0010
1000
0100
1000
0010
1000
,
0100
0010
0001
0010
0100
0010
0001
0010
0100
1000
0001
1000
0100
1000
0001
1000
,
0010
0100
0001
0100
0010
0100
0001
0100
0010
1000
0001
1000
0010
1000
0001
1000
,
0001
0100
0010
0100
0001
0100
0010
0100
0001
0010
0100
1000
0001
0010
0100
1000
,
0001
1000
0100
1000
0001
1000
0100
1000
0001
0010
0001
0100
0001
0010
0001
0100
,
0001
0100
0010
0100
0001
0100
0010
0100
0001
1000
0001
0100
0010
1000
0001
1000
,
0100
0010
0001
0010
0100
0010
0001
0010
0100
1000
0001
1000
0100
1000
0001
1000
,
0010
0100
0010
1000
0010
0100
0010
1000
0001
1000
0010
0100
0010
1000
0001
1000
,
0100
0000
0000
0010
0000
0000
0001
0000
0000
0010
0000
0000
0110
0000
0000
0100
1000
0100
1000
0000
0000
0001
0000
0000
,
1000
0000
0000
0000
0000
0000
0001
0000
0000
0010
0000
0000
0001
0000
0000
0000
0000
0000
0010
0000
0000
0000
0000
0000
0110
0000
0000
0000
0000
0000
0100
0000
1000
0000
0100
0000
1000
0000
0000
0000
0000
0000
0001
0000
0000
0000
0000
0000
,
1000
0000
0000
0100
0000
0000
0010
0000
0000
0001
0000
0000
1001
0000
0000
0001
0010
0001
0010
0000
0000
0001
0000
0000
,
0100
0000
0010
0100
0010
0000
1000
0000
0001
0000
0100
0010
1000
0000
0001
0000
,
1000
0000
0000
0010
0000
0000
0100
0000
0000
0001
0000
0000
0011
0000
0000
0001
0010
0001
0010
0000
0000
0001
0000
0000
,
1000
0000
0000
0000
0000
0000
0010
0000
0000
1000
0000
0000
0100
0000
0000
0000
0000
0000
1000
0000
0000
0000
0000
0000
1100
0000
0000
0000
0000
0000
0100
0000
0010
0000
0100
0000
0010
0000
0000
0000
0000
0000
0001
0000
0000
0000
0000
0000
,
1000
0000
0000
0001
0000
0000
1000
0000
0000
0010
0000
0000
0110
0000
0000
0010
1000
0010
1000
0000
0000
0001
0000
0000
,
1000
0000
0001
0010
0100
0000
1000
0000
0001
0000
0010
0100
1000
0000
0001
0000
,
0010
0000
0000
0100
0000
0000
1000
0000
0000
0100
0000
0000
0110
0000
0000
0010
0001
0010
0001
0000
0000
1000
0000
0000
,
0001
0000
0000
0000
0000
0000
1000
0000
0000
0100
0000
0000
1000
0000
0000
0000
0000
0000
0100
0000
0000
0000
0000
0000
0110
0000
0000
0000
0000
0000
0010
0000
0100
0000
0010
0000
0100
0000
0000
0000
0000
0000
1000
0000
0000
0000
0000
0000
,
0001
0000
0000
0010
0000
0000
0100
0000
0000
1000
0000
0000
1001
0000
0000
1000
0100
1000
0100
0000
0000
1000
0000
0000
,
0010
0000
0100
0010
0100
0000
0001
0000
1000
0000
0010
0100
0001
0000
1000
0000
,
0001
0000
0000
0100
0000
0000
0010
0000
0000
1000
0000
0000
1100
0000
0000
1000
0010
1000
0010
0000
0000
1000
0000
0000
,
0001
0000
0000
0000
0000
0000
0100
0000
0000
0001
0000
0000
0010
0000
0000
0000
0000
0000
0001
0000
0000
0000
0000
0000
0011
0000
0000
0000
0000
0000
0010
0000
0100
0000
0010
0000
0100
0000
0000
0000
0000
0000
1000
0000
0000
0000
0000
0000
,
0001
0000
0000
1000
0000
0000
0001
0000
0000
0100
0000
0000
0110
0000
0000
0100
0001
0100
0001
0000
0000
1000
0000
0000
,
0001
0000
1000
0100
0010
0000
0001
0000
1000
0000
0100
0010
0001
0000
1000
0000
,
1001
0000
1000
0100
1000
0000
1000
0010
0000
0010
0100
0000
0100
0001
0100
0000
0100
0000
0001
0010
0001
0000
1000
0002
0000
0000
0000
0000
0000
0000
0000
0000
,
1003
0000
0001
0000
0010
0100
1000
0001
,
0100
1001
0010
1001
,
0100
0000
1000
0000
0001
0100
0010
1000
,
0001
0101
0100
0110
,
0010
0000
1000
0000
0100
1000
0010
0100
,
0001
1001
0010
1001
,
0100
0000
1000
0000
0001
0010
0001
1000
,
0100
0000
0100
1000
0000
1000
0010
0100
,
0001
0000
0010
0000
0100
1000
0010
0100
,
0001
1001
0010
0101
,
0001
0000
1000
0000
0100
1000
0001
0100
,
0001
0101
0001
0011
,
0001
0000
0100
0000
0010
1000
0100
1000
,
0010
1010
0010
0110
,
0100
0000
0001
0000
1000
0100
1000
0001
,
0100
0000
0100
0001
0000
0001
0010
0100
,
1000
0000
0010
0000
1000
0100
0010
0001
,
1000
0110
0001
0011
,
0001
0000
1000
0000
0100
0010
0001
0010
,
0100
1100
1000
1010
,
0010
0000
1000
0000
0001
1000
0010
0100
,
0001
0101
0001
0011
,
0001
0000
1000
0000
0100
1000
0010
0100
,
0001
0000
0001
1000
0000
1000
0100
0010
,
0001
0000
0010
0000
0100
1000
0010
0100
,
0001
0110
1000
1010
,
1000
0000
0100
0000
0010
0001
0010
0100
,
1000
0110
0100
0101
,
0001
0000
1000
0000
0100
1000
0001
0100
,
0001
1001
1000
1010
,
1000
0100
1000
0100
1000
0000
0010
0000
,
0100
0001
0100
0001
0100
0000
0001
0000
,
1001
0000
0011
0000
0010
0100
0010
0100
,
1000
1100
0011
1001
,
0202
0000
0000
0303
;

//---------------dance-single - DDRDAIKENKAI----------------
#NOTES:
     dance-single:
     DDRDAIKENKAI:
     Medium:
     7:
     0.542,0.978,0.176,0.201,0.050:
0000
0000
0000
0000
,
0000
0000
0000
0000
,
0000
0000
0000
0000
,
0000
0000
0000
0000
,
0000
0000
0000
0000
,
0000
0000
0000
0000
,
0000
0000
0000
0000
,
0000
0000
0000
0000
,
1000
0000
0001
0000
1000
0100
1000
0000
,
0001
0000
0010
0000
0001
0100
0001
0000
,
1000
0000
0010
0000
0100
0010
0100
0000
,
0001
1000
0001
0000
1000
0001
1000
0000
,
0001
0000
0100
0000
0010
1000
0010
0000
,
1000
0000
0100
0000
0010
0001
0010
0000
,
0100
0000
1000
0000
0001
0100
0001
0000
,
1000
0000
0010
0000
1000
0100
1000
0000
,
1000
0000
0100
0000
1000
0000
0000
1000
0000
0000
1000
0000
0100
0000
0010
0000
0001
0000
0010
0000
0001
0000
0000
0002
0000
0000
0000
0000
0000
0000
0000
0000
,
1003
0100
1000
0000
,
0001
0010
0001
0000
,
1000
0010
1000
0000
,
0001
0100
0001
0000
,
1000
0100
1000
0000
,
0010
0100
0010
0000
,
1000
0001
1000
0000
,
0001
0010
0100
1000
,
0001
0100
0010
0000
,
0100
0001
0010
0000
,
0100
1000
0001
0000
,
0100
0001
1000
0000
,
0010
1000
0100
0000
,
0010
0100
1000
0000
,
0100
0010
0001
0000
,
0100
0001
0010
0100
,
1000
0001
0100
0000
,
0010
1000
0100
0000
,
1000
0001
0100
0000
,
0010
1000
0100
0000
,
0010
0100
1000
0000
,
0100
0010
0001
0000
,
1000
0001
1000
0000
,
0010
0100
0001
1000
,
0001
0100
0010
0000
,
1000
0100
1000
0000
,
0001
0010
0001
0000
,
1000
0100
1000
0000
,
0010
0100
0010
0000
,
1000
0001
1000
0000
,
0001
0100
0001
0000
,
1000
0100
0010
0001
,
0020
0001
0001
0100
,
0001
0100
0001
0001
,
0230
0010
0010
0001
,
1000
0001
0010
0301
,
2000
0001
0010
0100
,
0010
0001
0010
3100
,
0002
0010
0010
0100
,
0100
1000
1000
0100
,
0103
0001
0101
0001
,
1000
0100
1100
0100
,
1000
0010
1010
0010
,
0101
1100
1001
0001
,
1000
0001
0101
0001
,
1000
0100
1100
0100
,
1000
0010
0110
0010
,
1010
0110
1001
0001
,
2000
0010
0001
3100
,
0002
1000
0010
1003
,
0200
0001
0010
0301
,
0020
1000
0100
1030
,
0200
0010
0001
0310
,
2000
0010
0001
3010
,
0002
0010
1000
0103
,
2000
0001
0010
3100
,
0001
0010
0001
0000
0021
0000
0031
0000
,
1000
0100
1000
0000
2100
0000
3100
0000
,
1000
0001
1000
0000
2001
0000
3001
0000
,
0100
0010
0100
0000
0210
0000
0310
0000
,
1000
0001
1000
0000
2100
0000
3001
0000
,
1000
0001
1000
0000
0201
0000
0301
0000
,
1000
0001
1000
0000
1020
0000
1030
0000
,
0001
1000
0001
0000
0012
0000
1003
0000
,
0001
0000
0100
0000
0001
0000
0000
0001
0000
0000
0001
0000
0010
0000
0100
0000
1000
0000
0100
0000
1000
0000
0000
2000
0000
0000
0000
0000
0000
0000
0000
0000
,
3001
1000
0001
0000
,
0100
0010
1000
0000
,
0001
1000
0100
0000
,
1000
0001
0010
0000
,
0001
0010
0100
0000
,
1000
0100
0010
0000
,
0001
1000
0100
0000
,
1000
0001
0100
0001
,
1000
0100
1000
0000
,
0001
0010
0001
0000
,
1000
0010
1000
0000
,
0010
0100
0010
0000
,
1000
0001
1000
0000
,
0100
1000
0100
0000
,
0010
0001
0010
0000
,
0100
1000
0001
0100
,
0010
1000
0100
0000
,
0010
0100
1000
0000
,
0100
0010
0001
0000
,
0100
0001
0010
0000
,
0100
0010
0001
0000
,
1000
0010
1000
0000
,
0001
0100
0001
0000
,
1000
0001
1000
0001
,
0100
0010
1000
0000
,
0010
0100
0010
0000
,
1000
0100
1000
0000
,
0001
0010
0001
0000
,
1000
0001
1000
0000
,
0010
0100
0010
0000
,
1000
0001
1000
0000
,
0001
0010
0001
1000
,
0010
1000
0001
1000
,
0010
0100
0001
1000
,
2002
0000
0000
3003
;

//---------------dance-single - DDRDAIKENKAI----------------
#NOTES:
     dance-single:
     DDRDAIKENKAI:
     Easy:
     5:
     0.376,0.538,0.251,0.369,0.000:
0000
0000
0000
0000
,
0000
0000
0000
0000
,
0000
0000
0000
0000
,
0000
0000
0000
0000
,
0000
0000
0000
0000
,
0000
0000
0000
0000
,
0000
0000
0000
0000
,
0000
0000
0000
0000
,
1000
0000
0001
0001
,
0100
0000
0010
0010
,
0100
0000
0001
0001
,
0100
0000
0001
0010
,
1000
0000
1000
1000
,
0100
0000
1000
1000
,
0010
0000
1000
1000
,
0001
0000
1000
0001
,
2002
0000
0000
3003
,
1000
0000
1000
0000
,
0001
0000
0001
0000
,
1000
0000
1000
0000
,
0001
0000
0001
0000
,
0100
0000
0100
0000
,
0010
0000
0010
0000
,
0100
0000
0100
0000
,
0010
0000
0010
0000
,
1000
0000
0100
0000
,
1000
0000
0100
0000
,
0010
0000
0001
0000
,
0010
0000
0001
0000
,
0100
0000
0001
0000
,
0100
0000
0001
0000
,
1000
0000
0010
0000
,
1000
0000
0010
0000
,
1000
0000
0001
0000
,
0100
0000
0001
0000
,
1000
0000
0001
0000
,
0010
0000
0001
0000
,
1000
0000
0100
0000
,
1000
0000
0001
0000
,
1000
0000
0010
0000
,
1000
0000
0001
0000
,
1000
0000
0100
0000
,
1000
0000
0100
0000
,
0010
0000
0001
0000
,
0010
0000
0001
0000
,
1000
0000
0010
0000
,
1000
0000
0010
0000
,
0100
0000
0001
0000
,
0100
0000
0001
0000
,
2000
0000
0001
0000
,
0001
0000
0001
3000
,
0200
0000
0010
0000
,
0010
0000
0010
0300
,
0002
0000
1000
0000
,
1000
0000
1000
0003
,
0200
0000
0001
0000
,
0010
0000
0001
0300
,
0010
0000
0110
0000
,
1000
0000
0011
0000
,
0100
0000
1001
0000
,
0010
0110
1010
0000
,
0100
0000
0101
0000
,
0001
0000
0011
0000
,
1000
0000
1100
0000
,
1000
0110
0101
0000
,
1000
0100
1100
0000
,
0001
0100
0101
0000
,
0001
0010
0011
0000
,
1000
0010
1010
0000
,
0100
0100
1001
0000
,
0010
0010
0101
0000
,
1000
1000
0011
0000
,
0100
0100
1010
0000
,
2000
3100
1100
0000
,
0002
0013
0011
0000
,
0002
0103
0101
0000
,
2000
3010
1010
0000
,
0020
0130
0110
0000
,
0200
0301
0101
0000
,
0002
1003
1001
0000
,
2000
3001
1001
0000
,
2002
0000
0000
3003
,
1000
0000
0100
0000
,
2000
3000
0200
0300
,
1000
0000
0010
0000
,
0002
0003
0200
0300
,
0001
0000
0010
0000
,
0002
0003
0200
0300
,
0001
0000
0010
0000
,
0100
0000
1000
0000
,
0010
0000
1000
0000
,
0020
0030
0200
0300
,
0001
0000
1000
0000
,
0020
0030
2000
3000
,
0100
0000
1000
0000
,
0020
0030
0200
0300
,
0001
0000
0010
0000
,
0100
0000
0010
0000
,
0001
0000
1000
0000
,
0020
0030
0200
0300
,
0001
0000
1000
0000
,
0020
0030
0200
0300
,
0010
0000
1000
0000
,
0020
0030
0200
0300
,
0001
0000
0010
0000
,
0100
0000
0010
0000
,
0001
0000
1000
0000
,
0020
0030
0200
0300
,
0001
0000
1000
0000
,
0020
0030
2000
3000
,
0010
0000
0100
0000
,
0020
0030
0200
0300
,
0001
0000
0010
0000
,
0100
0000
1000
0000
,
2002
0000
3003
0000
,
0010
0000
1000
0000
,
2002
0000
0000
3003
;

//---------------dance-single - DDRDAIKENKAI----------------
#NOTES:
     dance-single:
     DDRDAIKENKAI:
     Beginner:
     3:
     0.209,0.489,0.050,0.151,0.000:
0000
0000
0000
0000
,
0000
0000
0000
0000
,
0000
0000
0000
0000
,
0000
0000
0000
0000
,
0000
0000
0000
0000
,
0000
0000
0000
0000
,
0000
0000
0000
0000
,
0000
0000
0000
0000
,
1000
0000
0000
0000
,
0100
0000
0000
0000
,
1000
0000
0000
0000
,
0010
0000
0000
0000
,
1000
0000
0000
0000
,
0001
0000
0000
0000
,
1000
0000
0000
0000
,
0100
0000
0000
0000
,
2002
0000
0000
3003
,
0000
0000
1000
0000
,
0000
0000
1000
0000
,
0000
0000
0100
0000
,
0000
0000
0100
0000
,
0000
0000
0010
0000
,
0000
0000
0010
0000
,
0000
0000
0001
0000
,
0000
0000
0010
0000
,
0000
0000
0001
0000
,
0000
0000
0001
0000
,
0000
0000
1000
0000
,
0000
0000
1000
0000
,
0000
0000
0001
0000
,
0000
0000
0001
0000
,
0000
0000
1000
0000
,
0000
0000
1000
0000
,
0000
0000
0010
0000
,
0000
0000
0010
0000
,
0000
0000
1000
0000
,
0000
0000
1000
0000
,
0000
0000
0100
0000
,
0000
0000
0100
0000
,
0000
0000
1000
0000
,
0000
0000
1000
0000
,
0000
0000
0001
0000
,
0000
0000
0001
0000
,
0000
0000
0010
0000
,
0000
0000
0010
0000
,
0000
0000
0001
0000
,
0000
0000
0001
0000
,
0000
0000
0100
0000
,
0000
0000
0100
0000
,
0200
0000
0300
0000
,
0002
0000
0003
0000
,
2000
0000
3000
0000
,
0200
0000
0300
0000
,
0020
0000
0030
0000
,
0002
0000
0003
0000
,
0020
0000
0030
0000
,
0200
0000
0300
0000
,
1000
0000
1000
0000
,
0001
0000
0001
0000
,
1000
0000
1000
0000
,
0001
0001
0001
0000
,
0100
0000
0100
0000
,
0010
0000
0010
0000
,
0100
0000
0100
0000
,
0010
0010
0010
0000
,
1000
1000
1000
0000
,
0100
0100
0100
0000
,
1000
1000
1000
0000
,
0010
0010
0010
0000
,
0100
0100
0100
0000
,
0001
0001
0001
0000
,
0010
0010
0010
0000
,
0001
0001
0001
0000
,
0100
0100
0100
0000
,
0001
0001
0001
0000
,
1000
1000
1000
0000
,
0010
0010
0010
0000
,
1000
1000
1000
0000
,
0100
0100
0100
0000
,
0010
0010
0010
0000
,
0001
0001
0001
0000
,
0220
0000
0000
0330
,
1000
0000
0000
0000
,
1000
0000
0000
0000
,
0100
0000
0000
0000
,
0100
0000
0000
0000
,
1000
0000
0000
0000
,
1000
0000
0000
0000
,
0010
0000
0000
0000
,
0010
0000
0000
0000
,
0100
0000
0000
0000
,
0100
0000
0000
0000
,
0001
0000
0000
0000
,
0001
0000
0000
0000
,
1000
0000
0000
0000
,
1000
0000
0000
0000
,
0100
0000
0000
0000
,
0100
0000
0000
0000
,
1001
0000
0000
0000
,
0001
0000
0000
0000
,
1000
0000
0000
0000
,
1000
0000
0000
0000
,
0100
0000
0000
0000
,
0100
0000
0000
0000
,
1000
0000
0000
0000
,
1000
0000
0000
0000
,
0010
0000
0000
0000
,
0010
0000
0000
0000
,
0100
0000
0000
0000
,
0100
0000
0000
0000
,
0001
0000
0000
0000
,
0001
0000
0000
0000
,
1000
0000
0000
0000
,
1000
0000
0000
0000
,
2002
3003
0000
0000
,
0220
0330
0000
0000
,
2002
0000
0000
3003
;
