#TITLE:Motteke! Sailor Fuku;
#SUBTITLE:(SPEED TRANCE MIX);
#ARTIST:KNEE SOCKS;
#TITLETRANSLIT:;
#SUBTITLETRANSLIT:;
#ARTISTTRANSLIT:;
#GENRE:;
#CREDIT:;
#BANNER:MSF(SPEED TRANCE MIX).png;
#BACKGROUND:MSF(SPEED TRANCE MIX)-bg.png;
#LYRICSPATH:;
#CDTITLE:CDTitle.png;
#MUSIC:Motteke! Sailor Fuku (SPEED TRANCE MIX).ogg;
#OFFSET:0.000;
#SAMPLESTART:92.200;
#SAMPLELENGTH:12.000;
#SELECTABLE:YES;
#DISPLAYBPM:177.000;
#BPMS:0.000=177.000,94.000=354.000,95.000=177.000,224.000=88.500,228.000=177.000;
#STOPS:94.000=0.042
,94.250=0.042
,94.500=0.042
,94.750=0.042
;
#TIMESIGNATURES:0.000=4=4
;
#BGCHANGES:;
#KEYSOUNDS:;
#ATTACKS:;

//---------------dance-single - DDRDAIKENKAI----------------
#NOTES:
     dance-single:
     DDRDAIKENKAI:
     Hard:
     9:
     0.746,1.000,0.168,0.696,0.159,520.000,20.000,83.000,17.000,0.000,2.000,-1.000,-1.000,0.746,1.000,0.168,0.696,0.159,520.000,20.000,83.000,17.000,0.000,2.000,-1.000,-1.000: // measure 1
0000
0000
0000
0000
,  // measure 2
0000
0000
0000
0000
,  // measure 3
0000
0000
0000
0000
,  // measure 4
0000
0000
0000
0000
,  // measure 5
0001
0000
1000
0000
0001
0100
0000
0100
,  // measure 6
0001
0000
0000
0001
1000
0000
0100
0000
0000
0000
1100
0000
0000
0000
0100
0000
,  // measure 7
0020
0000
0000
0000
0032
0000
0000
1003
0100
0000
0000
1000
0000
0000
0001
0000
,  // measure 8
0100
0000
0000
0010
1000
0000
0001
0000
0000
0000
1001
0000
0000
0000
0001
0000
,  // measure 9
1000
0100
0000
1000
0001
0100
0000
0010
,  // measure 10
0100
0000
0020
0000
0000
0000
1030
0000
0100
0000
0000
0010
0001
0000
1000
0000
,  // measure 11
0100
0000
1000
0001
0100
0000
0001
0010
,  // measure 12
0001
0100
0010
1000
0100
0010
0002
0000
,  // measure 13
0000
0003
1000
0000
0001
0100
0000
0001
0100
0000
0010
0000
1000
0100
0000
0000
,  // measure 14
0000
0000
1000
0000
0001
0010
0000
0001
0010
0000
0100
0000
1000
0000
0001
0000
,  // measure 15
0100
0010
0100
0001
0010
0001
0100
0010
,  // measure 16
1000
1000
0001
0001
0100
0100
0010
0010
,  // measure 17
1000
0100
1000
0100
0010
0100
1000
0100
,  // measure 18
0010
0100
1000
0100
0010
0100
1000
0001
,  // measure 19
1000
0010
0100
0010
1000
0010
0100
0010
,  // measure 20
1000
0000
0100
0000
0010
0000
0001
0000
0100
0001
0200
0000
0000
0000
0001
0000
,  // measure 21
0301
0010
0100
1000
0001
0100
0010
1000
,  // measure 22
0100
0010
0001
1000
0010
0100
0001
00M0
,  // measure 23
0001
1000
0001
1000
0010
0100
0010
0100
,  // measure 24
0001
0000
0010
0000
0100
0000
1000
0000
0001
0100
0001
0100
0002
0000
M000
0000
,  // measure 25
1003
0100
0010
0001
1000
0001
0010
0001
,  // measure 26
1000
0000
0010
0000
1000
0000
0001
0000
0100
0000
0000
0001
0100
0000
0000
0000
,  // measure 27
0100
0001
0010
0100
1000
0010
1000
0100
,  // measure 28
0010
0000
0001
0000
0100
0000
0010
0000
1000
0100
1000
0100
2000
0000
0000
0000
,  // measure 29
3001
0000
0010
0000
0200
0000
0000
0000
1300
0000
0000
0001
0000
0000
0100
0000
,  // measure 30
0000
0000
0010
0000
0100
0000
0000
0000
0002
0000
0000
1003
0000
0000
0100
0000
,  // measure 31
0000
0000
0010
0000
0200
0000
0000
0000
1300
0000
0000
0001
0000
0000
0100
0000
,  // measure 32
0000
0000
0001
0000
0010
0000
0000
0000
0001
0000
0000
0100
0000
0000
0010
0000
,  // measure 33
0000
0000
0220
0000
0330
0000
0000
0000
0020
0000
0000
2030
0000
0000
3100
0000
,  // measure 34
0000
0000
1000
0000
0002
0000
0000
0000
1003
0000
0000
0002
0000
0000
0103
0000
,  // measure 35
0010
0100
0010
0100
0001
0100
0001
0100
,  // measure 36
0010
0000
1000
0000
0100
0000
0010
0000
0001
0100
0000
0002
0000
0000
0003
0000
,  // measure 37
1000
0200
0000
0310
0002
0000
1003
0002
,  // measure 38
0000
0103
0010
1000
0200
0000
0310
0200
,  // measure 39
0000
1300
0010
1000
0001
0010
0001
2000
,  // measure 40
0000
3200
0000
0300
0000
0020
0000
0032
,  // measure 41
0000
0000
1003
0200
0000
0000
0310
0002
,  // measure 42
0000
2003
0000
3002
0000
0000
0203
0000
,  // measure 43
0320
2030
3002
2003
,  // measure 44
3001
0000
0010
0000
0004
0400
0000
0000
0000
0000
0000
0000
0303
0000
0000
0000
,  // measure 45
0011
0010
0100
1000
0001
0100
0010
1000
,  // measure 46
0100
0010
0001
1000
0010
0100
0001
0010
,  // measure 47
0001
0100
0010
1000
0100
0010
0001
2000
,  // measure 48
0000
3200
0000
0310
0000
0010
0100
1000
,  // measure 49
0020
0000
0130
0001
0200
0000
0301
1000
,  // measure 50
0100
1000
0002
0000
0013
0001
0200
0000
,  // measure 51
0320
0000
1030
0100
2000
0000
3001
0010
,  // measure 52
0002
0000
1003
0010
1000
0001
0100
0001
,  // measure 53
0201
0000
0302
0000
0013
0100
0000
1000
,  // measure 54
0001
0000
0000
0100
0010
0000
1000
0000
0000
0000
1010
0000
0000
0000
0010
0000
,  // measure 55
0100
0001
M0M0
0100
0010
1000
0M0M
0010
,  // measure 56
1000
0001
0010
0001
0200
0000
0000
0000
,  // measure 57
0301
0010
0001
0010
0001
0010
0001
0010
0001
0010
0001
0010
0001
0010
0002
0010
,  // measure 58
MM03
0101
0202
M3M3
1001
2002
3MM3
1100
,  // measure 59
2200
33MM
0110
0110
0M11
0000
1MM1
0000
,  // measure 60
1100
0100
0010
0100
1000
0010
0001
0010
,  // measure 61
1000
0000
0100
0000
0010
0000
0001
0000
0100
0000
0000
0001
0100
0000
0000
0000
,  // measure 62
0100
0001
0010
0100
1000
0001
0010
0001
,  // measure 63
1000
0000
0010
0000
1000
0000
0001
0000
1000
0100
1000
0100
1000
0000
0000
0000
,  // measure 64
1000
0010
0100
0001
0010
0100
1000
0100
,  // measure 65
0010
0000
0001
0000
0100
0000
0010
0000
1000
0000
0000
0010
1000
0000
0000
0000
,  // measure 66
1000
1000
0001
0001
0100
0100
0010
0010
,  // measure 67
1000
0001
0100
0010
1010
0000
0101
0000
,  // measure 68
1001
0001
1000
0100
0020
0000
0031
0010
,  // measure 69
0100
1000
0001
0100
0010
1000
0100
0020
,  // measure 70
0000
0130
1000
0010
0001
0010
1000
0002
,  // measure 71
0000
0203
0000
0301
0000
0001
0010
0100
,  // measure 72
2000
0000
3001
0100
0002
0000
1003
0020
,  // measure 73
0000
2030
0000
3002
0000
0000
0203
0000
,  // measure 74
0320
0000
1030
0100
2000
0000
3001
0010
,  // measure 75
0002
2003
3200
0320
,  // measure 76
0031
0010
0100
1000
0002
0000
1003
0010
,  // measure 77
0100
0001
1000
0001
0200
0000
0310
2000
,  // measure 78
0000
3010
0100
0001
0020
0000
0031
0200
,  // measure 79
0000
0320
0000
1000
0030
1000
0010
1000
,  // measure 80
0200
0000
0310
0001
0200
0000
0301
0010
,  // measure 81
0100
1000
0002
0000
0103
0001
2000
0000
,  // measure 82
3200
0000
0310
0001
0200
0000
0310
1000
,  // measure 83
0100
0010
0100
1000
0010
0100
0001
0010
,  // measure 84
0002
0000
0000
0000
,  // measure 85
0000
0000
0000
0000
,  // measure 86
0003
0000
0000
0000
;

//---------------dance-single - DDRDAIKENKAI----------------
#NOTES:
     dance-single:
     DDRDAIKENKAI:
     Medium:
     6:
     0.516,0.713,0.151,0.570,0.000,345.000,18.000,68.000,0.000,0.000,0.000,-1.000,-1.000,0.516,0.713,0.151,0.570,0.000,345.000,18.000,68.000,0.000,0.000,0.000,-1.000,-1.000: // measure 1
0000
0000
0000
0000
,  // measure 2
0000
0000
0000
0000
,  // measure 3
0000
0000
0000
0000
,  // measure 4
0000
0000
0000
0000
,  // measure 5
1000
0000
0001
0000
1000
0100
0000
1000
,  // measure 6
0100
0000
0010
0001
0000
0011
0000
0001
,  // measure 7
0100
0000
0001
0000
1000
0000
0001
0100
,  // measure 8
0010
0000
1000
0001
0000
1001
0000
1000
,  // measure 9
0100
1000
0000
0001
0010
0001
0000
1000
,  // measure 10
0010
1000
0000
0001
0100
0000
0001
0010
,  // measure 11
0002
0000
0003
0001
2000
0000
3000
0001
,  // measure 12
0100
0100
0010
2000
,  // measure 13
3000
0001
1000
0000
0001
0000
0200
0000
,  // measure 14
0300
0010
0100
0000
0001
0000
0100
0000
,  // measure 15
0001
0100
0001
0000
1000
0010
1000
0000
,  // measure 16
0001
1000
0001
1000
,  // measure 17
0001
0001
1000
1000
,  // measure 18
0001
0001
1000
1000
,  // measure 19
0001
0100
0001
0100
,  // measure 20
0010
0000
1000
0000
0100
1000
0000
1000
,  // measure 21
0100
0010
0001
0010
,  // measure 22
0001
0100
0010
1000
,  // measure 23
0010
0010
1000
1000
,  // measure 24
0001
0000
1000
0000
0001
0100
0002
0000
,  // measure 25
0013
0010
0100
1000
,  // measure 26
0001
0100
0110
0110
,  // measure 27
0010
1000
0001
1000
,  // measure 28
0010
0100
0001
0002
,  // measure 29
0003
0001
1000
0000
0001
0000
0100
0000
,  // measure 30
0000
0100
0001
0000
1000
0000
0100
0000
,  // measure 31
0000
0100
1000
0000
0010
0000
1000
0000
,  // measure 32
0000
1000
0001
0000
0100
0000
0001
0000
,  // measure 33
0000
2002
3003
0000
0001
0000
0001
0000
,  // measure 34
1000
1000
0001
0100
,  // measure 35
0010
0010
1000
1000
,  // measure 36
0001
1000
2200
3300
,  // measure 37
0000
1000
0000
0001
0100
0000
0010
1000
,  // measure 38
0000
0001
0010
0001
0010
0000
0001
0100
,  // measure 39
0000
0010
0100
0000
0010
1000
0100
0020
,  // measure 40
0000
0032
0000
0003
0000
0001
0000
0020
,  // measure 41
0000
0000
0031
0200
0000
0300
0001
2000
,  // measure 42
0000
3001
0000
0200
0000
0000
0310
0000
,  // measure 43
2000
3200
0320
0032
,  // measure 44
2000
0000
0000
3003
,  // measure 45
0001
0001
1000
0001
,  // measure 46
0100
0000
0010
0000
1000
0000
0100
1000
,  // measure 47
0100
0000
0010
0000
0001
0000
1000
0001
,  // measure 48
0000
0100
0000
0010
0000
0100
0010
0200
,  // measure 49
0000
0300
0010
2000
0000
3000
0100
0020
,  // measure 50
0000
0032
0000
2003
0000
3000
0200
0000
,  // measure 51
0320
0000
0031
0020
0000
0000
0001
0000
,  // measure 52
0001
0100
0100
0030
,  // measure 53
0001
0000
0100
0000
0001
1000
0000
0100
,  // measure 54
1000
0000
0100
0010
0000
0110
0000
0010
,  // measure 55
0001
0100
0000
0010
1000
0100
0000
1000
,  // measure 56
0002
2003
3200
0300
,  // measure 57
0010
0010
0010
0010
0010
0010
0010
0010
,  // measure 58
2002
0000
3003
2200
0000
3300
0202
0000
,  // measure 59
0303
0220
0000
0330
1001
0000
1001
0000
,  // measure 60
1100
1000
0100
0010
,  // measure 61
0001
1000
1001
1001
,  // measure 62
0001
1000
0010
1000
,  // measure 63
0001
0100
0010
0020
,  // measure 64
1030
1000
0100
0010
,  // measure 65
0001
1000
1100
0101
,  // measure 66
0010
0010
1000
1000
,  // measure 67
0001
1000
0001
1000
0001
0000
1000
0000
,  // measure 68
0000
0001
0000
0100
0010
0000
1000
0001
,  // measure 69
0000
1000
0100
1000
0100
0000
0010
0100
,  // measure 70
0000
0010
0001
0000
1000
0001
1000
0010
,  // measure 71
0000
0200
0000
0301
0000
0001
0000
0020
,  // measure 72
0000
0030
0001
0200
0000
0000
0310
2000
,  // measure 73
0000
3100
0000
0020
0000
0000
0032
0000
,  // measure 74
2003
3002
0203
0320
,  // measure 75
2030
3020
0230
0301
,  // measure 76
0000
1000
0100
1000
0100
0000
1000
0001
,  // measure 77
0000
0100
0001
0100
0001
0000
0010
0001
,  // measure 78
0000
1000
0010
1000
0010
0000
0100
0001
,  // measure 79
0000
2000
0000
3000
0000
0001
0010
0002
,  // measure 80
0000
0003
1000
0020
0000
0000
1030
2000
,  // measure 81
0000
3002
0000
0203
0000
0000
0301
0000
,  // measure 82
0020
0000
0230
0000
2300
0000
3001
0100
,  // measure 83
0002
2003
3200
0320
,  // measure 84
0032
0000
0000
0000
,  // measure 85
0000
0000
0000
0000
,  // measure 86
0003
0000
0000
0000
;

//---------------dance-single - DDRDAIKENKAI----------------
#NOTES:
     dance-single:
     DDRDAIKENKAI:
     Easy:
     5:
     0.408,0.499,0.151,0.386,0.000,277.000,18.000,46.000,0.000,0.000,0.000,-1.000,-1.000,0.408,0.499,0.151,0.386,0.000,277.000,18.000,46.000,0.000,0.000,0.000,-1.000,-1.000: // measure 1
0000
0000
0000
0000
,  // measure 2
0000
0000
0000
0000
,  // measure 3
0000
0000
0000
0000
,  // measure 4
0000
0000
0000
0000
,  // measure 5
1000
1000
0001
1000
,  // measure 6
0001
0001
1000
0001
,  // measure 7
0100
0100
0010
0100
,  // measure 8
0010
0010
0100
0010
,  // measure 9
2000
3000
0020
0030
,  // measure 10
0200
0000
0300
0000
0002
0000
0000
0003
,  // measure 11
2000
0000
0000
3000
0200
0000
0000
0300
,  // measure 12
0010
0001
0010
0002
,  // measure 13
0003
1000
0001
0100
,  // measure 14
0000
0001
1000
0100
,  // measure 15
1000
1000
0001
0001
,  // measure 16
1000
0001
1000
2001
,  // measure 17
3001
0001
0001
0001
,  // measure 18
0001
0001
0001
0001
,  // measure 19
0010
0000
0010
0000
,  // measure 20
0010
0000
0000
0000
2000
3000
0000
0000
,  // measure 21
1000
0001
0001
1000
,  // measure 22
1000
0001
0001
1000
,  // measure 23
1000
0001
1000
0001
,  // measure 24
1000
0001
2002
3003
,  // measure 25
1001
1000
1000
0001
,  // measure 26
1000
0001
0100
0100
,  // measure 27
0100
0001
0001
1000
,  // measure 28
0001
1000
0100
0200
,  // measure 29
0300
1000
0001
1000
,  // measure 30
0000
0010
0100
0010
,  // measure 31
0000
1000
0001
0100
,  // measure 32
0000
0001
1000
0100
,  // measure 33
0000
1100
0000
0000
0100
0000
0010
0000
,  // measure 34
0000
0010
0001
0010
,  // measure 35
0001
0001
1000
1000
,  // measure 36
0001
1000
0001
1001
,  // measure 37
0000
0001
0001
0100
,  // measure 38
0001
0001
1000
0001
,  // measure 39
1000
1000
0010
1000
,  // measure 40
1000
0100
0000
0010
,  // measure 41
0002
0003
2000
3000
,  // measure 42
0020
0030
0200
0300
,  // measure 43
0001
0001
1000
1000
,  // measure 44
2002
0000
0000
3003
,  // measure 45
0001
1000
0001
0100
,  // measure 46
0001
1000
0001
0100
,  // measure 47
0010
1000
0010
0100
,  // measure 48
0010
1000
0100
0010
,  // measure 49
0002
1003
2000
3010
,  // measure 50
0020
0130
0200
0301
,  // measure 51
0001
1000
0001
1000
,  // measure 52
0010
0100
0010
0000
,  // measure 53
1000
1000
0001
0001
,  // measure 54
1000
0000
0001
0000
2002
3003
0000
0000
,  // measure 55
0220
0330
2002
3003
,  // measure 56
0020
2030
3200
0000
,  // measure 57
0000
0000
0300
0000
,  // measure 58
1000
0000
0000
0001
0000
0000
1000
0000
,  // measure 59
0000
0001
0000
0000
1001
0000
1001
0000
,  // measure 60
1001
0001
1000
0001
,  // measure 61
0100
0010
0100
0100
,  // measure 62
0010
0010
1000
0100
,  // measure 63
0010
0100
1000
1000
,  // measure 64
0001
0010
0001
1000
,  // measure 65
0001
0010
0100
0100
,  // measure 66
1000
0001
1000
0001
,  // measure 67
0100
0100
0110
0110
,  // measure 68
0010
1000
1000
0100
,  // measure 69
0100
0010
0001
0001
,  // measure 70
1000
0001
0100
0010
,  // measure 71
1000
1000
0100
0010
,  // measure 72
0002
1003
2000
3001
,  // measure 73
0002
0103
0200
0310
,  // measure 74
0010
1000
0010
0100
,  // measure 75
0001
1000
0001
1000
,  // measure 76
1002
1003
0001
1000
,  // measure 77
0010
0100
0001
1000
,  // measure 78
0010
0100
0001
0001
,  // measure 79
0100
0020
0030
1000
,  // measure 80
0002
1003
2000
3100
,  // measure 81
0200
0310
0020
0031
,  // measure 82
0011
1000
1010
1000
,  // measure 83
1002
0203
0320
2030
,  // measure 84
3002
0000
0000
0000
,  // measure 85
0000
0000
0000
0000
,  // measure 86
0003
0000
0000
0000
;

//---------------dance-single - DDRDAIKENKAI----------------
#NOTES:
     dance-single:
     DDRDAIKENKAI:
     Challenge:
     12:
     0.988,1.000,0.537,0.604,0.683,689.000,64.000,72.000,0.000,0.000,0.000,-1.000,-1.000,0.988,1.000,0.537,0.604,0.683,689.000,64.000,72.000,0.000,0.000,0.000,-1.000,-1.000: // measure 1
0000
0000
0000
0000
,  // measure 2
0000
0000
0000
0000
0000
0000
0000
0100
,  // measure 3
0001
0000
0000
0100
0001
0000
0000
0001
,  // measure 4
1000
0100
1000
0100
0010
0100
0010
0100
0010
0001
0010
0001
1000
0001
1000
0001
,  // measure 5
2000
0000
3001
0000
0100
0010
0000
1000
,  // measure 6
0010
0100
0000
0100
0001
0010
0001
0000
0000
0000
0011
0000
0000
0000
0001
0000
,  // measure 7
0020
0000
0000
0000
0130
0000
0000
1000
0001
0000
0000
0101
0000
0000
0001
0000
,  // measure 8
1000
0100
0000
1000
0001
1000
0001
0000
0000
0000
0101
0000
0000
0000
0010
0000
,  // measure 9
1000
0100
0000
0010
0001
0100
0000
0001
,  // measure 10
1000
0000
0100
0000
0000
0000
1000
0000
0010
1000
0000
1000
0100
0000
0010
0000
,  // measure 11
0011
0000
0001
0100
0110
0000
0010
1000
,  // measure 12
0001
0010
0001
0010
0001
0000
1000
0000
0100
0000
0010
0001
0020
0000
0000
0000
,  // measure 13
0031
0000
0100
0000
0010
1000
0000
1000
0100
0000
0010
0000
0001
0100
0000
0000
,  // measure 14
0000
0000
0001
0000
0010
0100
0000
0100
1000
0000
0001
0000
0100
0000
0010
0000
,  // measure 15
1000
0100
1000
0100
1000
0000
0001
0010
0001
0010
0001
0000
1000
0010
1000
0010
,  // measure 16
1000
1000
0001
0001
0100
0010
2000
0001
,  // measure 17
3001
0000
1000
0100
1000
0000
0001
0000
1000
0010
1000
0000
0001
1000
0000
1000
,  // measure 18
0100
0000
0010
0001
0000
0001
1000
0000
0100
1000
0000
0100
0010
0000
0001
0000
,  // measure 19
1000
0000
0010
0000
0100
0000
0001
0000
0010
0001
0010
0000
0100
0000
1000
0000
,  // measure 20
0001
0000
0100
0000
0010
1000
0000
1000
0001
1000
0002
0000
0000
0000
1003
0000
,  // measure 21
0001
0000
0100
0000
0010
0000
0100
0001
0010
0001
1000
0100
1000
0001
0000
0001
,  // measure 22
1000
0001
1000
0100
1000
0010
1000
0010
1000
0000
0100
0000
2200
0000
3300
0000
,  // measure 23
0100
1000
0100
0000
1000
0000
0010
0100
0010
0100
0010
0000
1000
0000
0001
1000
,  // measure 24
0100
1000
0100
0000
0010
0000
0001
0000
1000
0100
1000
0100
1000
0000
1001
0000
,  // measure 25
0101
0000
0001
1000
0001
0100
0001
1000
0010
0100
0010
1000
0100
0010
0001
0010
,  // measure 26
0100
1000
0001
1000
0100
1000
0001
1000
0100
0000
0000
1000
0100
0000
0000
0000
,  // measure 27
1100
0000
1000
0001
0010
0001
0100
0010
1000
0100
1000
0001
0010
0001
1000
0010
,  // measure 28
0100
0001
0100
0001
0010
0001
0010
0000
0001
0100
0010
1000
0200
0000
0000
0000
,  // measure 29
0300
0000
1000
0000
0100
0000
0000
0000
1100
0000
0000
1000
0000
0000
1001
0000
,  // measure 30
0000
0000
0001
0000
0100
0000
0000
0000
0011
0000
0000
0100
0000
0000
1100
0000
,  // measure 31
0000
0000
1000
0000
0001
0000
0000
0000
0101
0000
0000
1000
0000
0000
1100
0000
,  // measure 32
0000
0000
1000
0000
0010
0000
0000
0000
0110
0000
0000
0101
0000
0000
1010
0000
,  // measure 33
0000
0000
2002
0000
0000
0000
3003
0000
1000
0000
0000
0100
0000
0000
1100
0000
,  // measure 34
0000
0000
0100
0000
0010
0000
0000
0000
0011
0000
0000
0101
0000
0000
0010
0000
,  // measure 35
1000
0000
0100
0000
1000
0000
0010
0100
0010
0000
1000
0000
0100
0000
0010
0000
,  // measure 36
0001
0000
1000
0100
1000
0100
1000
0000
0001
0100
0000
0002
0000
0000
0000
0003
,  // measure 37
1000
0002
0000
0103
0020
0000
1030
0200
,  // measure 38
0000
0310
0100
1000
0020
0000
1030
0200
,  // measure 39
0000
0300
0010
0000
0100
0000
1000
0000
0010
0000
0100
0000
0001
0000
0020
0000
,  // measure 40
0000
0230
0000
1300
0000
1000
0100
0010
,  // measure 41
0002
0000
0103
0010
2000
0000
3010
0100
,  // measure 42
0001
1000
0100
0000
1000
0001
0200
0000
,  // measure 43
0302
0000
0000
0003
1000
0000
0100
0000
0020
0000
0000
0000
0031
0000
0000
0000
,  // measure 44
1000
0000
0010
0000
0100
0001
0100
0001
0100
0001
0100
0001
0100
0000
0000
0000
,  // measure 45
0101
0001
0010
0100
2000
0001
3001
2000
,  // measure 46
0010
3010
1000
0100
0002
0100
0103
2000
,  // measure 47
0100
3100
0010
0001
0100
0010
1000
0001
,  // measure 48
0000
0011
0000
0110
0000
0100
1000
2100
,  // measure 49
0100
3100
0010
0002
1000
1003
0001
0200
,  // measure 50
0010
0320
1000
2030
0001
3001
0200
0010
,  // measure 51
0320
1000
1030
0100
1000
0010
0100
0001
,  // measure 52
0010
0001
0100
0010
1000
0100
0000
0000
,  // measure 53
1001
0000
1000
0000
0001
0100
0000
0010
,  // measure 54
1000
0100
0000
1000
0010
1000
0010
1000
0000
0000
1010
0000
0000
0000
0010
0000
,  // measure 55
0100
0001
0101
0100
0010
1000
1010
0010
,  // measure 56
1010
0000
1000
0000
1001
0000
0001
0000
0200
0000
0000
0000
0000
0000
0000
0300
,  // measure 57
0001
0100
0001
0000
1000
0100
1000
0000
0001
0100
0001
0000
1000
0100
1000
0000
0001
0100
0001
0000
1000
0100
1000
0000
0001
0100
0001
0000
1000
0100
1000
0000
,  // measure 58
1001
0101
0101
1001
1100
1100
1001
0011
,  // measure 59
0011
1001
1010
1010
1001
0000
0110
0000
,  // measure 60
1100
0000
0100
0010
0001
0010
0100
1000
0010
0100
0001
0010
0001
0100
0010
1000
,  // measure 61
0100
1000
0010
0100
0001
0010
0100
1000
0100
0000
0000
1000
0100
0000
0000
0000
,  // measure 62
1100
0000
1000
0010
0100
0001
0010
0001
0100
0010
1000
0100
1000
0010
0100
0001
,  // measure 63
0010
0100
1000
0001
0100
0010
1000
0000
0001
0010
0001
0010
0002
0000
0000
0000
,  // measure 64
1003
0000
0100
1000
0001
0100
0001
0010
0001
0100
0010
1000
0100
1000
0010
0100
,  // measure 65
0001
0010
0100
1000
0001
0100
0010
1000
0100
0000
0000
1000
0100
0000
0000
0000
,  // measure 66
1100
1100
1010
1010
1001
1001
0101
0101
,  // measure 67
0011
1001
1010
1001
1100
0000
0101
0000
,  // measure 68
0001
0020
0000
0031
2000
0000
3100
0020
,  // measure 69
0100
0130
1000
0010
2000
0000
3001
0200
,  // measure 70
0000
0301
0010
1000
0010
0001
1000
0002
,  // measure 71
0000
0203
0000
0310
0000
0010
1000
0100
,  // measure 72
2000
0000
3100
0010
0002
0000
0013
0200
,  // measure 73
1000
2300
0001
3002
0000
0100
0103
0000
,  // measure 74
0002
0203
2300
3020
,  // measure 75
0031
0001
0001
0001
,  // measure 76
0011
0010
0001
1000
0200
1000
1300
0020
,  // measure 77
0100
0130
0001
0100
0020
1000
1030
0200
,  // measure 78
0010
0310
0001
1000
0020
1000
1030
0002
,  // measure 79
0100
0203
0010
0320
1000
1030
0010
1020
,  // measure 80
0100
0130
0001
2000
0100
3100
0010
0002
,  // measure 81
1000
2003
0010
3020
0100
0130
0002
1000
,  // measure 82
2003
0001
3002
0100
0203
0010
0320
2030
,  // measure 83
3001
0010
0100
1000
0001
0100
0010
1000
0010
0100
0001
1000
0010
0100
0001
0010
,  // measure 84
0002
0000
0000
0000
,  // measure 85
0000
0000
0000
0000
,  // measure 86
0003
0000
0000
0000
;

//---------------dance-single - DDRDAIKENKAI----------------
#NOTES:
     dance-single:
     DDRDAIKENKAI:
     Beginner:
     2:
     0.262,0.356,0.159,0.126,0.000,185.000,19.000,15.000,0.000,0.000,0.000,-1.000,-1.000,0.262,0.356,0.159,0.126,0.000,185.000,19.000,15.000,0.000,0.000,0.000,-1.000,-1.000: // measure 1
0000
0000
0000
0000
,  // measure 2
0000
0000
0000
0000
,  // measure 3
0000
0000
0000
0000
,  // measure 4
0000
0000
0000
0000
,  // measure 5
1000
0000
1000
0000
,  // measure 6
0001
0000
0001
0000
,  // measure 7
1000
0000
1000
0000
,  // measure 8
0001
0000
0001
0000
,  // measure 9
0100
0000
0100
0000
,  // measure 10
0010
0000
0010
0000
,  // measure 11
0110
0000
0110
0000
,  // measure 12
1001
0000
2002
3003
,  // measure 13
0000
0001
0000
0001
,  // measure 14
0000
1000
0000
1000
,  // measure 15
1000
0000
0001
0000
,  // measure 16
1000
0000
0001
0000
,  // measure 17
0100
0100
0100
0100
,  // measure 18
0100
0100
0100
0000
,  // measure 19
0010
0010
0010
0010
,  // measure 20
0010
0010
0010
0000
,  // measure 21
1000
1000
1000
1000
,  // measure 22
1000
1000
1000
0000
,  // measure 23
0001
0001
0001
0001
,  // measure 24
0001
0001
0002
0003
,  // measure 25
0000
0100
0000
0010
,  // measure 26
0000
0100
0100
0100
,  // measure 27
0000
0001
0000
1000
,  // measure 28
0000
0001
0001
0001
,  // measure 29
0000
1000
1000
1000
,  // measure 30
0000
0001
0001
0001
,  // measure 31
0000
0100
0100
0100
,  // measure 32
0000
0010
0010
0020
,  // measure 33
0000
0030
0000
0000
1000
0000
1000
0000
,  // measure 34
0000
0001
0001
0001
,  // measure 35
0001
0000
0001
0000
,  // measure 36
1000
0000
2002
3003
,  // measure 37
0000
0100
0100
0100
,  // measure 38
0000
0001
0001
0001
,  // measure 39
0001
0000
1000
0000
,  // measure 40
0001
0000
1000
0000
,  // measure 41
0010
0000
0100
0000
,  // measure 42
0001
0000
0100
0000
,  // measure 43
0010
0000
1000
0000
,  // measure 44
2002
0000
0000
3003
,  // measure 45
0000
0010
0010
0010
,  // measure 46
0010
0000
1000
0000
,  // measure 47
0001
0001
0001
0000
,  // measure 48
1000
1000
1000
0000
,  // measure 49
0100
0000
0100
0000
,  // measure 50
1000
0000
1000
0000
,  // measure 51
0001
0000
0001
0000
,  // measure 52
1000
0000
1000
0000
,  // measure 53
1001
0000
0001
0000
,  // measure 54
0100
0000
0100
0000
,  // measure 55
0000
0110
0000
0110
,  // measure 56
0110
0000
1001
0000
,  // measure 57
0100
0000
0000
0000
,  // measure 58
0001
0000
0000
0000
,  // measure 59
0000
0000
0000
0000
,  // measure 60
1000
0000
1000
0000
,  // measure 61
0001
0000
0001
0001
,  // measure 62
0001
0000
0001
0000
,  // measure 63
1000
0000
1000
1000
,  // measure 64
1000
0000
1000
0000
,  // measure 65
0001
0000
0001
0000
,  // measure 66
1001
1001
1001
1001
,  // measure 67
1001
1001
2002
3003
,  // measure 68
0000
0100
0000
0100
,  // measure 69
0000
0100
0100
0100
,  // measure 70
0100
0000
0010
0000
,  // measure 71
1000
0000
1000
0000
,  // measure 72
0002
0000
0003
0000
,  // measure 73
2000
0000
3000
0000
,  // measure 74
2002
0000
0000
0000
,  // measure 75
0000
0000
3003
0000
,  // measure 76
1000
0000
1000
0000
,  // measure 77
0001
0001
0001
0000
,  // measure 78
0100
0000
0100
0000
,  // measure 79
0010
0010
0010
0000
,  // measure 80
1000
1000
1000
0000
,  // measure 81
0001
0001
0001
0000
,  // measure 82
0100
0000
0100
0000
,  // measure 83
0010
0010
0010
0010
,  // measure 84
0020
0000
0000
0000
,  // measure 85
0000
0000
0000
0000
,  // measure 86
0030
0000
0000
0000
;
