#TITLE:Mogri Forest;
#SUBTITLE:;
#ARTIST:Kenji Ito;
#TITLETRANSLIT:;
#SUBTITLETRANSLIT:;
#ARTISTTRANSLIT:;
#GENRE:GAME;
#CREDIT:;
#MENUCOLOR:;
#NEWMETERSYSTEM:NO;
#BANNER:Mogri Forest.png;
#BACKGROUND:Mogri Forest-bg.png;
#LYRICSPATH:;
#CDTITLE:CDTitle.png;
#MUSIC:Mogri Forest.ogg;
#OFFSET:0.000;
#SAMPLESTART:12.532;
#SAMPLELENGTH:12.532;
#SELECTABLE:YES;
#LISTSORT:;
#BPMS:0.000=153.000;
#STOPS:;
#BGCHANGES:;
#ATTACKS:;

//---------------dance-single - DDRDAIKENKAI----------------
#NOTES:
     dance-single:
     DDRDAIKENKAI:
     Hard:
     7:
     0.455,0.446,0.000,0.357,0.101:
0000
0000
0000
0000
,
0000
0000
0000
0000
,
0000
0000
0000
0000
,
0000
0000
0000
2000
,
3001
0010
0001
0010
0100
0010
0100
0010
,
0100
1000
0100
1000
0001
1000
0001
0000
,
1000
0010
1000
0010
0100
0010
0100
0010
,
0100
0001
0100
0001
1000
0001
1000
0000
,
0020
0000
0000
0000
1030
0000
0100
0000
0010
0000
0000
0001
0100
0000
0010
0000
,
2000
0000
3001
0010
0100
1000
0001
0000
,
1000
0000
0000
0000
0001
0000
0010
0000
0001
0000
0000
0100
0010
0000
1000
0000
,
0200
0000
0310
0001
0010
0100
1000
0000
,
0002
0000
1000
0000
1003
0100
1000
0001
,
0010
0000
0010
0001
0100
0010
1000
0000
,
0020
0001
1000
0001
,
2030
0100
0010
0100
,
3002
0000
0000
0000
0013
0000
0100
0000
1000
0000
0000
0001
0100
0000
0010
0000
,
1000
0000
0100
0010
0001
0100
0010
0000
,
1000
0000
0000
0000
0001
0000
0010
0000
0001
0000
0000
1000
0100
0000
1000
0000
,
0002
0000
0103
0010
0100
0001
1000
0000
,
0020
0000
0000
0000
0100
0000
0000
0000
0130
0000
0000
0001
0000
0000
0010
0000
,
1000
0000
0000
0001
0000
0000
0100
0000
1000
0000
0000
0100
0000
0000
0010
0000
,
0002
0000
1003
0010
0001
0010
2000
0000
,
3002
0000
1003
0100
0001
0100
2000
0000
,
3010
0000
0000
1000
0100
0000
0010
0000
0001
0000
0100
0000
0010
0000
0000
0000
,
1000
0000
0000
0001
0010
0000
0100
0000
1000
0000
0000
0001
0100
0000
0010
0000
,
1000
0000
0000
0100
0010
0000
0001
0000
0100
0000
0010
0000
1000
0000
0000
0000
,
0100
0000
0000
1000
0001
0000
0010
0000
0002
0000
0000
0000
2003
0000
0000
0000
,
3002
0000
0103
0010
0100
0001
1000
0000
,
0020
0000
0000
0000
2030
0000
0000
0000
3200
0000
0000
0000
0302
0000
0000
0003
,
0100
0010
0100
0010
0100
1000
0100
1000
,
0001
0000
0100
0000
0001
0000
0100
0000
0010
0000
0000
1000
0000
0000
0001
0000
,
0010
0000
0000
0100
0000
0000
0010
0000
0002
0000
0000
0000
1003
0000
0000
0000
,
0100
0000
0000
1000
0000
0000
0001
0000
0200
0000
0000
0000
0320
0000
0000
0000
,
1030
0100
0010
0001
1000
0010
0100
0001
,
0010
1000
0010
0001
0100
1000
0200
0000
,
0310
0000
0000
0000
1000
0000
0100
0000
0010
0000
0000
0100
0000
0000
1000
0000
,
0001
0000
0000
0010
0000
0000
0100
0000
0020
0000
0000
0000
0032
0000
0000
0000
,
0203
0000
0000
0000
,
0320
0000
0000
0000
,
2030
0000
0000
0000
,
3002
0000
0000
0000
0000
0000
0000
0000
0000
0000
0000
0000
0000
0000
1003
0010
,
1000
0100
0001
0100
1000
0100
0001
0100
,
1000
0010
0001
0010
1000
0010
0001
0000
,
0010
1000
0100
1000
0010
1000
0100
1000
,
0001
1000
0001
1000
0001
1000
0001
1000
,
0200
0000
0000
0000
,
0300
0000
0000
0000
;

//---------------dance-single - DDRDAIKENKAI----------------
#NOTES:
     dance-single:
     DDRDAIKENKAI:
     Medium:
     5:
     0.354,0.394,0.000,0.380,0.050:
0000
0000
0000
0000
,
0000
0000
0000
0000
,
0000
0000
0000
0000
,
0000
0000
0000
2000
,
3001
0010
0001
0000
0001
0100
0001
0000
,
1000
0100
1000
0000
1000
0001
1000
0000
,
0010
1000
0010
0000
0010
0100
0010
0000
,
0100
0010
0100
0000
0100
0001
0100
0000
,
0002
0000
1003
0000
0100
0010
0100
0000
,
1000
0000
0001
0000
0100
0010
0100
0000
,
0001
0000
0100
0000
0010
1000
0010
0000
,
1000
0000
0010
0000
0100
0001
0100
0000
,
0002
0010
1000
0103
,
2000
0010
0001
3100
,
0020
0001
0100
0031
,
0200
0010
0001
0310
,
0100
0000
0001
0000
0010
0100
1000
0000
,
0010
0000
1000
0000
0100
0010
0001
0000
,
0100
0000
0001
0000
1000
0001
0100
0000
,
0010
0000
1000
0000
0100
1000
0010
0000
,
2000
0001
0010
3100
,
0002
0100
1000
0013
,
0200
0001
0010
1300
,
0020
1000
0001
0130
,
0001
0000
0000
0010
0000
0000
0100
0000
2000
0000
0000
0000
0000
0000
0000
0000
,
0100
0010
0100
3010
,
1000
0000
0000
0010
0000
0000
0100
0000
0002
0000
0000
0000
0000
0000
0000
0000
,
0010
0100
2003
3200
,
2300
0000
0000
3002
0000
0000
0203
0000
,
0320
2030
3200
0320
,
0032
0100
0010
0100
,
0010
0000
0000
0000
0010
0000
0000
0000
0013
0000
0000
0100
0000
0000
1000
0000
,
0001
0000
0000
0010
0000
0000
0100
0000
2000
0000
0000
0000
0000
0000
0000
0000
,
3001
0000
0000
0010
0000
0000
0100
0000
2000
0000
0000
0000
3002
0000
0000
0000
,
1003
0000
0000
0001
0000
0000
1000
0000
0010
0000
0000
0100
0000
0000
0010
0000
,
2000
0001
0010
3002
,
1003
0000
0000
0000
0000
0000
0001
0000
1000
0000
0000
0001
0000
0000
0001
0000
,
1000
0000
0000
0010
0000
0000
0100
0000
0020
0000
0000
0000
2030
0000
0000
0000
,
3200
0000
0000
0000
,
0020
0300
0000
0000
0000
0000
0000
0000
0000
0000
0000
0000
0000
0000
0000
0000
,
0032
0000
0000
0000
,
2003
0000
0000
0000
0000
0000
0000
0000
0000
0000
0000
0000
0000
0000
0000
3000
,
0010
1000
0100
0000
0100
0010
0001
0000
,
0001
0100
0010
0000
0010
1000
0001
0000
,
0001
0010
0100
0000
0100
1000
0001
0000
,
0001
1000
0001
1000
0001
1000
0001
0000
,
0200
0000
0000
0000
,
0300
0000
0000
0000
;

//---------------dance-single - DDRDAIKENKAI----------------
#NOTES:
     dance-single:
     DDRDAIKENKAI:
     Easy:
     2:
     0.233,0.236,0.000,0.290,0.000:
0000
0000
0000
0000
,
0000
0000
0000
0000
,
0000
0000
0000
0000
,
0000
0000
0000
2000
,
3001
0001
1000
1000
,
0001
0001
1000
0000
,
0010
0010
0100
0100
,
0010
0010
0100
0000
,
0002
0000
0013
0100
,
1000
0000
0100
0100
,
0010
0000
0001
1000
,
0001
0000
1000
0100
,
2000
0000
3010
0000
,
0002
0000
0103
0000
,
0020
0000
0000
0000
,
0230
0000
0000
0000
,
0302
0000
1003
0010
,
1000
0000
0100
0010
,
0010
0000
0001
0010
,
0001
0000
0010
0100
,
0020
0000
0032
0000
,
1003
0010
0100
0001
,
0020
0000
0032
0000
,
0023
0000
0230
0000
,
1300
0010
2000
0000
,
0100
3100
0010
0010
,
0001
0100
0002
0000
,
0100
0103
0010
1000
,
2000
0000
3002
0000
,
0103
0010
0100
0010
,
2000
0000
0000
0000
,
3100
0100
0100
0010
,
0001
0100
0020
0000
,
1030
0100
0010
0001
,
1000
1000
0001
0001
,
0200
0000
0000
0300
,
0020
0000
1030
1000
,
0001
0001
0100
0010
,
0200
0000
0000
0000
,
0302
0000
0000
0000
,
2003
0000
0000
0000
,
3200
0000
0000
0000
,
0310
0010
0010
0010
,
0001
0001
0001
0001
,
1000
1000
1000
1000
,
0001
1000
0001
1000
,
0200
0000
0000
0000
,
0300
0000
0000
0000
;

//---------------dance-single - DDRDAIKENKAI----------------
#NOTES:
     dance-single:
     DDRDAIKENKAI:
     Challenge:
     9:
     0.622,0.683,0.000,0.190,0.525: // measure 1
0000
0000
0000
0000
,  // measure 2
0000
0000
0000
0000
,  // measure 3
0000
0000
0000
0000
,  // measure 4
0000
0000
0000
4000
,  // measure 5
3001
0010
1000
0010
0001
0100
1000
0100
,  // measure 6
0001
0010
0100
1000
0010
0100
0001
1000
,  // measure 7
0001
0010
0001
0100
0001
0010
0001
0100
,  // measure 8
0010
1000
0010
1000
0010
1000
0010
1000
0010
1000
0010
1000
0010
1000
0010
1000
,  // measure 9
0100
0000
0010
0000
0100
0000
1000
0001
0000
0001
1000
0000
0100
0000
0010
0000
,  // measure 10
0001
0000
0100
0000
0010
0000
1000
0100
1000
0100
1000
0000
0010
0000
0100
0000
,  // measure 11
0001
0000
0010
0000
0100
0000
0010
0001
0000
0001
0100
0000
0010
0000
1000
0000
,  // measure 12
0100
0000
1000
0000
0001
0000
0100
0010
0100
0010
0100
0000
0001
0000
0010
0000
,  // measure 13
1000
0000
0010
0000
0001
0000
0100
0010
0000
0010
1000
0000
0100
0000
1000
0000
,  // measure 14
0010
0000
0100
0000
0001
0000
1000
0100
1000
0100
1000
0000
0001
0000
0010
0000
,  // measure 15
0001
0000
1000
0000
0100
0000
1000
0001
0000
0001
1000
0000
0010
0000
0100
0000
,  // measure 16
0001
0000
0010
0000
0100
0000
1000
0010
1000
0010
1000
0000
0002
0000
0000
0000
,  // measure 17
0103
0000
0010
0000
1000
0000
0100
0010
0000
0100
0010
0000
0001
0000
0100
0000
,  // measure 18
1000
0000
0100
0000
0001
0000
0010
0100
0010
0100
1000
0000
0001
0000
0100
0000
,  // measure 19
0010
0000
1000
0000
0100
0000
0010
0001
0000
0010
0001
0000
0100
0000
1000
0000
,  // measure 20
0001
0000
0010
0000
1000
0000
0010
0100
0010
0100
0001
0000
0010
0000
0001
0000
,  // measure 21
0100
0000
0010
0000
1000
0000
0100
0010
0000
0100
0010
0000
0001
0000
1000
0000
,  // measure 22
0001
0000
0010
0000
0100
0000
1000
0001
1000
0001
1000
0000
0100
0000
0010
0000
,  // measure 23
0001
0000
0100
0000
1000
0000
0100
0001
0000
0100
0001
0000
1000
0000
0100
0000
,  // measure 24
1000
0010
1000
0010
0100
0010
0100
0010
0100
0001
0100
0001
0010
0001
0010
0001
,  // measure 25
1000
0000
0100
1000
0000
0001
0100
0000
0010
0000
1000
0000
0100
0000
0000
0000
,  // measure 26
1000
0000
0001
0100
0000
0001
0010
0000
0001
0000
1000
0010
0000
1000
0100
0000
,  // measure 27
0010
0000
0100
1000
0000
0001
0100
0000
0010
0000
0100
0000
0001
0000
0000
0000
,  // measure 28
1000
0000
0001
0010
0000
0001
0100
0000
2000
0000
0000
0000
3200
0000
0000
0000
,  // measure 29
0302
0000
0013
0100
0001
0100
1000
0010
,  // measure 30
1000
0100
0001
0010
0001
0100
2000
0000
,  // measure 31
3100
0010
0100
0010
0001
1000
0001
1000
,  // measure 32
0001
0010
0001
0010
0100
0010
0100
0010
0100
1000
0100
2000
0000
0000
3010
0000
,  // measure 33
0001
0000
0010
1000
0000
0010
1000
0000
0200
0000
0010
0000
0310
0000
0000
0000
,  // measure 34
0001
0000
0100
0010
0000
0100
0010
0000
2000
0000
0000
0000
3002
0000
0000
0000
,  // measure 35
1003
0000
0100
0010
0000
0001
0100
0000
0010
0000
0100
0001
0000
0010
0100
0000
,  // measure 36
1000
0000
0001
0000
0100
0000
0010
1000
0010
1000
0010
1000
0004
0000
0000
0000
,  // measure 37
0013
1000
0010
0001
0100
1000
0100
0001
,  // measure 38
1000
0000
0100
0000
0010
0000
0001
1000
0001
1000
0001
1000
0001
1000
0001
1000
,  // measure 39
0400
0040
0000
0000
0000
0000
0000
0000
0000
0000
0000
0000
0000
0000
0000
0300
,  // measure 40
0004
0000
0000
0000
0000
0000
0000
0000
0000
0000
0000
0000
0000
0000
0000
0003
,  // measure 41
0400
0000
0000
0000
0000
0000
0000
0000
0000
0000
0000
0000
0000
0000
0000
0300
,  // measure 42
0004
0000
0000
0000
0000
0000
0000
0000
0000
0000
0000
0000
0003
0030
0001
0010
,  // measure 43
0001
0000
0100
0000
1000
0000
0100
0001
0000
0001
0010
0000
1000
0000
0010
0000
,  // measure 44
0001
0000
0100
0000
0010
0000
1000
0001
1000
0001
1000
0000
0100
0000
0000
0000
,  // measure 45
0010
0000
0001
0000
0100
0000
0001
0010
0000
0010
0100
0000
1000
0000
0010
0000
,  // measure 46
1000
0001
1000
0001
1000
0001
1000
0001
1000
0001
1000
0001
1000
0001
1000
0001
,  // measure 47
0200
0000
0000
0000
,  // measure 48
0300
0000
0000
0000
;

//---------------dance-single - DDRDAIKENKAI----------------
#NOTES:
     dance-single:
     DDRDAIKENKAI:
     Beginner:
     1:
     0.161,0.231,0.011,0.257,0.000:
0000
0000
0000
0000
,
0000
0000
0000
0000
,
0000
0000
0000
0000
,
0000
0000
0000
0000
,
1000
1000
1000
1000
,
1000
1000
1000
0000
,
0001
0001
0001
0001
,
0001
0001
0001
0000
,
0200
0000
0300
0000
,
0020
0000
0030
0000
,
2000
0000
3000
0000
,
0001
0000
0010
0000
,
0200
0000
0300
0000
,
2000
0000
3000
0000
,
0020
0000
0030
0000
,
0200
0000
0300
0000
,
0002
0000
0003
0000
,
1000
0000
1000
0000
,
0200
0000
0300
0000
,
0010
0000
0010
0000
,
0002
0000
0003
0000
,
2000
0000
3000
0000
,
0020
0000
0030
0000
,
0200
0000
0300
0000
,
0010
0010
0010
0000
,
1000
0000
0001
0000
,
0010
0010
0010
0000
,
0001
0000
1000
0000
,
0002
0000
0003
0000
,
2000
0000
3000
0000
,
0200
0000
0300
0000
,
0010
0010
0010
0010
,
0020
0000
0030
0000
,
0002
0000
0003
0000
,
1000
0000
0001
0000
,
0200
0000
0000
0000
,
0300
0000
0010
0000
,
0100
0000
0001
0000
,
0200
0000
0300
0000
,
0002
0000
0003
0000
,
2000
0000
3000
0000
,
0200
0000
0300
0000
,
0010
0010
0010
0010
,
0010
0010
0010
0000
,
0001
0001
0001
0001
,
0001
0001
0001
0000
,
1001
0000
0000
0000
;
