#TITLE:Miss Jackson;
#SUBTITLE:(feat. LOLO);
#ARTIST:Panic! At The Disco;
#TITLETRANSLIT:;
#SUBTITLETRANSLIT:;
#ARTISTTRANSLIT:;
#GENRE:POWER POP;
#CREDIT:;
#MENUCOLOR:;
#NEWMETERSYSTEM:NO;
#BANNER:Miss Jackson (feat. LOLO).png;
#BACKGROUND:Miss Jackson (feat. LOLO)-bg.png;
#LYRICSPATH:;
#CDTITLE:CDTitle.png;
#MUSIC:Miss Jackson (feat. LOLO).ogg;
#OFFSET:-5.853;
#SAMPLESTART:70.055;
#SAMPLELENGTH:11.600;
#SELECTABLE:YES;
#LISTSORT:;
#BPMS:0.000=82.005;
#STOPS:;
#BGCHANGES:-0.020=Miss Jackson (feat. LOLO).avi=1.000=0=0=1,
120.688=Miss Jackson (feat. LOLO)-bg.png=1.000=0=0=1,
99999=-nosongbg-=1.000=0=0=0 // don't automatically add -songbackground-
;
#ATTACKS:;

//---------------dance-single - DDRDAIKENKAI----------------
#NOTES:
     dance-single:
     DDRDAIKENKAI:
     Hard:
     8:
     0.650,0.574,0.422,0.697,0.602: // measure 1
0000
0000
0000
0000
,  // measure 2
0000
0000
0000
0000
,  // measure 3
1000
0100
0010
0000
0001
0100
0010
0000
0120
0000
0130
0010
2000
0000
3001
0000
,  // measure 4
0010
0001
0100
0000
0010
1000
0100
0000
1200
0000
1300
0001
0020
0000
0031
0000
,  // measure 5
0100
0010
1000
0000
0100
0010
0001
0000
0012
0000
1003
0100
2000
0000
3010
0000
,  // measure 6
0100
0001
0010
0000
0100
1000
0010
0000
0120
0000
0130
0001
2000
0000
3001
0000
,  // measure 7
0001
1000
0100
0010
0001
0100
0010
1000
0100
1000
0010
0100
0002
0000
1003
0000
,  // measure 8
0001
0010
1000
0010
0001
0100
0010
1000
0100
0010
0100
1000
0002
0000
1003
0000
,  // measure 9
0001
0010
0001
0010
0100
1000
0100
1000
0001
0100
0010
0100
0002
0000
1003
0000
,  // measure 10
0010
1000
0100
0010
0001
0100
0020
0000
2030
0001
3001
0010
0200
0000
2300
0000
,  // measure 11
3001
0010
0001
0100
0010
1000
0100
0010
0100
1000
0100
0010
0002
0000
2003
0000
,  // measure 12
3001
1000
0010
0100
0001
0010
0001
0100
0010
0100
1000
0100
0002
0000
2003
0000
,  // measure 13
3100
0010
0001
1000
0020
0000
0130
0001
0010
0100
1000
0010
0200
0000
0302
0000
,  // measure 14
1003
0100
1000
0010
1000
0001
0200
0000
0302
0000
0013
0100
2000
0000
3010
0000
,  // measure 15
0110
0101
1010
1100
1002
1000
2000
3003
,  // measure 16
0001
0010
0100
1000
0001
0100
0010
1000
0200
0000
0310
0001
0020
0000
1030
0000
,  // measure 17
1010
0011
0110
0011
1002
1000
2000
3003
,  // measure 18
0001
0010
0100
0000
0110
0000
1100
0000
1002
0000
1003
0010
0001
0010
1000
0100
,  // measure 19
0020
0000
0001
0000
0032
0000
1000
0000
2003
0000
0000
3001
1000
0010
0100
0001
,  // measure 20
2000
0000
0010
0000
3020
0000
0100
0000
0230
0000
0000
0301
0010
0100
1000
0010
,  // measure 21
2010
0000
3010
0000
0210
0000
0310
0000
1002
0000
0000
1003
0200
0000
0310
0000
,  // measure 22
0001
0010
0100
0000
0110
0000
1100
0000
1002
0000
1003
0010
0001
0010
1000
0100
,  // measure 23
1100
0100
0000
1000
1100
0100
0000
1000
1001
0001
1000
0010
0002
0000
0013
1000
,  // measure 24
1001
0001
0000
1000
1001
0001
0000
1000
1100
0100
0001
0100
2000
0000
3001
0010
,  // measure 25
0110
0100
0000
0010
0110
0100
0000
0010
0011
0001
1000
0100
0002
0000
0203
0000
,  // measure 26
1300
0001
1000
0010
0002
0000
0013
0000
0210
0000
0000
1300
0100
0001
0010
0100
,  // measure 27
0210
0000
2300
0000
3200
0000
0320
0000
1030
0010
0001
1000
2200
0000
3300
0000
,  // measure 28
1000
0010
0001
0010
1000
0100
0010
0001
2000
0000
3001
0010
0200
0000
2300
3000
,  // measure 29
1020
0000
0032
0000
0023
0000
2030
0000
3010
1000
0100
0001
0202
0000
0303
0000
,  // measure 30
1000
0100
0010
0000
0110
0000
0011
0000
2001
0000
3001
0010
0100
1000
0010
0100
,  // measure 31
0002
0000
0000
0003
0000
0000
0000
0000
0000
0000
0000
0000
0000
0000
0000
0000
;

//---------------dance-single - DDRDAIKENKAI----------------
#NOTES:
     dance-single:
     DDRDAIKENKAI:
     Medium:
     5:
     0.336,0.319,0.106,0.179,0.000:
0000
0000
0000
0000
,
0000
0000
0000
0000
,
1000
0100
0010
0001
0020
0001
0031
0000
,
0100
0010
1000
0010
0200
0001
0301
0000
,
1000
0001
0010
0100
2000
0010
3010
0000
,
0100
0001
1000
0100
0020
0100
0130
0000
,
1000
0010
1000
0010
0100
0001
1000
0100
,
0010
0001
0010
0001
1000
0010
0100
0001
,
1000
0100
1000
0100
1000
0001
0010
0001
,
0100
0001
0100
0001
1000
0000
0001
0000
,
0100
0010
0100
0010
1000
0100
0001
0100
,
1000
0010
1000
0010
1000
0100
0010
0001
,
0100
0001
0100
0001
0010
0100
1000
0010
,
0001
0010
0001
0010
1000
0000
0001
0000
,
0100
0010
0100
0010
2000
0001
3001
0000
,
0100
0001
0010
0100
1000
0010
0100
0001
,
0010
0100
0010
0100
2000
0001
3001
0000
,
0100
0001
1000
0001
1000
1000
0001
0001
,
0200
0300
0200
0300
0200
0300
0010
1000
,
0200
0300
0200
0300
0200
0300
0010
0001
,
0200
0300
0200
0300
0200
0300
0200
0300
,
0001
1000
0001
1000
0100
0010
0100
0010
,
0011
0000
0011
0000
0011
1000
0010
0100
,
0110
0000
0110
0000
0110
0001
1000
0010
,
1010
0000
1010
0000
1010
0100
0001
0001
,
0100
0010
1000
1000
1001
0000
0001
0001
,
1000
0010
0001
0010
1000
1000
0001
0000
,
0001
0001
0010
0010
0100
0100
1000
1000
,
0001
0100
1000
0100
0001
0001
1000
0000
,
0100
0100
0010
0010
0001
1000
0100
0100
,
2000
0000
0000
3000
0000
0000
0000
0000
0000
0000
0000
0000
0000
0000
0000
0000
;

//---------------dance-single - DDRDAIKENKAI----------------
#NOTES:
     dance-single:
     DDRDAIKENKAI:
     Easy:
     3:
     0.219,0.255,0.116,0.137,0.000:
0000
0000
0000
0000
,
0000
0000
0000
0000
,
1000
0001
2000
3000
,
0001
1000
0002
0003
,
0100
0010
0200
0300
,
0010
0100
0020
0030
,
1000
0000
0100
0000
0010
0010
0010
0000
,
0001
0000
0100
0000
0010
0010
0010
0000
,
1000
0000
0001
0000
0100
0100
0100
0000
,
0001
0001
0001
0000
1000
1000
1000
0000
,
0100
0000
0010
0000
0100
0100
0100
0000
,
1000
0000
0010
0000
1000
1000
1000
0000
,
0010
0000
0100
0000
0001
0001
0001
0000
,
0010
0010
0010
0000
0100
0100
0100
0000
,
1000
0001
1000
0001
2000
0000
3000
0000
,
0001
0100
0010
1000
,
0001
1000
0001
1000
0002
0000
0003
0000
,
1000
0100
0010
0001
,
0100
0000
0100
0000
0100
0000
0001
0001
,
0100
0000
0100
0000
0100
0000
0010
0010
,
0100
0100
0100
1000
,
0100
0010
0001
1000
,
0110
0110
1001
1000
,
1001
1001
0110
0010
,
0110
0110
1001
1000
,
1001
0001
1001
1000
,
0020
2030
3020
0030
,
0100
0001
0010
0100
,
0020
0032
0023
0030
,
0001
0010
0100
1000
,
0002
0000
0000
0003
0000
0000
0000
0000
0000
0000
0000
0000
0000
0000
0000
0000
;
