#TITLE:MIRACLE MEETS;
#SUBTITLE:;
#ARTIST:Lucky Vacuum;
#TITLETRANSLIT:;
#SUBTITLETRANSLIT:;
#ARTISTTRANSLIT:;
#GENRE:BUCHIAGE TRANCE;
#CREDIT:;
#MENUCOLOR:;
#NEWMETERSYSTEM:NO;
#BANNER:Miracle Meets.png;
#BACKGROUND:Miracle Meets-bg.png;
#LYRICSPATH:;
#CDTITLE:;
#MUSIC:Miracle Meets.ogg;
#OFFSET:-0.382;
#SAMPLESTART:90.370;
#SAMPLELENGTH:12.010;
#SELECTABLE:YES;
#LISTSORT:;
#DISPLAYBPM:160.000;
#BPMS:0.000=160.000;
#STOPS:;
#BGCHANGES:;
#ATTACKS:;

//---------------dance-single - DDRDAIKENKAI----------------
#NOTES:
     dance-single:
     DDRDAIKENKAI:
     Hard:
     9:
     0.721,0.942,0.338,0.749,0.197:
0000
0000
0000
0000
,
0000
0000
0000
0000
,
0000
0000
0000
0000
,
0000
0000
0000
0000
,
1001
0000
0000
0001
0000
0000
0010
0000
0000
0001
0000
0000
1000
0000
0000
0001
0100
0001
0100
0000
0000
0010
0000
0000
,
2000
0000
0100
0000
3100
1000
0100
0010
,
0001
0100
0010
1000
0100
1000
0100
0020
,
0000
0034
0103
4000
3200
0340
0032
4003
,
3200
M000
M000
M000
,
0301
0000
0000
0000
1000
0001
1000
0001
0100
0001
0100
0001
0020
0000
0032
0000
,
0100
0000
0100
0000
0000
1000
0000
1000
,
0000
1000
0000
1003
0100
0010
0110
0200
,
1000
0000
1000
0000
0000
0010
0000
0010
,
0000
0010
0000
0310
0001
0100
0110
0020
,
0100
0000
0100
0000
0000
0001
0000
0001
,
0000
0001
0000
0031
0010
1000
1100
2000
,
0001
0000
0001
0000
0000
0001
0000
0001
,
0000
0001
0000
0001
3010
0001
0101
0200
,
0010
0000
0010
0000
0000
1000
0000
1000
,
0000
1000
0000
1300
0100
0001
0011
0002
,
0100
0000
0100
0000
0000
1000
0000
1000
,
0000
1000
0000
1003
0100
0010
0110
0200
,
1000
0000
1000
0000
0000
0010
0000
0010
,
0000
0010
0000
0310
0001
0100
0110
0020
,
0100
0000
0100
0000
0000
1000
0000
1000
,
0000
1000
0000
1000
0130
0000
1100
0000
,
0020
0000
0001
0000
0000
0001
0000
0001
,
0130
0000
0000
0000
1010
0000
1000
0000
0001
0010
0001
0010
2000
0000
0000
0000
,
3020
0000
0001
0000
0000
0100
0000
0100
,
1030
0010
0001
0010
0044
0033
2010
0000
,
3020
0000
0001
0000
0000
0100
0000
0100
,
1030
0000
0004
0000
0013
0000
0100
0000
1000
0010
1000
0010
0002
0000
0000
0000
,
0023
0000
0100
0000
0000
0100
0000
0100
,
0031
0100
2002
3003
1000
0100
2002
3003
,
1001
0010
1000
0100
1000
0010
1000
0100
,
1000
0010
0100
0001
0101
0110
2020
3030
,
1100
0100
1000
0010
0100
0001
0010
0001
,
0100
0010
1000
0100
0014
0013
1200
0000
,
1300
0010
1000
0100
1000
0010
1000
0001
,
0100
0000
0040
0000
0130
0000
0001
0000
0010
0001
0010
0001
0020
0000
0000
0130
,
1000
0100
1000
0010
1000
0001
0100
0010
,
1000
0000
0100
0000
0410
0000
0310
0000
0001
0100
0001
0100
2000
0000
0000
0000
,
3100
0000
0000
0001
0000
0000
0010
0000
0000
0001
0000
0000
1000
0000
0000
0001
0100
0001
0100
0000
0000
0010
0000
0000
,
2000
0000
0000
0000
3000
0100
0100
1000
,
0001
0000
0000
0010
0000
0000
0001
0000
0000
1000
0000
0000
0001
0000
0000
0100
0001
0100
0001
0000
0000
0010
0000
0000
,
0020
0000
0130
0200
0000
1300
0001
0010
,
1000
0000
0000
0010
0000
0000
0001
0000
0000
0100
0000
0000
0010
0000
0000
0100
0001
0100
0001
0000
0000
0010
0000
0000
,
0002
0000
0000
0000
0003
0100
0100
0020
,
2030
3100
2000
3020
0130
0020
0130
0002
,
0000
0023
0130
0100
2000
0000
3002
0000
,
0203
0000
0000
0000
0000
0000
0320
0000
0000
0000
0000
0000
2030
0000
0000
3001
0100
0001
0100
0000
0000
0010
0000
0000
,
0200
0000
0000
0000
0000
0000
0320
0000
0000
0000
0000
0000
2030
0000
0000
3001
0100
0001
0100
0000
0000
0010
0000
0000
,
0200
0000
0000
0000
0000
0000
0320
0000
0000
0000
0000
0000
2030
0000
0000
3001
0100
0001
0100
0000
0000
0010
0000
0000
,
0200
0000
0000
0000
0000
0000
0320
0000
0000
0000
0000
0000
2030
0000
0000
3001
0100
0001
0100
0000
0000
0010
0000
0000
,
2000
0000
0000
3001
0100
0001
0100
0000
0000
0010
0000
0000
2000
0000
0000
3001
0100
0001
0100
0000
0000
0010
0000
0000
,
2000
0000
0000
3001
0100
0001
0100
0000
0000
0010
0000
0000
2000
0000
0000
3001
0100
0001
0100
0000
0000
0010
0000
0000
,
0110
0100
0010
0100
1001
0100
0010
0100
,
1001
0001
1001
1000
1001
1001
1001
1001
,
0200
0000
0320
0000
2030
0000
3001
0001
,
0000
0102
0000
0103
1000
0100
0001
1000
,
1001
0000
0000
0001
0000
0000
0010
0000
0000
0001
0000
0000
1000
0000
0000
0100
1000
0100
1000
0000
0000
0001
0000
0000
,
0200
0000
0001
0000
0310
0100
0001
0010
,
0001
0000
0000
0100
0000
0000
0010
0000
0000
1000
0000
0000
0100
0000
0000
0010
0001
0010
0001
0000
0000
0010
0000
0000
,
0002
0000
1003
0002
0000
0103
1000
0100
,
0010
0000
0000
0100
0000
0000
0001
0000
0000
0010
0000
0000
1000
0000
0000
0010
0001
0010
0001
0000
0000
0100
0000
0000
,
0002
0000
0100
0000
0103
0001
0001
0010
,
0100
1000
0100
0001
0100
1000
0010
0210
,
0000
0310
0001
0001
0012
0013
0110
0100
,
2001
0000
0000
0000
0000
0000
3020
0000
0000
0000
0000
0000
0230
0000
0000
0301
0010
0001
0010
0000
0000
0100
0000
0000
,
2000
0000
0010
0000
3001
0010
0100
1000
,
0100
0000
0000
0010
0000
0000
0001
0000
0000
0100
0000
0000
0010
0000
0000
1000
0100
1000
0100
0000
0000
0010
0000
0000
,
0002
0000
1003
0020
0000
0130
0001
0010
,
0200
0000
0000
0000
0000
0000
0320
0000
0000
0000
0000
0000
0031
0000
0000
1000
0100
1000
0100
0000
0000
0010
0000
0000
,
0002
0000
0000
0000
0003
0100
0100
0001
,
0101
0001
0010
0100
0110
0100
1000
1020
,
0000
1030
0100
1000
2010
3010
0120
0130
,
0202
0000
0000
0000
,
0000
0000
0000
0000
,
0303
0000
0000
0000
;

//---------------dance-single - DDRDAIKENKAI----------------
#NOTES:
     dance-single:
     DDRDAIKENKAI:
     Easy:
     4:
     0.330,0.408,0.056,0.266,0.000: // measure 1
0000
0000
0000
0000
,  // measure 2
0000
0000
0000
0000
,  // measure 3
0000
0000
0000
0000
,  // measure 4
0000
0000
0000
0000
,  // measure 5
0001
1000
0001
1000
,  // measure 6
0200
0000
0000
1300
,  // measure 7
0001
0010
0100
1000
,  // measure 8
0001
0010
0001
0100
,  // measure 9
0020
0000
0000
0000
,  // measure 10
2030
0000
0000
3000
,  // measure 11
0010
0010
0000
0010
,  // measure 12
1000
0100
0000
0100
,  // measure 13
1000
0001
0000
0001
,  // measure 14
0100
0010
0000
0010
,  // measure 15
0100
0001
0000
0001
,  // measure 16
0010
0100
0000
0100
,  // measure 17
1000
0001
0000
0001
,  // measure 18
1000
0010
0000
0010
,  // measure 19
1000
0001
0000
1000
,  // measure 20
0100
1000
0000
0010
,  // measure 21
0100
0010
0000
0100
,  // measure 22
0001
0100
0000
0001
,  // measure 23
0010
0100
0000
1000
,  // measure 24
0100
0010
0000
0001
,  // measure 25
1000
0010
0000
1000
,  // measure 26
0001
0100
0010
0100
,  // measure 27
0110
0010
0000
1000
,  // measure 28
0100
0010
0001
2000
,  // measure 29
3001
0001
0000
0100
,  // measure 30
0010
1000
0010
0020
,  // measure 31
1030
1000
0000
0001
,  // measure 32
0010
0100
1000
0002
,  // measure 33
1003
1000
0000
0001
,  // measure 34
1000
0002
0103
0002
,  // measure 35
0013
0010
0100
1000
,  // measure 36
0100
0010
0001
1001
,  // measure 37
1000
0100
0010
0001
,  // measure 38
0010
0100
1001
1001
,  // measure 39
0001
0100
0010
1000
,  // measure 40
0010
0100
0001
1001
,  // measure 41
1000
0010
0100
0001
,  // measure 42
0100
0110
0010
0200
,  // measure 43
0310
0010
0010
0010
,  // measure 44
0100
0100
0100
0100
,  // measure 45
0001
0001
0001
0001
,  // measure 46
1000
1000
1000
1000
,  // measure 47
0010
0010
0010
0010
,  // measure 48
1000
1000
1000
1000
,  // measure 49
0100
0100
0100
0100
,  // measure 50
0010
0001
0100
0010
,  // measure 51
0200
0302
1003
1000
,  // measure 52
0200
2300
3001
0001
,  // measure 53
0200
0302
1003
1000
,  // measure 54
0200
2300
3001
0001
,  // measure 55
0020
0130
0020
0130
,  // measure 56
0020
0130
0020
0130
,  // measure 57
0010
0010
0010
0010
,  // measure 58
0001
0001
1000
1000
,  // measure 59
0200
0000
0000
0000
,  // measure 60
2000
0000
0000
3300
,  // measure 61
1000
0001
0010
0001
,  // measure 62
0200
0000
0300
0100
,  // measure 63
0001
0010
0100
1000
,  // measure 64
0001
1000
1000
0001
,  // measure 65
0010
0001
0100
0010
,  // measure 66
0200
0000
0300
0010
,  // measure 67
1000
0100
1000
0001
,  // measure 68
1001
1000
0100
2000
,  // measure 69
0000
3001
0010
0001
,  // measure 70
0200
0000
0000
0301
,  // measure 71
0001
0010
0001
0100
,  // measure 72
0010
1000
0100
0010
,  // measure 73
0200
2300
3001
0010
,  // measure 74
0200
0000
0300
0010
,  // measure 75
0001
0100
0010
1000
,  // measure 76
0001
0001
2000
3002
,  // measure 77
0200
0000
0000
0000
,  // measure 78
0000
0000
0000
0000
,  // measure 79
0303
0000
0000
0000
;

//---------------dance-single - DDRDAIKENKAI----------------
#NOTES:
     dance-single:
     DDRDAIKENKAI:
     Medium:
     6:
     0.447,0.534,0.040,0.386,0.000:
0000
0000
0000
0000
,
0000
0000
0000
0000
,
0000
0000
0000
0000
,
0000
0000
0000
0000
,
0001
0000
0010
0000
0100
1000
0100
1000
,
0200
0000
0000
0000
0000
1000
1300
0000
,
0001
0000
1000
0000
0001
0100
0000
0010
,
0000
1000
1000
0100
0020
0000
0032
0000
,
0203
0000
0000
0000
,
0301
0000
1001
0000
1000
0001
0200
0000
,
0310
0000
0010
0000
0000
1000
0000
0001
,
0000
1000
0000
0010
0100
0000
0100
0000
,
0001
0000
0001
0000
0000
0010
0000
0001
,
0000
0010
0000
0100
1000
0000
1000
0000
,
0001
0000
1000
0000
0000
0010
0000
0010
,
0000
0100
0000
0100
0001
0000
1000
0000
,
0001
0000
0001
0000
0000
1000
0000
1000
,
0000
0001
0000
1000
0010
0000
0010
0000
,
1000
0001
0100
0001
0000
1000
0010
1000
,
0000
0010
0100
0010
0000
0100
0001
0100
,
0000
0001
0010
0001
0000
1000
0100
1000
,
0000
0001
0010
0001
0000
0100
0010
0100
,
0000
0010
1000
0010
0000
1000
0100
1000
,
0000
0001
1000
0001
0000
0100
0001
0100
,
0000
0001
0010
0001
0000
0100
0010
0100
,
0000
0010
0000
1000
0100
0000
0100
0000
,
1000
0000
2000
0000
0000
0001
0000
0001
,
0000
3001
0000
0001
0200
0000
0300
0000
,
0001
0000
0002
0000
0000
0010
0000
0010
,
0000
0013
0000
0010
0200
0000
0300
0000
,
1000
0000
1000
0000
0000
0001
0000
1000
,
0000
0001
0000
0100
0020
0000
0030
0000
,
1000
0000
1000
0000
0000
0001
0000
0100
,
0000
0010
0000
1000
0200
0000
0300
0000
,
1000
0001
1000
0001
,
0100
0000
0010
0000
1000
0100
0020
0000
,
0031
1000
0001
1000
,
0001
0010
0200
2300
,
3001
0100
0010
1000
,
0100
0000
0010
0000
0001
1000
0020
0000
,
0130
0001
0010
0100
,
0010
0000
0002
0000
1003
0100
2000
0000
,
3002
0000
0023
0000
0031
0100
0001
0100
,
0020
0000
0000
0000
0000
1030
1000
0000
,
0100
0010
0100
1000
,
0001
0000
1000
0010
0000
1000
0001
0000
,
2000
0000
3002
0000
0013
0001
0010
0001
,
0200
0000
0000
0000
0000
0310
0010
0000
,
1000
0000
0100
0000
0010
0000
0100
2000
,
0000
3001
0001
0100
0020
0000
2030
0000
,
3200
0000
0320
0000
0031
1000
0001
0000
,
0020
0000
0230
0000
1300
0001
1000
0000
,
0200
0000
0320
0000
0031
1000
0001
0000
,
0020
0000
0230
0000
1300
0001
1000
0000
,
0001
1000
1000
0000
0001
1000
1000
0000
,
0001
1000
1000
0000
0001
1000
1000
0000
,
1001
1001
1001
1001
,
1000
1000
1000
1000
0010
0010
0010
0010
,
0200
0000
0310
0000
1000
0000
0001
0001
,
0000
0100
0000
0010
1000
0010
1000
0010
,
0100
0000
0001
0000
0010
0001
0010
0001
,
0200
0000
0000
0000
0000
0310
1000
0000
,
0001
0010
0001
0000
1000
0100
1000
0000
,
0001
0000
1000
0010
0000
1000
0001
0000
,
0010
0000
0001
0000
0100
0001
0100
0001
,
2000
0000
0000
0000
0000
3001
0010
0000
,
0001
0000
1000
0000
0100
1000
0000
0001
,
0000
1000
0010
0000
0200
0000
0302
0000
,
0010
0000
0013
0000
0100
1000
0100
1000
,
0002
0000
0000
0000
0000
1003
0100
0000
,
0010
0000
0001
0000
0100
0010
0100
0000
,
0001
0000
1000
0010
0000
1000
0001
0000
,
0020
0000
0032
0000
1003
0010
1000
0001
,
0200
0000
0000
0000
0000
0301
0010
0000
,
0002
0000
0103
0000
0020
0000
1030
0100
,
0000
0010
0100
0010
0200
0000
2300
0000
,
3200
0000
0000
0000
,
0000
0000
0000
0000
,
0300
0000
0000
0000
;
