#TITLE:MAX DON'T HAVE SEX WITH YOUR EX;
#SUBTITLE:2002;
#ARTIST:E-ROTIC;
#TITLETRANSLIT:;
#SUBTITLETRANSLIT:;
#ARTISTTRANSLIT:;
#GENRE:;
#CREDIT:;
#MENUCOLOR:;
#NEWMETERSYSTEM:NO;
#BANNER:MAX DON'T HAVE SEX WITH YOUR EX 2002.png;
#BACKGROUND:MAX DON'T HAVE SEX WITH YOUR EX 2002-bg.png;
#LYRICSPATH:;
#CDTITLE:;
#MUSIC:MAX DON'T HAVE SEX WITH YOUR EX 2002.ogg;
#OFFSET:0.000;
#SAMPLESTART:92.780;
#SAMPLELENGTH:15.900;
#SELECTABLE:YES;
#LISTSORT:;
#BPMS:0.000=140.030;
#STOPS:;
#BGCHANGES:;
#ATTACKS:;

//---------------dance-single - DDRDAIKENKAI----------------
#NOTES:
     dance-single:
     DDRDAIKENKAI:
     Hard:
     7:
     0.531,0.518,0.288,0.160,0.056: // measure 1
0000
0000
0000
0000
,  // measure 2
0000
0000
0000
0000
,  // measure 3
0000
0000
0000
0000
,  // measure 4
0000
0000
0000
0000
,  // measure 5
1000
0001
1000
0001
,  // measure 6
0100
0010
0100
0010
,  // measure 7
1000
1000
0100
0100
0010
0010
0001
0001
,  // measure 8
1000
1000
0010
0010
0100
0100
0001
0001
,  // measure 9
2002
0000
0000
0000
0000
3003
0000
1000
,  // measure 10
0001
1000
0100
1000
0001
1000
0100
1000
,  // measure 11
0001
0100
0010
0100
0001
0000
0010
0000
,  // measure 12
0100
1000
0100
0010
0100
1000
0100
0010
,  // measure 13
0001
0100
0001
0010
0001
0000
0100
0000
,  // measure 14
0010
1000
0010
0100
0010
1000
0010
0100
,  // measure 15
0001
1000
0100
1000
0001
0000
1000
0000
,  // measure 16
0010
0100
0001
0100
0010
0100
0001
0100
,  // measure 17
0001
0010
0001
1000
0001
0000
1001
0000
,  // measure 18
0101
0001
0000
1000
0000
0001
0000
1000
,  // measure 19
0010
1000
0000
1000
0000
0001
0000
1000
,  // measure 20
0001
1000
0000
0001
0000
1000
0000
0001
,  // measure 21
1000
0001
0000
1000
0000
0100
0000
0010
,  // measure 22
0001
0100
0001
0100
0010
1000
0010
1000
,  // measure 23
0100
1000
0100
1000
0010
0100
0010
0100
,  // measure 24
0101
0000
1010
0000
1100
0000
0011
0001
,  // measure 25
0100
1000
0100
0001
0010
0100
1000
0010
,  // measure 26
1010
0000
0110
0000
0101
0000
0001
0010
,  // measure 27
0001
0100
1000
0100
0001
0010
0001
0100
,  // measure 28
0010
1000
0100
0001
0100
0010
0001
0100
,  // measure 29
1000
0100
0010
1000
0100
0010
0001
0000
,  // measure 30
2002
0000
0000
3003
,  // measure 31
1001
0000
0001
1000
0100
0000
0100
1000
,  // measure 32
0001
0000
0001
0010
0001
0100
0010
1000
,  // measure 33
0001
1001
0011
1100
,  // measure 34
1020
1000
0100
0031
,  // measure 35
0011
0000
0010
1000
0100
0000
0100
1000
,  // measure 36
0001
0000
0001
0010
0100
1000
0010
0100
,  // measure 37
0001
0101
1001
2100
,  // measure 38
0010
0000
0001
0000
3100
0000
0100
1000
,  // measure 39
0100
0010
0100
1000
0001
1000
0001
1000
,  // measure 40
0001
0010
0001
0100
0001
0000
0010
0000
,  // measure 41
1000
0010
0001
0010
0100
0010
0001
0010
,  // measure 42
0001
0100
0010
0100
0001
0000
1000
0000
,  // measure 43
0100
1000
0010
1000
0001
1000
0100
1000
,  // measure 44
0010
0001
0010
1000
0001
0000
1000
0000
,  // measure 45
0100
0010
0100
1000
0100
0001
0100
1000
,  // measure 46
0100
0010
0001
0010
0100
0000
0110
0000
,  // measure 47
2100
0000
0000
0100
0000
0000
0010
0000
0000
0010
0000
0000
0001
0000
0001
0000
,  // measure 48
3002
0000
0000
1000
0000
0000
1000
0000
0000
0010
0000
0000
0100
0000
0100
0000
,  // measure 49
0203
0000
0000
1000
0000
0000
1000
0000
0000
0010
0000
0000
0001
0000
0001
0000
,  // measure 50
0302
0000
0000
1000
0000
0000
1003
0000
0100
0000
0010
0000
0011
0000
0000
0000
,  // measure 51
2100
0000
0000
0100
0000
0000
0010
0000
0000
0010
0000
0000
3001
0000
1000
0000
,  // measure 52
0200
0000
0000
0010
0000
0000
1000
0000
0000
0010
0000
0000
1300
0000
0010
0000
,  // measure 53
0200
0000
0000
0010
0000
0000
0001
0000
0000
0010
0000
0000
0301
0000
1000
0000
,  // measure 54
0020
0000
0000
0100
0000
0000
0130
0000
0001
0000
0010
0000
0100
0000
1000
0000
,  // measure 55
2002
0000
0000
3003
,  // measure 56
1010
0000
1000
0001
0100
0000
0100
0001
,  // measure 57
1000
0000
1000
0001
0010
1000
0010
0001
,  // measure 58
0100
0110
1010
1100
,  // measure 59
0012
1000
0100
0103
,  // measure 60
0101
0000
0100
0010
1000
0000
1000
0010
,  // measure 61
0100
0000
0100
0001
0010
1000
0010
0001
,  // measure 62
0100
0101
1001
2100
,  // measure 63
0010
0000
0010
0000
3001
0000
0001
1000
,  // measure 64
0001
0100
0001
1000
0001
0100
0001
1000
,  // measure 65
0010
0100
0010
1000
0010
0000
0100
0000
,  // measure 66
0001
0010
1000
0010
0001
0010
1000
0010
,  // measure 67
0001
0100
0001
0010
0001
0000
0100
0000
,  // measure 68
0010
1000
0100
1000
0010
1000
0100
1000
,  // measure 69
0100
0001
0100
1000
0100
0000
0010
0000
,  // measure 70
0001
0100
0001
0010
0001
1000
0001
0100
,  // measure 71
0010
1000
0001
0100
0010
0000
0110
0000
,  // measure 72
2002
0000
0000
0000
,  // measure 73
3003
0000
0000
0000
;

//---------------dance-single - DDRDAIKENKAI----------------
#NOTES:
     dance-single:
     DDRDAIKENKAI:
     Medium:
     5:
     0.400,0.432,0.168,0.264,0.000: // measure 1
0000
0000
0000
0000
,  // measure 2
0000
0000
0000
0000
,  // measure 3
0000
0000
0000
0000
,  // measure 4
0000
0000
0000
0000
,  // measure 5
1000
1000
1000
1000
,  // measure 6
0001
0001
0001
0001
,  // measure 7
0100
0010
0100
0010
,  // measure 8
1000
0001
1000
0001
,  // measure 9
2002
0000
0000
3003
,  // measure 10
0001
0010
1000
0010
,  // measure 11
0001
0100
0001
0100
0010
0000
0000
0000
,  // measure 12
1000
0100
0001
0100
,  // measure 13
1000
0100
1000
0100
0010
0000
0000
0000
,  // measure 14
0001
1000
0010
0100
,  // measure 15
0001
1000
0001
1000
0100
0000
0000
0000
,  // measure 16
1000
0010
0100
0001
,  // measure 17
0010
0100
0010
0100
1000
0000
0000
0000
,  // measure 18
0001
0100
0000
0010
0000
1000
0000
0100
,  // measure 19
0000
1000
0000
0010
0000
0100
0000
0001
,  // measure 20
0000
0010
0000
0010
0000
0010
0000
0010
,  // measure 21
0000
0100
0000
0100
0000
0100
0010
0100
,  // measure 22
0010
0000
1001
0000
0001
1000
0100
0000
,  // measure 23
0010
0000
0101
0000
0010
1000
0100
0000
,  // measure 24
1000
0000
0110
0000
0001
0010
0100
0000
,  // measure 25
1000
0001
0100
0000
0001
1000
0100
0000
,  // measure 26
0110
0000
0110
0000
1001
0000
0001
1000
,  // measure 27
0001
0000
0100
0000
0010
1000
0010
0000
,  // measure 28
0100
0001
0100
0000
0001
0010
0100
0000
,  // measure 29
0110
0011
1001
1100
,  // measure 30
2002
0000
0000
3003
,  // measure 31
1001
0001
0100
0010
,  // measure 32
1000
0000
0100
0000
1000
0001
1000
0001
,  // measure 33
0100
0001
0010
1000
,  // measure 34
0020
0032
0203
0310
,  // measure 35
1000
0100
1000
0010
,  // measure 36
0001
0000
0010
0000
1000
0001
1000
0001
,  // measure 37
0100
0010
0100
0001
,  // measure 38
0020
0000
0032
0000
0203
0000
0310
1000
,  // measure 39
0010
0100
0001
0010
,  // measure 40
0100
1000
0100
1000
0020
0000
0130
0000
,  // measure 41
0001
0000
0010
0000
0001
0100
0010
0000
,  // measure 42
2000
0000
3002
0000
0023
0000
0130
0010
,  // measure 43
0001
0000
2000
0000
3001
0100
0001
0000
,  // measure 44
1000
0010
1000
0010
0100
0000
0001
0000
,  // measure 45
1000
0100
0010
0001
,  // measure 46
0100
0010
0100
0010
1000
0000
1001
0000
,  // measure 47
0002
0000
1000
0000
,  // measure 48
0100
0100
0100
0103
,  // measure 49
0200
0000
0010
0000
,  // measure 50
0010
0000
0010
0000
0010
0300
0110
0000
,  // measure 51
1020
0000
1000
0000
,  // measure 52
0100
0100
0100
1000
,  // measure 53
2030
0000
0100
0000
,  // measure 54
0010
0010
0010
3001
,  // measure 55
2002
0000
0000
3003
,  // measure 56
1001
0001
0010
0100
,  // measure 57
1000
0000
0010
0000
0100
0001
0010
0001
,  // measure 58
0100
0010
1000
0100
,  // measure 59
0020
0032
0203
0310
,  // measure 60
1000
0001
1000
0010
,  // measure 61
0100
0000
0001
0000
0010
0100
1000
0100
,  // measure 62
0010
0001
0100
0010
,  // measure 63
0200
0000
0302
0000
2003
0000
3100
1000
,  // measure 64
0100
0010
0001
1000
,  // measure 65
0010
0100
0010
0100
0002
0000
1003
0000
,  // measure 66
0100
0000
0010
0000
0100
1000
0001
0000
,  // measure 67
0200
0000
0320
0000
2030
0000
3001
0100
,  // measure 68
0010
0000
0110
0000
0010
1000
0100
0000
,  // measure 69
0010
0001
1000
0100
0010
0000
0001
0100
,  // measure 70
0001
0100
0010
1000
,  // measure 71
0001
0100
0010
1000
0001
0000
0110
0000
,  // measure 72
2002
0000
0000
0000
,  // measure 73
3003
0000
0000
0000
;

//---------------dance-single - DDRDAIKENKAI----------------
#NOTES:
     dance-single:
     DDRDAIKENKAI:
     Beginner:
     1:
     0.134,0.170,0.032,0.000,0.000: // measure 1
0000
0000
0000
0000
,  // measure 2
0000
0000
0000
0000
,  // measure 3
0000
0000
0000
0000
,  // measure 4
0000
0000
0000
0000
,  // measure 5
1000
0000
0000
0000
,  // measure 6
0001
0000
0000
0000
,  // measure 7
0100
0000
0000
0000
,  // measure 8
0010
0000
0000
0000
,  // measure 9
0110
0000
0000
0000
,  // measure 10
0100
0000
0100
0000
,  // measure 11
0001
0000
0001
0000
,  // measure 12
1000
0000
1000
0000
,  // measure 13
0001
0000
0001
0000
,  // measure 14
0100
0000
0100
0000
,  // measure 15
0010
0000
0010
0000
,  // measure 16
1000
0000
1000
0000
,  // measure 17
0001
0000
0001
0000
,  // measure 18
1001
0000
0000
0000
,  // measure 19
1000
0000
0000
0000
,  // measure 20
0001
0000
0000
0000
,  // measure 21
1000
0000
0000
0000
,  // measure 22
0001
0001
0000
0001
,  // measure 23
0000
0100
0000
0100
,  // measure 24
0000
0010
0000
0010
,  // measure 25
0000
1000
0000
0001
,  // measure 26
0001
0001
0000
1000
,  // measure 27
0000
0001
0000
1000
,  // measure 28
0000
0010
0000
0100
,  // measure 29
0100
0100
0100
0000
,  // measure 30
1001
0000
0000
0000
,  // measure 31
0100
0000
0100
0000
,  // measure 32
0001
0000
1000
0000
,  // measure 33
0100
0000
0010
0000
,  // measure 34
0001
0000
0001
0000
,  // measure 35
1000
0000
0001
0000
,  // measure 36
1000
0000
0001
0000
,  // measure 37
0100
0000
0100
0000
,  // measure 38
0010
0000
0010
0000
,  // measure 39
1000
0000
0010
0000
,  // measure 40
0100
0000
0000
0000
,  // measure 41
0001
0000
0100
0000
,  // measure 42
0010
0000
0000
0000
,  // measure 43
1000
0000
0000
0000
,  // measure 44
0001
0000
0000
0000
,  // measure 45
1000
0000
0000
0000
,  // measure 46
0001
0000
0000
0000
,  // measure 47
0100
0000
0000
0000
,  // measure 48
0000
0000
0000
0000
,  // measure 49
0010
0000
0000
0000
,  // measure 50
0000
0000
0000
0000
,  // measure 51
0010
0000
0000
0000
,  // measure 52
0000
0000
0000
0000
,  // measure 53
0100
0000
0000
0000
,  // measure 54
0000
0000
0000
0000
,  // measure 55
0110
0000
0000
0000
,  // measure 56
0100
0000
0001
0000
,  // measure 57
1000
0000
0100
0000
,  // measure 58
0010
0000
0001
0000
,  // measure 59
1000
1000
1000
0000
,  // measure 60
0001
0000
1000
0000
,  // measure 61
0010
0000
0100
0000
,  // measure 62
0010
0000
1000
0000
,  // measure 63
0001
0001
0001
0000
,  // measure 64
1000
0000
0100
0000
,  // measure 65
0010
0010
0010
0000
,  // measure 66
0001
0000
0100
0000
,  // measure 67
0010
0010
0010
0000
,  // measure 68
1000
0000
0010
0000
,  // measure 69
0100
0000
0001
0000
,  // measure 70
0010
0000
0100
0000
,  // measure 71
1000
0000
0001
0000
,  // measure 72
1000
0000
0000
0000
;

//---------------dance-single - DDRDAIKENKAI----------------
#NOTES:
     dance-single:
     DDRDAIKENKAI:
     Challenge:
     10:
     0.790,0.777,0.272,0.184,1.000: // measure 1
0000
0000
0000
0000
,  // measure 2
0000
0000
0000
0000
,  // measure 3
0000
0000
0000
0000
,  // measure 4
0000
0000
0000
0200
,  // measure 5
0301
0000
0000
0000
1000
0000
0000
0000
0100
0000
0000
0000
0010
0000
0000
0001
,  // measure 6
0100
0000
0000
0000
0010
0000
0000
0000
1000
0000
0000
0000
0100
0000
0000
1000
,  // measure 7
0010
0100
0010
0100
0001
1000
0001
1000
,  // measure 8
0001
0100
1000
0100
0001
0010
1000
0010
,  // measure 9
0022
0000
0000
M000
0000
0000
M000
0000
M000
0000
0000
MM33
0000
1000
0100
1000
,  // measure 10
0010
1000
0001
1000
0100
1000
0010
2000
0000
0000
0000
3001
0000
0100
0010
0100
,  // measure 11
0001
0100
0010
0100
1000
0100
0001
0100
M000
0000
00M0
0000
0M01
0010
0100
1000
,  // measure 12
0010
1000
0001
1000
0010
1000
0100
2000
0000
0000
0000
3001
0000
1000
0100
0010
,  // measure 13
0001
0010
0100
0010
1000
0010
0100
0010
M000
0000
0M00
0000
00M1
1000
0010
0100
,  // measure 14
0001
0010
0001
1000
0001
0100
0001
2000
0000
0000
0000
3001
0000
1000
0010
1000
,  // measure 15
0100
0010
0100
1000
0100
0010
0100
0001
M000
0000
00M0
0000
010M
1000
0010
0100
,  // measure 16
0001
1000
0010
0100
0010
1000
0010
2000
0000
0000
0000
3001
0000
1000
0001
0010
,  // measure 17
0001
1000
0100
0010
0001
0010
0100
1000
0001
0000
1000
0000
0100
0000
0010
0000
,  // measure 18
M001
0100
0001
0000
0M00
0000
1001
0000
000M
0000
1100
0000
00M0
0000
1010
0000
,  // measure 19
M01M
0100
0010
0000
MM00
0000
0110
0000
00MM
0000
0101
0000
0MM0
0000
1001
0000
,  // measure 20
0MM1
1000
0001
0000
MM0M
0000
0011
0000
0MMM
0000
1100
0000
M0MM
0000
0110
0000
,  // measure 21
0010
0100
0010
0000
1000
0000
0001
0000
0100
0000
0000
0000
0100
0001
0020
0000
,  // measure 22
0130
0000
0100
0010
0001
0000
0001
0100
0010
0000
0010
1000
0100
0000
0100
0010
,  // measure 23
0001
0000
0001
1000
0000
0100
1000
0000
0010
0000
1000
0001
0000
0010
0001
0000
,  // measure 24
0011
0000
0000
0000
1001
0000
0000
0000
0101
0000
0001
0100
0000
0010
1000
0000
,  // measure 25
0100
1000
0010
0100
0010
0100
0001
0000
0010
0001
0100
0010
0100
0010
1000
0000
,  // measure 26
1100
0000
1000
0000
1001
0000
1000
0000
1010
0000
0000
0000
0001
0010
0000
0001
,  // measure 27
0000
1000
0000
0100
0000
0010
0001
0000
0100
0000
0010
1000
0000
1000
0100
0000
,  // measure 28
1000
0000
0010
0100
0000
0010
0100
0000
0001
0010
0000
0001
0000
1000
0100
0000
,  // measure 29
1100
1000
1010
0010
0110
0100
1002
0100
,  // measure 30
0203
0010
0010
0010
0310
0000
0110
0000
,  // measure 31
1001
0000
0001
1000
0000
0001
1000
0000
0100
1000
0000
0100
0010
0000
0001
0000
,  // measure 32
0100
0000
0010
1000
0000
0010
1000
0000
0100
1000
0000
0100
1000
0000
0001
0000
,  // measure 33
0100
0000
0001
0010
0000
0001
0010
0000
0001
0100
0000
0010
0100
0000
1000
0000
,  // measure 34
0100
0001
0011
0000
1010
0001
0100
0000
,  // measure 35
0110
0000
0010
0100
0000
0010
0100
0000
0001
0100
0000
0001
1000
0000
0100
0000
,  // measure 36
0010
0000
0001
0100
0000
0001
0100
0000
0010
0100
0000
0010
1000
0000
0001
0000
,  // measure 37
0100
0000
0001
1000
0000
0001
1000
0000
0010
0100
0000
0010
0100
0000
0001
0000
,  // measure 38
0010
0000
0001
1000
0000
0001
1000
0000
0100
0000
0010
0000
0001
0100
0010
0100
,  // measure 39
0001
0010
0001
0100
0001
0010
0001
2000
0000
0000
0000
3001
0000
1000
0100
1000
,  // measure 40
0010
1000
0001
1000
0010
1000
0100
1000
000M
0000
00M0
0000
0M01
1000
0010
0100
,  // measure 41
0001
0100
0010
0100
1000
0100
0001
0200
0000
0000
0000
0301
0000
1000
0010
0100
,  // measure 42
0010
0001
0010
0100
0010
1000
0010
0100
M000
0000
00M0
0000
0M01
1000
0100
0010
,  // measure 43
0001
0100
0010
1000
0100
0010
0100
2000
0000
0000
0000
3010
0000
0100
0001
0010
,  // measure 44
0100
1000
0010
0100
0001
0010
0001
1000
00M0
0000
000M
0000
M001
0010
0001
0100
,  // measure 45
0010
1000
0100
1000
0010
0100
0001
0020
0000
0000
0000
0031
0000
1000
0100
0010
,  // measure 46
0001
0010
0100
0010
0001
0010
0100
1000
0001
0000
1000
0000
0100
0000
0010
0000
,  // measure 47
1M02
0000
0000
1003
0000
0000
1000
0000
000M
0100
0000
0000
0010
0000
0001
0000
,  // measure 48
10M0
0000
0000
0000
0001
0000
0100
0000
M000
0010
0000
0000
0100
0000
0001
0000
,  // measure 49
10M0
0000
0000
0001
0000
0000
0010
0000
000M
0100
0000
0000
1000
0000
0010
0000
,  // measure 50
M100
0000
0000
0001
0000
0000
0010
0000
M001
0000
0100
0000
M11M
0000
0010
0000
,  // measure 51
1M1M
0000
0000
0010
M000
0000
0100
0000
00M0
0001
0000
0000
100M
0000
0100
0000
,  // measure 52
00M1
0000
0000
0100
M000
0000
1000
0000
0M00
0010
0000
0000
M001
0000
0010
0000
,  // measure 53
200M
0000
0M00
3001
00M0
0000
M010
0000
000M
1000
0M00
0000
M010
0000
0M01
0000
,  // measure 54
01M0
0000
000M
1000
00M0
0000
M100
0000
00M1
0000
10M0
0000
010M
0000
M010
0000
,  // measure 55
2002
0000
0000
3003
,  // measure 56
1001
0000
1000
0001
0000
1000
0001
0000
0010
0001
0000
0010
0100
0000
1000
0000
,  // measure 57
0010
0000
0100
0001
0000
0100
0001
0000
0010
0001
0000
0010
0001
0000
1000
0000
,  // measure 58
0010
0000
1000
0100
0000
1000
0100
0000
1000
0010
0000
0100
0010
0000
0001
0000
,  // measure 59
0010
1000
1100
0000
0101
1000
0010
0000
,  // measure 60
0110
0000
0100
0010
0000
0100
0010
0000
1000
0010
0000
1000
0001
0000
0010
0000
,  // measure 61
0100
0000
1000
0010
0000
1000
0010
0000
0100
0010
0000
0100
0001
0000
1000
0000
,  // measure 62
0010
0000
1000
0001
0000
1000
0001
0000
0100
0010
0000
0100
0010
0000
1000
0000
,  // measure 63
0100
0000
1000
0001
0000
1000
0001
0000
0010
0000
0100
0000
1000
0010
0100
0010
,  // measure 64
1000
0100
1000
0010
1000
0100
1000
0002
0000
0000
0000
1003
0000
0001
0010
0001
,  // measure 65
0100
0001
1000
0001
0100
0001
0010
0001
M000
0000
0M00
0000
10M0
0001
0100
0010
,  // measure 66
1000
0010
0100
0010
0001
0010
1000
0020
0000
0000
0000
1030
0000
0001
0100
0010
,  // measure 67
0100
1000
0100
0010
0100
0001
0100
0010
000M
0000
0M00
0000
10M0
0001
0010
0100
,  // measure 68
1000
0010
0100
0001
0010
0100
0010
0002
0000
0000
0000
0103
0000
0010
1000
0100
,  // measure 69
0010
0001
0100
0010
1000
0100
1000
0001
00M0
0000
0M00
0000
100M
0100
1000
0010
,  // measure 70
0100
0001
0010
0001
0100
0010
1000
0200
0000
0000
0000
1300
0000
0001
0010
0100
,  // measure 71
1000
0100
0010
0100
1000
0100
0010
0001
1000
0000
0010
0000
0110
0000
0000
0000
,  // measure 72
0002
0000
0000
0000
,  // measure 73
0003
0000
0000
0000
;

//---------------dance-single - DDRDAIKENKAI----------------
#NOTES:
     dance-single:
     DDRDAIKENKAI:
     Easy:
     3:
     0.269,0.288,0.040,0.184,0.000: // measure 1
0000
0000
0000
0000
,  // measure 2
0000
0000
0000
0000
,  // measure 3
0000
0000
0000
0000
,  // measure 4
0000
0000
0000
0000
,  // measure 5
1000
0001
1000
0001
,  // measure 6
0100
0010
0100
0010
,  // measure 7
1000
1000
1000
1000
,  // measure 8
0001
0001
0001
0001
,  // measure 9
2002
0000
0000
3003
,  // measure 10
0001
0100
0010
1000
,  // measure 11
0100
0100
0100
0000
,  // measure 12
1000
0010
0100
0001
,  // measure 13
0010
0010
0010
0000
,  // measure 14
0001
0010
0100
1000
,  // measure 15
0001
0001
0001
0000
,  // measure 16
1000
0100
0010
0001
,  // measure 17
1000
1000
1000
0000
,  // measure 18
0010
0010
0010
0010
,  // measure 19
0100
0100
0100
0100
,  // measure 20
0001
0001
0001
0001
,  // measure 21
1000
1000
1000
1000
,  // measure 22
0010
1000
0100
0010
,  // measure 23
0001
0100
0010
1000
,  // measure 24
0001
0010
0100
1000
,  // measure 25
0010
0100
0001
1000
,  // measure 26
0100
0001
0100
1000
,  // measure 27
0010
0001
0010
1000
,  // measure 28
0010
0010
0100
0100
,  // measure 29
0001
0010
0100
1000
,  // measure 30
2002
0000
0000
3003
,  // measure 31
0001
1000
0010
0100
,  // measure 32
0001
0000
0001
0010
,  // measure 33
0100
0100
1000
1000
,  // measure 34
0010
1000
0100
0010
,  // measure 35
0001
0001
1000
1000
,  // measure 36
0001
0000
1000
0001
,  // measure 37
0100
0010
1000
0100
,  // measure 38
1000
0010
0100
0001
,  // measure 39
0010
0000
0001
0000
,  // measure 40
0100
0010
0200
0300
,  // measure 41
0001
0000
1000
0000
,  // measure 42
0200
0320
0032
0003
,  // measure 43
1000
0000
0001
0000
,  // measure 44
0200
0000
0310
0000
,  // measure 45
2000
0000
3001
0000
,  // measure 46
0010
0100
1000
1001
,  // measure 47
0002
0000
0000
0000
,  // measure 48
0100
0000
0103
0000
,  // measure 49
0020
0000
0000
0000
,  // measure 50
1000
0000
1030
0000
,  // measure 51
0002
0000
0000
0000
,  // measure 52
1000
0000
1003
0000
,  // measure 53
2000
0000
0000
0000
,  // measure 54
0100
0000
3100
0000
,  // measure 55
0220
0000
0000
0330
,  // measure 56
0001
0100
0010
1000
,  // measure 57
0010
0000
0100
0001
,  // measure 58
1000
1000
0100
0100
,  // measure 59
0010
0001
0100
0010
,  // measure 60
1000
1000
0001
0100
,  // measure 61
0010
0000
0100
0001
,  // measure 62
0010
0001
0100
0010
,  // measure 63
1000
0001
0010
0100
,  // measure 64
1000
0000
0001
0000
,  // measure 65
0100
0010
0200
0300
,  // measure 66
0001
0000
1000
0000
,  // measure 67
0020
0230
0302
0003
,  // measure 68
1000
0000
0001
0000
,  // measure 69
0020
0000
0130
0000
,  // measure 70
2000
0000
3001
0000
,  // measure 71
0100
0010
1000
1001
,  // measure 72
0002
0000
0000
0000
,  // measure 73
0003
0000
0000
0000
;
