#TITLE:Lucifer;
#SUBTITLE:;
#ARTIST:SHINee;
#TITLETRANSLIT:;
#SUBTITLETRANSLIT:;
#ARTISTTRANSLIT:;
#GENRE:K-POP;
#CREDIT:;
#BANNER:Lucifer.png;
#BACKGROUND:Lucifer-bg.png;
#LYRICSPATH:;
#CDTITLE:;
#MUSIC:Lucifer.ogg;
#OFFSET:0.000000;
#SAMPLESTART:82.535004;
#SAMPLELENGTH:14.900000;
#SELECTABLE:YES;
#BPMS:0.000000=124.999992
;
#STOPS:260.000000=3.360000
;
#BGCHANGES:16.000=Lucifer.avi=1.000=1=0=1===CrossFade==,
260.063=Lucifer-bg.png=1.000=0=0=1=====,
99999=-nosongbg-=1.000=0=0=0 // don't automatically add -songbackground-
;
#KEYSOUNDS:;
#ATTACKS:;

//---------------dance-single - DDRDAIKENKAI----------------
#NOTES:
     dance-single:
     DDRDAIKENKAI:
     Hard:
     9:
     0.694910,0.705038,0.131679,0.867531,0.379545,499.000000,17.000000,112.000000,0.000000,0.000000,0.000000,0.694910,0.705038,0.131679,0.867531,0.379545,499.000000,17.000000,112.000000,0.000000,0.000000,0.000000:
// measure 0
0000
0000
0000
0000
,  // measure 1
0000
0000
0000
0000
,  // measure 2
0000
0000
0000
0000
,  // measure 3
0000
0000
0000
0000
,  // measure 4
2000
3020
0230
0302
0023
0230
0301
0100
,  // measure 5
0200
0320
0230
2300
3200
0320
2030
0000
,  // measure 6
3020
0032
2003
3020
0032
0203
1300
0000
,  // measure 7
0002
0023
2030
0000
3002
0203
2300
0000
,  // measure 8
3001
0010
0001
0000
0100
0000
0010
1000
0000
0000
1000
0100
1000
0000
0010
0000
,  // measure 9
0100
0000
0001
0000
0010
0000
0100
1000
0000
0000
0001
0010
0001
0000
0100
0000
,  // measure 10
0010
0000
1000
0000
0100
0000
0010
0000
0100
1000
0000
0001
0000
0000
1000
0010
,  // measure 11
1000
0000
0001
0000
0100
0000
0010
1000
0000
0000
0001
1000
0001
1000
0002
0000
,  // measure 12
1000
0000
1003
0100
0000
0100
1000
0000
0000
0000
0001
1000
0001
0000
0010
0000
,  // measure 13
0010
0000
0010
0000
0010
0000
0010
0000
0020
0000
0031
1000
0100
0000
1000
0000
,  // measure 14
0001
0000
0100
0010
0000
0100
0010
0000
0000
0000
1000
0100
1000
0000
0020
0000
,  // measure 15
0032
0023
2030
3200
0320
0032
2000
3003
,  // measure 16
1000
0100
1000
0010
0100
0001
0010
0001
,  // measure 17
1000
0010
0200
0000
0301
0010
0011
0000
,  // measure 18
0001
0100
0020
0000
1030
0100
1100
0000
,  // measure 19
1000
0001
0200
0000
0310
1000
1002
0000
,  // measure 20
2003
3002
0200
0303
0101
0000
0200
2300
,  // measure 21
3200
0302
0023
0230
1300
0000
0020
0032
,  // measure 22
0023
2030
3200
0320
0032
0000
0023
2030
,  // measure 23
3020
0032
0023
0230
2300
0000
3001
0000
,  // measure 24
0010
0001
0100
1000
0010
0001
0100
1000
,  // measure 25
0010
1000
0100
0001
0010
1000
0100
0002
,  // measure 26
1003
0100
0000
0100
1000
0000
1000
0010
0000
0000
0100
0000
0110
0000
0020
0000
,  // measure 27
0130
0001
0000
0001
0010
0000
0010
0100
0000
0000
1000
0000
1001
0000
0002
0000
,  // measure 28
1003
0100
0000
0100
1000
0000
1000
0001
0000
0000
1000
0000
1001
0000
0200
0000
,  // measure 29
0301
0010
0000
0010
0100
0000
0100
1000
0000
0000
0001
0000
2002
0000
3003
0000
,  // measure 30
1000
0100
0000
1000
0010
0000
0100
0001
0000
0000
1000
0000
1000
0000
1000
0000
,  // measure 31
0001
0010
0000
0001
0100
0000
0010
1000
0000
0000
0001
0000
0001
0000
0001
0000
,  // measure 32
1000
0010
0000
1000
0100
0000
0010
0001
0000
0000
1000
0000
1000
0000
2000
0000
,  // measure 33
0010
0010
0000
0001
0001
0000
0100
0100
0000
0000
0001
0000
3002
0000
0000
0000
,  // measure 34
0010
0010
0000
0010
0010
0000
0010
0010
0000
0000
0000
1000
2000
0000
0000
0000
,  // measure 35
0003
0000
0100
0000
3100
0000
0010
0100
0010
0000
0010
0100
1000
0000
1000
0000
,  // measure 36
0000
0000
0001
1000
0001
0000
1000
0100
1000
0010
1000
0010
0001
0000
0001
0000
,  // measure 37
0000
0000
0010
1000
0010
0000
1000
0100
1000
0100
0000
0001
0000
0000
0100
1000
,  // measure 38
0010
1000
0000
0001
0000
0000
0001
1000
0001
0000
0001
0000
1000
0000
2000
0000
,  // measure 39
3000
0000
0010
0000
0001
0010
1000
0100
0010
0001
0000
1000
0000
0001
0100
0001
,  // measure 40
1000
0000
0010
0000
0100
0000
0010
0000
0001
0010
0100
0001
0000
2000
0000
0000
,  // measure 41
3000
0000
0100
1000
0001
0000
0100
0000
0001
1000
0000
0100
0000
0010
0100
0010
,  // measure 42
0001
0000
1000
0000
0100
0010
0001
0100
0010
1000
0000
2000
0002
0000
3003
0000
,  // measure 43
1000
0010
1000
0100
0010
0100
1000
0010
,  // measure 44
0001
0000
0010
0000
2000
0000
0000
3000
0001
0000
0010
0000
0110
0000
0000
0000
,  // measure 45
0010
0001
0200
0000
0310
1000
1001
0000
,  // measure 46
0001
1000
0200
0000
1300
0001
2001
0000
,  // measure 47
3020
0032
0020
0033
0011
0000
0020
2030
,  // measure 48
3200
0302
0203
2300
3002
0000
2003
3002
,  // measure 49
0023
0230
0302
0203
2300
3000
0020
0032
,  // measure 50
0023
2030
3200
0320
0032
0000
1003
1000
,  // measure 51
0001
0010
0001
0001
1000
0100
1000
1000
,  // measure 52
0010
0001
0010
1000
0100
0001
0100
0020
,  // measure 53
0000
0000
0031
0100
0001
0000
0010
0000
0100
1000
0100
1000
0100
0000
0001
0000
,  // measure 54
0000
0000
0100
1000
0100
0000
0010
0000
0001
0100
0001
0100
1000
0000
0100
0000
,  // measure 55
0001
0000
0010
0000
0001
0000
0001
0000
0100
0000
1000
0000
0000
0000
0100
0001
,  // measure 56
0100
0000
0010
0000
0000
0000
1000
0100
1000
0000
0010
0000
0001
0000
0002
0000
,  // measure 57
0000
0000
0013
1000
0001
0000
1000
0000
0100
0010
0001
0010
0100
0000
1000
0000
,  // measure 58
0000
0000
0010
0100
0001
0000
1000
0000
0100
0010
0100
1000
0001
0000
1001
0000
,  // measure 59
0001
0000
1000
0010
1000
0000
0001
0100
0001
0000
1000
0100
1000
0000
0001
0010
,  // measure 60
0001
1000
1200
0000
0310
0001
1001
0000
,  // measure 61
0001
0000
1000
0001
0200
0000
0000
0000
0301
0000
1000
0000
2001
0000
0000
0000
,  // measure 62
3010
0000
1000
0001
0200
0000
0000
0000
0310
0000
1000
0000
2001
0000
0000
0000
,  // measure 63
3010
1000
0100
0001
0010
1000
0100
0001
,  // measure 64
0010
0001
0100
1000
0010
0001
0100
2000
,  // measure 65
0002
3003
0000
0000
0000
0000
0000
0000
0000
0000
0000
0000
0000
0000
0000
0000
0000
0000
0000
0000
0000
0000
0000
0000
0000
0000
0000
0000
0000
0000
0000
0000
0000
0000
0000
0000
0000
0000
0000
0000
0000
0000
0000
0000
0000
0000
0000
0000
0000
0000
0000
0000
0000
0000
0000
0000
0000
0000
0000
0000
0000
0000
0000
0000
;

//---------------dance-single - DDRDAIKENKAI----------------
#NOTES:
     dance-single:
     DDRDAIKENKAI:
     Medium:
     6:
     0.438192,0.377699,0.015492,0.302087,0.015492,355.000000,2.000000,39.000000,0.000000,0.000000,0.000000,0.438192,0.377699,0.015492,0.302087,0.015492,355.000000,2.000000,39.000000,0.000000,0.000000,0.000000:
0000
0000
0000
0000
,
0000
0000
0000
0000
,
0000
0000
0000
0000
,
0000
0000
0000
0000
,
1000
0000
0010
0000
0100
0000
0001
0001
,
0001
0000
0010
0000
0100
0100
0100
0000
,
1000
0000
0001
0000
0100
0100
0100
0000
,
0010
0100
0010
0000
0010
0100
0010
0000
,
1001
0000
0000
0000
1000
0000
0000
0100
0000
0000
1000
0000
0001
0000
0000
0000
,
1000
0000
0000
0000
0001
0000
0000
0010
0000
0000
0001
0000
1000
0000
0000
0000
,
0010
1000
0010
0000
0100
0001
0100
0000
,
0001
1000
0100
0010
0001
0000
1001
0000
,
1000
0000
0000
0001
0000
0000
1000
0000
0000
0000
0001
0000
1000
0000
0010
0000
,
0010
1000
0010
1000
0020
0000
1030
0000
,
0001
0000
0000
0010
0000
0000
0100
0000
0000
0000
1000
0000
0001
0000
0001
0000
,
0100
0001
0100
0001
0100
0001
0200
0000
,
0301
0010
0100
0000
1000
0001
0100
0000
,
0010
1000
0200
0000
0010
0010
0310
0000
,
0001
1000
0200
0000
1000
1000
1300
0000
,
0001
0100
0020
0000
0100
0100
0130
0000
,
0001
1000
0200
0000
1300
0000
0100
0010
,
0001
0000
0100
0001
0010
0000
0100
1000
,
0001
0000
0100
0001
1000
0000
0010
1000
,
0001
0000
0010
0001
2000
0000
3000
0000
,
0002
0000
1000
0000
0010
0010
0013
0000
,
0200
0000
0010
0000
0001
0001
0301
0002
,
0000
1003
0100
0000
0100
1000
0001
2000
,
0000
3010
0100
0000
0100
0001
0010
0002
,
0000
0103
0010
0000
1000
0010
1000
0200
,
0000
0310
0001
0200
0000
0010
0310
0000
,
1000
0001
1000
0000
0001
1000
0200
0000
,
0310
0000
0001
0000
1000
0100
0010
0002
,
0000
0000
0103
0000
0010
1000
0100
0020
,
0000
0000
0001
0000
0130
1000
0002
0000
,
0200
0000
0000
0003
,
0302
0000
2003
0000
3100
1000
0100
0000
,
0010
0001
0100
0000
0001
0010
0002
0000
,
1003
0000
0010
0000
0100
0001
0100
0000
,
0010
1000
0100
0000
1000
0001
2000
0000
,
3001
0010
0001
0010
0001
0010
0001
0010
,
0100
1000
0100
1000
0100
1000
0100
0000
,
1000
0010
1000
0010
1000
0010
1000
0000
,
0010
1000
0100
0000
0010
0001
0200
0000
,
0301
0000
1000
0000
0001
1000
0100
0000
,
0010
0001
0020
0000
0031
1000
0001
0000
,
1000
0000
0002
0000
0013
0001
0100
0000
,
0001
0000
0200
0000
0310
1000
0001
0000
,
1000
0100
2000
0000
3001
0000
0100
0001
,
1000
0000
0100
0010
0001
0000
0100
0001
,
0010
0000
0010
0100
1000
0000
1000
0010
,
0100
0000
0100
0001
2000
0000
3001
0001
,
0001
0100
0001
0100
0001
0100
0001
0100
,
0010
1000
0010
1000
0010
1000
0100
2000
,
0000
0000
0100
0000
0010
0010
3010
0000
,
0100
0000
0002
0000
0010
0010
0013
0000
,
0100
1000
0100
1000
0100
1000
0100
1000
,
0001
0100
0001
0100
0001
0100
0010
0200
,
0000
0000
0010
0000
0001
0001
0301
0000
,
1000
0000
0002
0000
0100
0100
0103
0000
,
0020
0000
2030
0000
3100
0010
0100
0000
,
0010
0001
0010
0000
0100
1000
0001
0000
,
1000
0001
0020
0000
0031
1000
0001
0000
,
1000
0001
0200
0000
0310
1000
0001
0000
,
1000
0100
1000
0100
1000
0100
1000
0100
,
0010
0001
0010
0001
0010
0001
0010
0002
,
2000
3003
0000
0000
0000
0000
0000
0000
0000
0000
0000
0000
0000
0000
0000
0000
0000
0000
0000
0000
0000
0000
0000
0000
0000
0000
0000
0000
0000
0000
0000
0000
0000
0000
0000
0000
0000
0000
0000
0000
0000
0000
0000
0000
0000
0000
0000
0000
0000
0000
0000
0000
0000
0000
0000
0000
0000
0000
0000
0000
0000
0000
0000
0000
;

//---------------dance-single - DDRDAIKENKAI----------------
#NOTES:
     dance-single:
     DDRDAIKENKAI:
     Easy:
     3:
     0.274423,0.251799,0.023237,0.092950,0.000000,233.000000,3.000000,12.000000,0.000000,0.000000,0.000000,0.274423,0.251799,0.023237,0.092950,0.000000,233.000000,3.000000,12.000000,0.000000,0.000000,0.000000:
0000
0000
0000
0000
,
0000
0000
0000
0000
,
0000
0000
0000
0000
,
0000
0000
0000
0000
,
0100
0100
0100
0001
,
1000
1000
1000
1000
,
0100
0100
0100
0100
,
0010
0001
0010
0001
,
1000
0001
1000
0001
,
0100
0010
0100
0010
,
1000
0100
1000
0010
,
0100
0001
1000
1000
,
0001
0010
0100
1000
,
0010
0010
0020
1030
,
0100
0010
0001
1000
,
0100
0100
0100
0200
,
0310
0001
0010
0001
,
1000
0010
1000
0010
,
0100
0001
0100
0001
,
1000
0100
1000
0100
,
0010
0001
1001
0001
,
0001
0100
0110
0100
,
0100
0010
2000
3001
,
0001
0010
0002
0003
,
0010
0001
0100
1000
,
0010
1000
0100
0001
,
1000
0100
1000
0010
,
0100
0001
0100
0010
,
1000
0001
1000
0010
,
0100
0001
0200
0300
,
0001
0010
0100
1000
,
1000
0010
0100
0001
,
0001
1000
0100
0010
,
0010
0100
1000
0002
,
2000
0000
0000
0003
,
0000
0001
0000
0001
,
0000
0100
0000
3100
,
0001
0001
1000
1000
,
0001
0001
1000
1000
,
0010
0100
0001
1000
,
0100
0010
0100
1000
,
0001
0010
0100
1000
,
2002
0000
0000
3003
,
0001
0001
1000
1000
,
0010
1000
0001
0001
,
1000
0001
0100
0100
,
0010
1000
0100
0100
,
1000
0001
1000
0001
,
0010
0100
1000
0001
,
0100
0010
1000
0001
,
0010
0100
2000
3001
,
0001
0010
0001
0001
,
1000
0100
1000
1000
,
0010
0010
0100
0100
,
0010
0010
0100
0100
,
0001
1000
0001
0001
,
1000
0100
1000
1000
,
0001
0010
0001
0010
,
0100
1000
0100
1000
,
0010
0010
1000
1000
,
0001
0001
1000
1000
,
0001
0001
0100
0100
,
0010
0010
0100
0100
,
0010
1000
0100
0001
,
0010
0001
0100
2000
,
0002
3003
0000
0000
0000
0000
0000
0000
0000
0000
0000
0000
0000
0000
0000
0000
0000
0000
0000
0000
0000
0000
0000
0000
0000
0000
0000
0000
0000
0000
0000
0000
0000
0000
0000
0000
0000
0000
0000
0000
0000
0000
0000
0000
0000
0000
0000
0000
0000
0000
0000
0000
0000
0000
0000
0000
0000
0000
0000
0000
0000
0000
0000
0000
;
