#TITLE:Love Shining;
#SUBTITLE:;
#ARTIST:Kasanova;
#TITLETRANSLIT:;
#SUBTITLETRANSLIT:;
#ARTISTTRANSLIT:;
#GENRE:SUPER EUROBEAT;
#CREDIT:;
#MENUCOLOR:;
#NEWMETERSYSTEM:NO;
#BANNER:Love Shining.png;
#BACKGROUND:Love Shining-bg.png;
#LYRICSPATH:;
#CDTITLE:CDTitle.png;
#MUSIC:Love Shining.ogg;
#OFFSET:0.000;
#SAMPLESTART:61.380;
#SAMPLELENGTH:12.000;
#SELECTABLE:YES;
#LISTSORT:;
#BPMS:0.000=156.010;
#STOPS:;
#BGCHANGES:;
#ATTACKS:;

//---------------dance-single - DDRDAIKENKAI----------------
#NOTES:
     dance-single:
     DDRDAIKENKAI:
     Hard:
     8:
     0.575,0.578,0.280,0.452,0.023:
0000
0000
0000
0000
,
0000
0000
0000
0000
,
0000
0000
0000
0000
,
0000
0000
0000
0000
,
0000
0000
0000
0000
,
0000
0000
0000
0000
,
0000
0000
0000
0000
,
0000
0000
0000
0000
0010
1000
0200
0000
,
1300
0001
0010
0001
0100
0010
1000
0200
,
0000
0000
1000
0000
2300
0000
0000
0000
3001
0000
0100
0001
0200
0000
0000
0000
,
0310
1000
0100
1000
0010
0100
0001
0020
,
0000
0001
0032
0000
1003
0001
0100
0000
,
0010
1000
0010
1000
0001
0100
0001
0100
,
0010
1000
0010
1000
0001
0100
0002
0000
,
2000
0000
0000
3003
,
1001
0000
1100
0000
0010
0001
0100
0000
,
0110
0010
0100
0001
0010
0001
0100
0020
,
0000
1030
0100
0010
0001
0010
0100
2000
,
0000
3001
0010
0200
0000
1300
0001
0020
,
0000
0031
1000
0010
0100
0001
0010
0100
,
1000
0100
0010
0001
1000
0002
0003
1000
,
0100
1000
0010
1000
0001
1000
0010
1000
,
0200
0000
1300
0010
0100
0001
0010
0100
,
1001
0000
1100
0000
1000
0001
0200
0000
,
0301
0010
0001
1000
0100
0010
0001
1000
,
0010
0100
0001
0010
0001
0100
0010
0000
,
1000
0001
1000
0100
0001
0100
1000
0001
,
0100
0010
1000
0000
1100
0000
0011
0000
,
0102
0000
0013
0000
0001
0100
1000
0100
,
0001
0010
0100
1000
0100
0001
0100
0010
,
0002
0000
0023
0000
0130
1000
0001
0000
,
0101
0000
0000
0110
0010
1000
1001
0001
,
0012
0000
1003
0000
0001
0010
0100
1000
,
0100
0010
0001
1000
0010
0120
0000
1030
,
0100
1000
0001
0100
1000
0100
0001
0010
,
0100
0000
0000
0000
1000
0010
1000
0100
1000
0000
0000
0000
0011
0000
0000
0000
,
0201
0000
0301
0000
0010
0100
1000
0100
,
0001
0100
0010
0100
0010
0001
0010
1000
,
1010
0000
0000
0110
0000
0000
0102
0000
,
0100
0000
0013
0001
0100
0010
1000
0100
,
0110
0000
0110
0000
0020
0001
0030
0002
,
0000
0000
1003
0000
0100
0000
1000
0000
0001
0000
0100
0010
0200
0000
0000
0000
,
0310
1000
0100
0010
0001
0100
0010
0000
,
1020
0130
2001
3100
,
0010
0001
0010
0001
1000
0100
1000
0100
,
0010
0001
0010
0001
1000
0100
2000
0000
,
3002
0000
0013
0001
0200
0000
0310
1000
,
1100
0000
0011
0000
1000
0001
0200
0000
,
0310
0000
0110
0000
2000
0001
0000
0001
,
3000
0000
0001
0000
0100
0000
0010
0000
0100
0000
0001
0010
0002
0000
0000
0000
,
1003
0100
0010
0001
0100
0010
1000
0000
,
2010
3100
1002
0013
,
0001
0100
0001
0100
0010
1000
0000
0002
,
0013
2000
3010
0002
0103
2000
3200
0000
,
0302
0000
2003
0000
3100
0010
0001
1000
,
1001
0000
1100
0000
0010
0001
0200
0000
,
0310
1000
0100
0001
1000
0010
0001
0020
,
0000
0031
0100
1000
0001
0010
0100
0002
,
0000
1003
0010
0200
0000
1300
0100
0020
,
0000
1030
0100
0010
0100
0001
0100
1000
,
0001
0010
0100
0001
0100
2000
3010
1000
,
0100
1000
0010
1000
0001
1000
0010
1000
,
0200
0000
1300
0001
0010
0001
0100
0010
,
1001
0000
0101
0000
0010
1000
0200
0000
,
1300
0000
0000
0000
;

//---------------dance-single - DDRDAIKENKAI----------------
#NOTES:
     dance-single:
     DDRDAIKENKAI:
     Medium:
     6:
     0.430,0.462,0.298,0.262,0.000:
0000
0000
0000
0000
,
0000
0000
0000
0000
,
0000
0000
0000
0000
,
0000
0000
0000
0000
,
0000
0000
0000
0000
,
0000
0000
0000
0000
,
0000
0000
0000
0000
,
0000
0000
0000
0000
,
1001
0000
1000
0000
0001
0100
0001
0000
,
1000
0000
0010
0000
1000
0100
1000
0000
,
0001
0000
0010
0000
0001
0100
0001
0000
,
0010
0000
0100
0000
1000
0010
1000
0000
,
0001
0100
0001
0000
1000
0010
1000
0000
,
0010
0100
0010
0000
0100
0001
0200
0000
,
0002
0000
0303
0000
,
1001
0000
1100
0000
0010
0001
0100
0000
,
0020
0000
1030
0100
1000
0000
0001
0010
,
0000
0001
0100
0000
0010
0000
1000
0100
,
0000
1000
0001
1000
0000
0001
0010
0001
,
0000
0100
0001
0000
0010
0100
0010
0000
,
0100
0000
1000
0010
0000
1000
0000
0100
,
0020
0032
0203
0320
,
0230
0000
0301
0000
1000
0100
1000
0000
,
0020
0000
0130
0000
0001
0010
0100
0000
,
2000
0000
3001
0000
1000
0001
0100
0000
,
0020
0000
0130
0000
0010
1000
0100
0000
,
1000
0001
1000
0000
0010
0100
0010
0000
,
0100
0001
0101
0011
,
0210
0000
1300
0000
0001
0010
0001
0000
,
2000
0000
3001
0000
0100
0010
1000
0000
,
1020
0000
0000
2030
0000
0000
3100
0000
,
0110
0000
0000
0011
0000
0000
1001
0000
,
2100
0000
3010
0000
0100
0001
0100
0000
,
0010
0000
1000
0000
0100
0020
0000
0130
,
1000
0001
0010
0100
,
1000
0000
0001
0100
0010
0000
1010
0000
,
1002
0000
1003
0000
0001
1000
0100
0000
,
1000
0000
0001
0000
0100
0002
0000
0013
,
0001
0000
0000
0110
0000
0000
2010
0000
,
0010
0000
3010
0000
1000
0010
0100
0001
,
0020
0000
0031
0000
0100
0010
0000
0010
,
0000
0010
0100
0000
0001
0010
0200
0000
,
1300
0001
0100
0000
0001
1000
0100
0000
,
1100
0010
1001
0010
,
0102
0000
0103
0000
0001
0010
0000
0001
,
0000
0100
0000
0010
0000
1000
0100
0000
,
1100
0010
1001
0010
,
0101
1100
0010
1001
,
0110
0000
0100
0000
0010
0100
0000
0010
,
0000
1000
0001
0000
0100
0001
0100
0000
,
0001
0010
0100
0000
1000
0100
0010
0000
,
0011
0100
1001
0010
,
1000
0100
1000
0000
0001
0010
0000
0001
,
0000
0100
0000
0010
0000
1000
0000
0000
,
1100
0000
0011
0000
1000
0001
0100
0000
,
1010
0000
0101
0000
0010
1000
0100
0000
,
1001
0000
0010
0001
0100
0000
0001
0010
,
0000
0100
1000
0000
0001
0000
1000
0010
,
0000
1000
0100
1000
0000
0010
0100
0010
,
0000
0100
0001
0000
0010
0001
0100
0000
,
0001
0000
0010
0100
0000
1000
0000
0001
,
0020
0032
2003
3020
,
0230
0000
0301
0000
1000
0010
1000
0000
,
1001
0000
1100
0000
0010
0001
0200
0000
,
0301
0000
0000
0000
;

//---------------dance-single - DDRDAIKENKAI----------------
#NOTES:
     dance-single:
     DDRDAIKENKAI:
     Easy:
     3:
     0.267,0.347,0.090,0.072,0.000: // measure 1
0000
0000
0000
0000
,  // measure 2
0000
0000
0000
0000
,  // measure 3
0000
0000
0000
0000
,  // measure 4
0000
0000
0000
0000
,  // measure 5
0000
0000
0000
0000
,  // measure 6
0000
0000
0000
0000
,  // measure 7
0000
0000
0000
0000
,  // measure 8
0000
0000
0000
0000
,  // measure 9
1000
1000
0001
0001
,  // measure 10
0100
0100
0000
0000
,  // measure 11
0001
0001
1000
1000
,  // measure 12
0100
0100
0000
0000
,  // measure 13
0010
0010
0001
0001
,  // measure 14
1000
1000
0010
0010
,  // measure 15
0200
0000
0000
0000
,  // measure 16
0300
0000
0000
0000
,  // measure 17
0001
1000
0001
1000
,  // measure 18
0100
0010
0001
0100
,  // measure 19
0010
0010
0100
0100
,  // measure 20
0001
0010
0100
1000
,  // measure 21
0001
1000
0001
1000
,  // measure 22
0010
1000
0001
0010
,  // measure 23
0100
0010
0001
1000
,  // measure 24
1001
1001
0001
1000
,  // measure 25
0100
0000
1000
0001
,  // measure 26
0001
1000
0001
0000
,  // measure 27
0100
0010
0010
0100
,  // measure 28
0010
0000
0100
0001
,  // measure 29
0010
0000
0100
0100
,  // measure 30
1000
0100
0100
0000
,  // measure 31
1000
0000
0000
1000
0000
0000
1000
0000
,  // measure 32
0001
0000
0000
0001
0000
0000
0001
0000
,  // measure 33
0200
0300
0010
1000
,  // measure 34
0100
0000
1000
0000
0002
0003
0000
0000
,  // measure 35
0010
0001
0010
0001
,  // measure 36
0100
0000
0110
0110
,  // measure 37
1001
0000
0010
0001
,  // measure 38
1000
0100
1000
0000
,  // measure 39
0010
0000
0000
0010
0000
0000
0100
0000
,  // measure 40
0100
0200
0000
0300
,  // measure 41
0001
0000
0010
0000
0001
0000
0000
1000
,  // measure 42
0000
0001
0100
0000
,  // measure 43
0010
1000
0100
0010
,  // measure 44
0001
0100
0001
0000
,  // measure 45
0010
0100
0010
0100
,  // measure 46
1000
0001
1000
0001
,  // measure 47
0020
0000
0230
0000
,  // measure 48
1300
1000
2000
3000
,  // measure 49
0001
0000
0100
0000
0010
0000
0000
0010
,  // measure 50
0000
1000
0100
0000
,  // measure 51
1000
0010
0100
0001
,  // measure 52
0010
0100
1000
0000
,  // measure 53
0001
0001
1000
1000
,  // measure 54
0001
0010
0001
0100
,  // measure 55
0020
0000
0130
0001
,  // measure 56
1001
1001
1000
0100
,  // measure 57
0010
0010
0001
0100
,  // measure 58
0010
1000
0100
1000
,  // measure 59
0010
0100
0001
0010
,  // measure 60
1000
0010
0001
0100
,  // measure 61
0010
1000
0100
0001
,  // measure 62
0100
1000
0001
0100
,  // measure 63
0010
0100
0001
0010
,  // measure 64
0110
0110
0100
1000
,  // measure 65
1001
0000
0000
0000
;
