#TITLE:Like It Or Leave It;
#SUBTITLE:;
#ARTIST:Aly & AJ;
#TITLETRANSLIT:;
#SUBTITLETRANSLIT:;
#ARTISTTRANSLIT:;
#GENRE:;
#CREDIT:;
#MENUCOLOR:;
#BANNER:Like It Or Leave It.png;
#BACKGROUND:Like It Or Leave It-bg.png;
#LYRICSPATH:;
#CDTITLE:CDTitle.png;
#MUSIC:Like It Or Leave It.ogg;
#OFFSET:-0.010;
#SAMPLESTART:27.780;
#SAMPLELENGTH:12.000;
#SELECTABLE:YES;
#LISTSORT:;
#BPMS:0.000=150.000;
#STOPS:199.500=0.800
;
#TICKCOUNT:0.000=2;
#BGCHANGES:;
#KEYSOUNDS:;
#ATTACKS:;

//---------------dance-single - DDRDAIKENKAI----------------
#NOTES:
     dance-single:
     DDRDAIKENKAI:
     Challenge:
     10:
     0.832,1.000,0.350,0.417,0.538: // measure 1
0000
0000
0000
0000
,  // measure 2
0000
0000
0000
0000
,  // measure 3
0000
0000
0000
0000
,  // measure 4
0000
0000
0000
0000
,  // measure 5
1000
0000
0002
0010
0003
0020
0001
0030
,  // measure 6
0200
0010
0300
0010
0100
0001
1000
0000
,  // measure 7
0100
0000
2000
0010
3000
0020
1000
0030
,  // measure 8
2000
0001
3000
0001
1000
0010
0100
0000
,  // measure 9
1001
1001
0200
1000
0300
2000
0100
3000
,  // measure 10
2000
0000
0001
0000
3000
0000
0002
0000
0100
0000
0003
0000
0001
1000
0010
0100
,  // measure 11
0001
0101
0100
0110
0010
1010
1000
1100
,  // measure 12
0100
0110
0010
0011
0101
1001
0110
2100
,  // measure 13
3100
1000
0100
1000
0010
1000
0010
1000
0001
1000
0001
1000
0001
0100
0001
0100
,  // measure 14
0001
0010
0001
0010
0001
0010
0100
0010
0100
0000
1000
0000
0010
0000
0110
0000
,  // measure 15
0010
1000
0001
1000
0010
0100
0001
1000
0001
0100
0010
1000
0100
0010
0001
0010
,  // measure 16
0100
1000
0010
0100
0001
0010
0100
1000
0001
0000
0100
0000
0010
0000
0110
0000
,  // measure 17
0001
0000
0000
0010
0000
0000
0000
0000
0000
0100
0000
0000
1000
0000
0000
0100
0000
0000
0010
0000
0000
0000
0000
0000
0001
0000
0000
0010
0000
0000
0100
0000
0000
0000
0000
0000
1001
0000
0000
0000
1000
0000
0000
0000
0100
0000
0000
0000
,  // measure 18
1100
0000
0000
0000
1000
0000
0000
0000
0001
0000
0000
0000
0101
0000
0000
0000
0001
0000
0000
0000
0100
0000
0000
0000
0110
0000
0000
0000
0000
0000
1001
0000
0000
0000
0000
0000
0110
0000
0000
0000
0000
0000
1000
0000
0000
0001
0000
0000
,  // measure 19
1000
0100
0110
0100
0010
0001
0100
0010
,  // measure 20
1000
0100
1100
1000
0001
0010
0100
2000
,  // measure 21
0010
3010
0100
0002
0010
0013
0001
0200
,  // measure 22
0001
0301
0010
0200
1000
1300
0100
0010
,  // measure 23
0001
1000
1100
1000
0001
0100
0001
2000
,  // measure 24
0000
0010
3020
0100
0130
0001
1000
1000
,  // measure 25
0001
0100
1000
0100
0001
1000
0100
0010
,  // measure 26
0001
0000
1000
0000
0001
0000
1000
0000
1100
0000
0000
1001
0000
0000
0200
0000
,  // measure 27
0301
0010
0011
0000
0001
0010
0100
1000
,  // measure 28
0010
1000
1010
0000
0010
1000
0001
1000
,  // measure 29
0010
0100
0001
0010
1000
0010
0001
0200
,  // measure 30
0010
0310
1000
0200
1000
1300
0100
0020
,  // measure 31
0001
0030
1100
0000
0001
0100
1000
0200
,  // measure 32
0000
1300
0010
0000
1000
0100
0001
0000
,  // measure 33
0010
0001
0100
0010
1000
0100
1000
0010
,  // measure 34
0000
0000
0200
0002
,  // measure 35
0000
0000
0000
0000
0303
0000
0000
0000
1000
0100
1000
0100
1000
0010
1000
0100
,  // measure 36
1000
0100
1000
0010
1000
0100
1000
0010
0100
0001
0100
0001
0010
0001
0100
0001
,  // measure 37
0100
0001
0010
0001
0100
0001
0010
0001
1000
0001
1000
0001
0100
0001
1000
0001
,  // measure 38
1000
0001
0100
0001
1000
0001
0100
0001
1000
0010
1000
0010
1000
0001
1000
0010
,  // measure 39
1000
0010
1000
0001
1000
0010
1000
0001
1000
0100
1000
0100
0010
0100
1000
0100
,  // measure 40
1000
0100
0010
0100
1000
0100
1000
0100
0010
0001
0010
0001
0010
0100
0010
0001
,  // measure 41
0010
0001
0010
0100
0010
0001
0010
0100
1000
0010
1000
0010
0100
0010
1000
0010
,  // measure 42
1000
0010
0100
0010
1000
0010
0100
0010
1000
0001
1000
0001
0100
0001
1000
0001
,  // measure 43
1000
0001
0100
0001
1000
0001
0100
0001
1000
0100
1000
0000
0001
0000
1000
0100
,  // measure 44
1000
0000
0010
0000
1000
0001
1000
0000
0010
0100
0010
0000
1000
0000
0010
0100
,  // measure 45
0001
0000
1000
0000
0001
0100
0010
0000
1000
0010
0100
0000
0010
0000
0100
0010
,  // measure 46
1000
0000
0001
0000
1000
0100
1000
0000
0001
0100
0001
0000
1000
0000
0010
0100
,  // measure 47
0010
0000
1000
0000
0001
0010
0001
0000
1000
0001
0000
0000
0100
0000
0001
1000
,  // measure 48
0000
0000
0100
0000
1000
0100
0000
0000
1000
0100
0000
0000
0010
0000
0001
0100
,  // measure 49
0000
0000
0010
0000
1000
0100
0000
0000
0100
1000
0000
0000
0001
0000
0100
0010
,  // measure 50
0000
0000
1000
0000
0001
1000
0100
0000
1100
0000
1010
0000
0101
0000
0011
0000
,  // measure 51
1000
0001
0011
0000
0001
1000
0010
0100
,  // measure 52
0001
1000
1100
0000
0010
0010
0100
2000
,  // measure 53
0000
3100
0010
0002
0000
0013
0100
2000
,  // measure 54
0000
3010
1000
0200
0000
1300
0010
0200
,  // measure 55
0001
0300
0011
0001
0010
0100
1000
0002
,  // measure 56
0000
1000
1003
0010
1000
0100
0001
1000
,  // measure 57
0001
0100
1000
0010
0001
0010
1000
0100
,  // measure 58
0010
0100
1000
0010
0100
0010
0000
0110
,  // measure 59
0020
0000
1030
0000
0001
0010
0001
2000
,  // measure 60
0100
3000
0110
0000
0001
0010
0001
0100
,  // measure 61
0010
0000
1000
0000
0100
0000
0010
0000
0001
0000
0010
0000
0100
0000
1000
0001
,  // measure 62
0000
0001
0100
0000
0010
1000
0100
1000
0010
0000
0100
0000
0001
0010
0100
0010
,  // measure 63
0001
0000
1100
0000
0001
0100
1000
0200
,  // measure 64
0000
1000
2300
0000
3010
0100
0002
0000
,  // measure 65
1003
0100
0010
0001
1000
0010
0100
0001
,  // measure 66
0000
0000
0002
2003
,  // measure 67
3200
1000
0300
1000
0200
0010
0300
0010
,  // measure 68
0200
1000
0300
1000
0010
0100
0001
0010
,  // measure 69
0002
0100
0003
0100
0002
0010
0003
0010
,  // measure 70
0100
1000
0010
0100
0000
0110
0000
1010
,  // measure 71
2000
0100
3000
0100
2000
0010
3000
0010
,  // measure 72
0200
0001
0300
0001
0010
0001
0100
0010
,  // measure 73
2000
0001
3000
0001
0020
0100
0030
0100
,  // measure 74
0010
0001
0100
0010
0100
0120
0130
0202
,  // measure 75
0300
0003
0000
0000
;

//---------------dance-single - DDRDAIKENKAI----------------
#NOTES:
     dance-single:
     DDRDAIKENKAI:
     Hard:
     8:
     0.590,0.619,0.117,0.484,0.163:
0000
0000
0000
0000
,
0000
0000
0000
0000
,
0000
0000
0000
0000
,
0000
0000
0000
0000
,
1000
0001
0000
0001
1000
0100
0000
0100
,
1000
0010
0000
0010
1000
0100
0010
0000
,
0001
0100
0000
0100
0001
1000
0000
1000
,
0001
0010
0000
0010
0001
0100
0010
0000
,
1000
0001
0000
0001
1000
0100
0000
0100
,
1000
0001
0000
0001
1000
0010
0100
0000
,
0001
1000
0001
1000
0100
1000
0100
1000
,
0100
0010
0100
0010
0001
0010
0001
2002
,
3003
000M
0M00
000M
M000
0M00
M000
0000
,
0000
0000
0000
0001
0010
0001
1000
0010
,
1000
000M
00M0
000M
M000
00M0
M000
0000
,
0000
0000
0000
0001
0010
0001
0100
0000
,
0001
0010
0000
0000
0010
0001
0000
0000
0001
1000
0000
0000
1000
0100
0000
0000
,
0100
0010
0001
0010
0001
0010
0001
0100
0010
1000
0000
0000
,
1020
0000
0130
0000
0010
1000
0100
0010
,
0001
0000
1100
0000
0001
0010
0001
0200
,
0000
0310
0000
2000
0000
3010
0100
0002
,
0000
0000
1003
0000
0100
0000
0020
0000
0000
0030
0100
0000
1000
0000
0002
0000
,
0000
0000
0003
1000
0001
0010
0100
2000
,
0000
0001
3001
0200
0000
0010
0310
0000
,
2000
0000
0000
0100
0000
0000
3100
0000
2000
0000
0000
0010
0000
0000
3010
0000
,
0200
0000
0000
0001
0000
0000
0301
0000
0020
0000
0000
0100
0000
0000
0130
0000
,
1000
0000
1100
0000
0100
0010
0001
2000
,
0100
3000
0100
1000
0000
1000
0010
0000
,
0010
0100
0001
1000
0000
1000
0001
0100
,
0000
0001
0010
0100
0000
0010
0001
0200
,
0010
0300
0110
0000
0010
0100
0001
2000
,
0000
3100
0010
0002
0000
1003
0100
0000
,
1000
0000
0000
1000
0000
0000
1000
0000
0100
0000
0000
0100
0000
0000
0100
0000
,
0000
0000
2000
0002
,
0000
0000
0000
0000
3003
0000
0000
0000
1000
0100
1000
0000
0001
0000
1000
0100
,
1000
0000
0001
0100
0000
0100
0000
0001
0010
0000
0010
0001
0100
0000
0010
1000
,
0100
0000
1000
0001
0000
0001
1000
0000
0010
0000
1000
0001
1000
0000
0010
0100
,
0010
0000
1000
0001
0000
0001
0100
0000
0010
0000
0000
0000
0000
0000
1000
0000
,
1100
0000
0001
0000
0101
0000
0001
0000
0010
0100
1000
0000
0001
0000
1000
0100
,
0010
0000
0001
0100
0000
0000
0000
0000
0010
1000
0000
0000
1100
0000
0000
0000
,
0010
0001
0101
0000
0001
0100
1000
0100
,
0001
1000
0100
0001
0200
1000
2300
0001
,
3001
1000
2000
0010
3020
0000
0130
0200
,
0000
0310
1000
0100
0020
0000
0100
0230
,
0000
1300
0001
0100
0010
1000
0100
0000
,
0010
0100
1000
0010
0200
0001
0300
0001
,
0010
0001
0100
0010
2000
0000
0000
3002
,
0000
0000
1003
0000
0100
0000
0010
0000
0002
0000
0000
0000
0000
0003
0020
0000
,
0000
0130
2000
0000
3002
0000
0000
0003
,
0010
0100
1000
0002
0100
0100
0100
M1M3
,
1000
0001
0100
0000
0001
1000
0100
0000
,
1000
0001
0010
0000
0001
0010
0100
2000
,
0000
3100
0010
0002
0000
0013
0100
2000
,
0000
3001
1000
0200
0000
1300
0001
0200
,
0010
0300
0000
0000
0110
0000
0000
0000
0010
0000
0100
0000
0001
0000
2000
0000
,
0000
3010
0100
0002
0000
1003
0100
0000
,
0010
0000
0000
0010
0000
0000
0010
0000
0001
0000
0000
0001
0000
0000
0001
0000
,
0100
0000
0000
0100
0000
0000
0100
0000
1000
0000
0000
1000
0000
0000
1000
0000
,
0010
0000
0110
0000
0010
0100
0001
2000
,
0100
3000
0000
0000
0100
0000
1000
0000
0000
0000
1000
0000
0010
0000
0000
0000
,
0010
0100
0001
1000
0000
1000
0001
0100
,
0000
0000
0010
0000
1000
0000
0200
0000
0000
0300
1000
0000
0100
0000
0020
0000
,
0001
0030
0000
0000
1100
0000
0000
0000
0001
0000
0100
0000
1000
0000
0200
0000
,
0000
0300
1000
0000
0001
0000
0200
0000
0000
0000
0001
0000
0002
0300
0000
0000
,
0023
0000
0000
0001
0000
0000
0031
0000
0200
0000
0000
0310
0000
0000
1000
0000
,
0000
0000
0002
2003
,
3100
0010
0000
0010
0100
1000
0000
1000
,
0001
0100
0001
0100
0002
0000
1003
0100
,
2000
0000
0001
3000
0000
0000
0001
0000
0100
0000
0010
0000
0000
0000
0010
0000
,
0100
0001
1000
0001
0000
1001
0000
1200
,
1300
0100
0000
0100
1000
0010
0000
0010
,
1000
0100
0010
0001
2000
0000
3100
0010
,
0001
0100
0000
0100
0010
1000
0000
1000
,
0010
0100
0001
1000
0002
0000
2000
0000
,
0003
3000
0000
0000
;

//---------------dance-single - DDRDAIKENKAI----------------
#NOTES:
     dance-single:
     DDRDAIKENKAI:
     Medium:
     6:
     0.392,0.494,0.267,0.334,0.000:
0000
0000
0000
0000
,
0000
0000
0000
0000
,
0000
0000
0000
0000
,
0000
0000
0000
0000
,
1000
0001
0000
0001
,
0000
1000
0100
1000
,
0000
0001
0000
1000
,
0000
0001
0010
0001
,
0000
0100
0000
0010
,
0000
0100
0010
0100
,
0001
0001
1000
1000
,
0001
1000
0001
1001
,
0001
0100
0001
0000
0001
0100
0002
0000
,
0003
0000
1000
0010
,
1000
0100
1000
0000
1000
0100
2000
0000
,
3000
0000
0010
0110
,
0001
0001
1000
1100
,
1010
1001
0101
0011
,
1001
0000
0010
0000
1000
0001
1000
0000
,
0010
0000
0100
0000
0001
1000
0001
0000
,
2000
0100
3200
1000
,
2300
0010
3020
0100
,
0230
0000
0301
0000
0001
0010
0001
0000
,
0200
0000
0310
0000
1000
0100
1000
0000
,
0001
0001
1000
1000
,
0001
1000
0101
1100
,
2002
3003
0010
1000
,
0002
0013
0002
1003
,
0001
0001
1000
1000
,
0010
1000
0200
0310
,
0020
0031
0001
1000
,
0200
1300
2000
3010
,
0110
0101
0110
1010
,
0000
0000
0002
2003
,
3000
0000
0001
0001
,
1000
1000
0001
0001
,
1000
1000
0001
1000
,
0001
1000
1001
0000
,
1000
1000
0010
0010
,
0100
0100
0010
0100
,
0010
0100
0010
0010
,
0010
0100
0200
0300
,
0010
0000
0110
0000
1002
0000
0000
0003
,
0000
1000
0001
2000
0000
0000
0000
3001
,
0000
0100
0200
0000
,
0010
0000
0000
0001
0300
0000
0000
0000
,
0010
0010
0002
0000
,
0000
1003
2000
0000
,
0000
3000
0200
0000
,
0000
0000
0300
0000
1000
0001
1000
0001
,
0000
1100
0100
1000
,
0000
1010
0010
1000
,
0001
0001
1000
1000
,
0001
1000
0001
0100
,
0010
0110
0010
0100
,
0002
0000
0010
0003
0020
0000
0001
0000
,
0031
0101
1000
1100
,
0101
1100
0110
1001
,
0102
0000
0103
0000
0100
0001
0100
0000
,
0010
0000
1020
0000
1030
0010
1000
0000
,
0001
1000
0001
0000
0100
0010
0100
0000
,
0001
1000
0001
0000
0010
0100
0010
0000
,
0002
0000
0103
0000
0100
0001
0100
0000
,
0020
0000
1030
0000
1000
0010
1000
0000
,
0010
0110
0101
1100
,
0000
0000
2000
3002
,
0103
0000
0001
0000
,
1000
1000
2000
3100
,
0200
0300
1000
0000
,
1000
0000
0010
1000
0000
0010
0000
0200
,
0000
0300
0000
0000
0001
0000
0001
0000
,
1000
0001
0002
1003
,
2000
3001
1000
0100
,
1000
0100
0020
0032
,
0003
0000
0000
0000
;

//---------------dance-single - DDRDAIKENKAI----------------
#NOTES:
     dance-single:
     DDRDAIKENKAI:
     Easy:
     4:
     0.319,0.461,0.133,0.509,0.000:
0000
0000
0000
0000
,
0000
0000
0000
0000
,
0000
0000
0000
0000
,
0000
0000
0000
0000
,
0000
1000
0000
0001
,
0000
0100
0100
0100
,
0000
0001
0000
1000
,
0000
0100
0100
0100
,
0000
1000
0000
0001
,
0000
0010
0000
0001
,
0002
0003
0020
0030
,
0200
0300
1000
1000
,
0001
0001
0001
0002
,
0003
0000
1000
0001
,
1000
1000
1000
2000
,
3000
0000
0001
1000
,
0010
0010
0100
0100
,
0010
0100
0010
0110
,
0220
0330
1000
0001
,
2000
3000
0001
1000
,
0001
0001
0100
0100
,
0001
1000
0001
1000
,
0200
0300
1000
0100
,
2000
3000
0200
0300
,
1000
1000
0001
0001
,
1000
0001
1000
0001
,
2002
3003
0001
1000
,
0200
0300
2000
3000
,
0010
0010
0100
0100
,
0010
0100
0220
0330
,
2002
3003
0001
1000
,
0002
0003
0200
0300
,
0001
1000
0001
1000
,
0000
0000
0100
0200
,
0300
0000
1000
1000
,
2000
3000
0001
0001
,
0002
0003
0100
0100
,
0200
0300
0110
0000
,
0110
0110
1000
1000
,
2000
3000
0002
0003
,
0200
0300
0001
0001
,
0001
1000
0002
0003
,
1000
1000
2000
0000
,
0000
0000
0200
0000
,
0000
3300
0020
0000
,
0000
0000
0002
0000
,
0000
0033
0002
0000
,
0000
0000
0200
0000
,
0000
0303
0020
0000
,
0000
0000
2000
0000
,
3030
1000
0000
0001
,
0000
1000
1000
1000
,
1000
0001
0001
0100
,
0100
0010
0010
1000
,
2002
3003
0001
1000
,
2200
3300
0022
0033
,
1000
0010
0001
0100
,
1100
0101
1100
0101
,
2002
3003
0001
0001
,
2000
3000
0002
0003
,
0100
0001
1000
0001
,
0100
0010
0020
1030
,
2000
3000
0100
1000
,
0200
0300
2000
3000
,
0001
1000
0001
1000
,
0000
0000
0010
0020
,
0030
0000
0100
0000
,
0001
0001
0002
0003
,
2000
3000
0200
0300
,
1000
0001
1000
0001
,
0200
0300
0020
0030
,
1000
0001
1000
0001
,
2000
3000
0200
0300
,
0020
0030
0002
0003
;

//---------------dance-single - DDRDAIKENKAI----------------
#NOTES:
     dance-single:
     DDRDAIKENKAI:
     Beginner:
     2:
     0.186,0.247,0.042,0.125,0.000:
0000
0000
0000
0000
,
0000
0000
0000
0000
,
0000
0000
0000
0000
,
0000
0000
0000
0000
,
1000
0000
1000
0000
,
1000
0000
1000
0000
,
0001
0000
0001
0000
,
0001
0000
0001
0000
,
0100
0000
0100
0000
,
0100
0000
0100
0000
,
0220
0000
0000
0000
,
0000
0000
0000
0330
,
0000
0100
0000
0100
,
0000
0001
0001
0001
,
0000
1000
0000
1000
,
0000
0100
0100
0100
,
0000
0100
0000
0100
,
0000
0100
0100
0100
,
0000
0010
0000
0010
,
0000
0001
0000
0001
,
0000
1000
0000
1000
,
0000
0010
0000
0010
,
0000
0100
0000
0100
,
0000
0001
0000
0001
,
0001
0000
1000
0000
,
0001
0001
0001
0001
,
0001
0000
1000
0000
,
0010
0000
0100
0000
,
0001
0000
1000
0000
,
0100
0100
0200
0300
,
0000
0100
0000
1000
,
0000
0010
0010
0010
,
0010
0000
0100
0000
,
0000
0000
2002
3003
,
0000
0000
1000
0000
,
1000
0000
0100
0000
,
0100
0000
0010
0000
,
0010
0000
0001
0000
,
0000
0000
0001
0000
,
0001
0000
0010
0000
,
0010
0000
0100
0000
,
0100
0000
1000
0000
,
0000
0000
2000
0000
,
3000
0000
0200
0000
,
0300
0000
0020
0000
,
0030
0000
0002
0000
,
0003
0000
2002
0000
,
0000
0000
0000
0000
,
0000
0000
0000
0000
,
0000
0000
3003
0000
,
0000
1000
0000
1000
,
0000
0010
0010
0010
,
0000
0100
0000
0100
,
0000
0001
0001
0001
,
0000
0010
0000
1000
,
0000
0010
0000
0001
,
0001
0000
0100
0000
,
0010
0000
1000
0000
,
1001
0000
1000
0000
,
0001
0000
1000
0000
,
0001
0001
0001
0001
,
0001
0001
0002
0003
,
0000
0100
0000
0100
,
0000
0010
0000
0010
,
0010
0000
1000
0000
,
0000
0000
2002
0000
,
3003
0000
1000
0000
,
1000
0000
0100
0100
,
0100
0000
0010
0000
,
0010
0010
0010
0000
,
0001
0000
1000
0000
,
0001
0001
0001
0000
,
1000
0000
0100
0000
,
0010
0000
0002
0000
,
0003
0000
0000
0000
;
