#TITLE:LET'S CELEBRATE;
#SUBTITLE:;
#ARTIST:NELSON;
#TITLETRANSLIT:;
#SUBTITLETRANSLIT:;
#ARTISTTRANSLIT:;
#GENRE:HOUSE;
#CREDIT:;
#MENUCOLOR:;
#NEWMETERSYSTEM:NO;
#BANNER:LET'S CELEBRATE.png;
#BACKGROUND:LET'S CELEBRATE-bg.png;
#LYRICSPATH:;
#CDTITLE:CDTitle.png;
#MUSIC:LET'S CELEBRATE.ogg;
#OFFSET:-1.956;
#SAMPLESTART:48.755;
#SAMPLELENGTH:15.660;
#SELECTABLE:YES;
#LISTSORT:;
#BPMS:0.000=123.000;
#STOPS:;
#BGCHANGES:31.500=LET'S CELEBRATE.avi=1.000=1=0=1,
216.000=LET'S CELEBRATE-bg.png=1.000=1=0=1,
99999=-nosongbg-=1.000=0=0=0 // don't automatically add -songbackground-
;
#ATTACKS:;

//---------------dance-single - DDRDAIKENKAI----------------
#NOTES:
     dance-single:
     DDRDAIKENKAI:
     Hard:
     7:
     0.490,0.492,0.378,0.144,0.175: // measure 1
0000
0000
0000
0000
,  // measure 2
0000
0000
0000
0000
,  // measure 3
0000
0000
0000
0000
,  // measure 4
0000
0000
0000
0000
0000
0000
0000
1000
,  // measure 5
0000
0000
0001
0000
0000
0000
0100
0000
0000
0000
0001
0000
0000
0000
1000
0100
,  // measure 6
0000
0000
0010
0000
0000
0000
0001
0000
0000
0000
0100
0000
0000
0000
0001
0010
,  // measure 7
0000
0000
0100
0000
0000
0000
1000
0000
0000
0000
0001
0000
0000
0000
0100
0010
,  // measure 8
0000
1000
0000
0001
0000
0100
0000
0001
,  // measure 9
1000
0000
0000
0100
0000
0000
1000
0000
0000
0001
0000
0000
1000
0001
0000
0000
,  // measure 10
0100
0000
0000
0010
0000
0000
0100
0000
0001
1000
0000
0000
1001
0000
0000
0000
,  // measure 11
0001
0000
0000
0010
0000
0000
0100
0000
0000
1000
0000
0000
0001
1000
0000
0000
,  // measure 12
0001
0000
0000
0100
0000
0000
0010
0000
1000
0001
0000
0000
1001
0000
0000
0000
,  // measure 13
1000
0100
0001
0000
0100
1000
0010
0000
,  // measure 14
0001
0010
0100
1000
0100
0001
1000
0000
,  // measure 15
0100
0010
1000
0000
0010
0001
0100
0000
,  // measure 16
1010
1001
0101
1001
,  // measure 17
1200
0000
0310
0001
0100
0010
1000
0000
,  // measure 18
0100
0010
0100
0010
0001
0100
1000
0000
,  // measure 19
0200
0000
0302
0000
1003
0100
0010
0000
,  // measure 20
2000
0000
3010
0000
0021
0000
0031
0100
,  // measure 21
2000
0000
3100
0001
1000
0100
0010
0000
,  // measure 22
0001
1000
0001
1000
0010
0100
1000
0000
,  // measure 23
0200
0000
0302
0000
1003
0100
0010
0001
,  // measure 24
1001
1001
1010
0101
,  // measure 25
1001
0000
0000
0000
0000
0000
0000
0000
0001
0000
0000
0000
0000
0000
0000
0000
1000
0000
0000
0000
0000
0000
0000
0000
0100
0000
0000
0000
0000
1000
0000
0000
0100
0000
0000
0000
0000
0000
0000
0000
0010
0000
0000
0000
0000
0000
0000
0000
0001
0000
0000
0000
0000
0000
0000
0000
0000
0000
0000
0000
0000
0000
0000
0000
,  // measure 26
0100
0000
0000
0000
0000
0000
0000
0000
0001
0000
0000
0000
0000
0000
0000
0000
0010
0000
0000
0000
0000
0000
0000
0000
0100
0000
0000
0000
0000
1000
0000
0000
0100
0000
0000
0000
0000
0000
0000
0000
0010
0000
0000
0000
0000
0000
0000
0000
0001
0000
0000
0000
0000
0000
0000
0000
0000
0000
0000
0000
0000
0000
0000
0000
,  // measure 27
1000
0000
0000
0000
0000
0000
0000
0000
0010
0000
0000
0000
0000
0000
0000
0000
0100
0000
0000
0000
0000
0000
0000
0000
0001
0000
0000
0000
0000
0010
0000
0000
0001
0000
0000
0000
0000
0000
0000
0000
0100
0000
0000
0000
0000
0000
0000
0000
0010
0000
0000
0000
0000
0000
0000
0000
1000
0000
0000
0000
0000
0000
0000
0000
,  // measure 28
1100
1100
0110
1001
,  // measure 29
0101
0000
0000
0000
0000
0000
0000
0000
0001
0000
0000
0000
0000
0000
0000
0000
0010
0000
0000
0000
0000
0000
0000
0000
0001
0000
0000
0000
0000
0100
0000
0000
0001
0000
0000
0000
0000
0000
0000
0000
0010
0000
0000
0000
0000
0000
0000
0000
0100
0000
0000
0000
0000
0000
0000
0000
0000
0000
0000
0000
0000
0000
0000
0000
,  // measure 30
1000
0000
0000
0000
0000
0000
0000
0000
0010
0000
0000
0000
0000
0000
0000
0000
1000
0000
0000
0000
0000
0000
0000
0000
0100
0000
0000
0000
0000
0010
0000
0000
0100
0000
0000
0000
0000
0000
0000
0000
1000
0000
0000
0000
0000
0000
0000
0000
0001
0000
0000
0000
0000
0000
0000
0000
0000
0000
0000
0000
0000
0000
0000
0000
,  // measure 31
0100
0000
0000
0000
0000
0000
0000
0000
0010
0000
0000
0000
0000
0000
0000
0000
1000
0000
0000
0000
0000
0000
0000
0000
0001
0000
0000
0000
0000
1000
0000
0000
0001
0000
0000
0000
0000
0000
0000
0000
1000
0000
0000
0000
0000
0000
0000
0000
0010
0000
0000
0000
0000
0000
0000
0000
0100
0000
0000
0000
0000
0000
0000
0000
,  // measure 32
0001
0000
0101
0000
1100
0000
1001
0001
,  // measure 33
1000
0100
1000
0100
0001
0100
0001
0100
,  // measure 34
1100
0000
1010
0000
0110
0000
0101
0002
,  // measure 35
1003
0000
0000
0100
1000
0000
0001
0000
0100
0010
0000
0000
1000
0010
0000
0000
,  // measure 36
0100
0000
0000
0001
1000
0000
0100
0000
0010
0001
0000
0000
0101
0000
0000
0000
,  // measure 37
0010
0000
0000
0100
1000
0000
0001
0000
0100
0010
0000
0000
0100
0001
0000
0000
,  // measure 38
1000
0000
0000
0001
0100
0000
0010
0000
1000
0001
0000
0000
1001
0000
0000
0000
,  // measure 39
0101
0000
0000
0000
0000
0000
0000
0000
0001
0000
0000
0000
0000
0000
0000
0000
0010
0000
0000
0000
0000
0000
0000
0000
0100
0000
0000
0000
0000
1000
0000
0000
0100
0000
0000
0000
0000
0000
0000
0000
0010
0000
0000
0000
0000
0000
0000
0000
0001
0000
0000
0000
0000
0000
0000
0000
0000
0000
0000
0000
0000
0000
0000
0000
,  // measure 40
1000
0000
0000
0000
0000
0000
0000
0000
0001
0000
0000
0000
0000
0000
0000
0000
0100
0000
0000
0000
0000
0000
0000
0000
0010
0000
0000
0000
0000
1000
0000
0000
0010
0000
0000
0000
0000
0000
0000
0000
0100
0000
0000
0000
0000
0000
0000
0000
0001
0000
0000
0000
0000
0000
0000
0000
0000
0000
0000
0000
0000
0000
0000
0000
,  // measure 41
1000
0000
0000
0000
0000
0000
0000
0000
0001
0000
0000
0000
0000
0000
0000
0000
0010
0000
0000
0000
0000
0000
0000
0000
0001
0000
0000
0000
0000
0100
0000
0000
0001
0000
0000
0000
0000
0000
0000
0000
0010
0000
0000
0000
0000
0000
0000
0000
0100
0000
0000
0000
0000
0000
0000
0000
1000
0000
0000
0000
0000
0000
0000
0000
,  // measure 42
0010
0110
0101
1001
,  // measure 43
1100
0000
0000
0000
0000
0000
0000
0000
1000
0000
0000
0000
0000
0000
0000
0000
0001
0000
0000
0000
0000
0000
0000
0000
0100
0000
0000
0000
0000
0010
0000
0000
0100
0000
0000
0000
0000
0000
0000
0000
0001
0000
0000
0000
0000
0000
0000
0000
1000
0000
0000
0000
0000
0000
0000
0000
0000
0000
0000
0000
0000
0000
0000
0000
,  // measure 44
0100
0000
0000
0000
0000
0000
0000
0000
0010
0000
0000
0000
0000
0000
0000
0000
0001
0000
0000
0000
0000
0000
0000
0000
0100
0000
0000
0000
0000
0010
0000
0000
0100
0000
0000
0000
0000
0000
0000
0000
0010
0000
0000
0000
0000
0000
0000
0000
1000
0000
0000
0000
0000
0000
0000
0000
0000
0000
0000
0000
0000
0000
0000
0000
,  // measure 45
0100
0000
0000
0000
0000
0000
0000
0000
0001
0000
0000
0000
0000
0000
0000
0000
0100
0000
0000
0000
0000
0000
0000
0000
1000
0000
0000
0000
0000
0001
0000
0000
1000
0000
0000
0000
0000
0000
0000
0000
0010
0000
0000
0000
0000
0000
0000
0000
0100
0000
0000
0000
0000
0000
0000
0000
0001
0000
0000
0000
0000
0000
0000
0000
,  // measure 46
0010
1000
0010
1000
0010
0001
0010
0001
,  // measure 47
1001
1100
1001
0101
,  // measure 48
1002
1000
0000
0100
0000
0010
0000
2003
,  // measure 49
0000
0001
0000
0100
0000
0010
0000
3100
,  // measure 50
0210
0010
0000
1000
0000
0010
0000
0301
,  // measure 51
1002
1000
0000
0010
0000
0100
0000
1003
,  // measure 52
1200
0001
0000
0010
0000
1000
0000
0310
,  // measure 53
0011
0000
0000
0000
0000
0000
0000
0000
0001
0000
0000
0000
0000
0100
0000
0000
0000
0000
0000
0000
0000
0000
0000
0000
0010
0000
0000
0000
0000
1000
0000
0000
0000
0000
0000
0000
0000
0000
0000
0000
0100
0000
0000
0000
0000
0010
0000
0000
0000
0000
0000
0000
0000
0000
0000
0000
0001
0000
0000
0000
0000
0100
0000
0000
,  // measure 54
0001
0010
1000
0010
0001
0100
1000
0100
,  // measure 55
2002
0000
0000
3003
;

//---------------dance-single - DDRDAIKENKAI----------------
#NOTES:
     dance-single:
     DDRDAIKENKAI:
     Medium:
     4:
     0.281,0.369,0.297,0.144,0.000: // measure 1
0000
0000
0000
0000
,  // measure 2
0000
0000
0000
0000
,  // measure 3
0000
0000
0000
0000
,  // measure 4
0000
0000
0000
0000
,  // measure 5
1000
0001
0100
0010
,  // measure 6
1000
0100
0010
0001
,  // measure 7
0100
0001
0010
0100
,  // measure 8
1000
0000
1001
0000
1000
0000
0001
0100
,  // measure 9
0000
0000
0000
0010
0000
0000
0000
1000
,  // measure 10
0000
0000
0000
0001
0000
0000
0000
0100
,  // measure 11
0000
0000
0000
0010
0000
0000
0000
1000
,  // measure 12
0000
0000
0000
0001
0000
0000
0000
1000
,  // measure 13
0000
0010
0000
1000
0000
0100
0000
0010
,  // measure 14
0000
0001
0000
0100
0000
0000
0001
0010
,  // measure 15
0000
0100
0000
1000
0000
0010
0000
0100
,  // measure 16
0000
0001
0000
2002
0000
0000
3003
0000
,  // measure 17
2000
0000
3010
0010
,  // measure 18
0100
0001
0010
0100
,  // measure 19
2000
0000
0100
3100
,  // measure 20
0020
0000
0032
0000
,  // measure 21
0203
0000
0010
0310
,  // measure 22
1000
0100
1000
0010
,  // measure 23
0200
0000
0001
0301
,  // measure 24
1000
0001
1001
1001
,  // measure 25
0110
0100
0001
0010
,  // measure 26
1000
0010
0001
0100
,  // measure 27
1000
0100
0001
0010
,  // measure 28
0110
0110
1001
1001
,  // measure 29
1100
0100
0010
0001
,  // measure 30
0100
0001
0010
0100
,  // measure 31
1000
0010
0100
0001
,  // measure 32
0100
0100
0001
0001
,  // measure 33
1000
0100
0001
0010
,  // measure 34
1000
0100
0001
0010
,  // measure 35
1000
0100
0010
0001
,  // measure 36
0001
0100
0010
1000
,  // measure 37
1000
0010
0100
0001
,  // measure 38
1000
0001
1100
0101
,  // measure 39
1001
0001
0100
0010
,  // measure 40
0110
0010
1000
0100
,  // measure 41
1100
0100
0010
0001
,  // measure 42
0101
0101
1100
1100
,  // measure 43
1001
0001
0100
0010
,  // measure 44
0110
0010
1000
0001
,  // measure 45
1001
0001
0010
0100
,  // measure 46
1100
0101
1100
0101
,  // measure 47
0011
1010
1100
0101
,  // measure 48
2002
0000
0000
0000
,  // measure 49
0000
0000
0000
3003
,  // measure 50
0220
0000
0000
0330
,  // measure 51
2000
0000
0000
3000
,  // measure 52
0002
0000
0000
0000
0000
0000
0000
0003
,  // measure 53
0100
0001
0000
0010
0000
1000
0000
0100
,  // measure 54
0000
0001
0000
0010
0000
1000
0000
0000
,  // measure 55
2002
0000
0000
3003
;

//---------------dance-single - DDRDAIKENKAI----------------
#NOTES:
     dance-single:
     DDRDAIKENKAI:
     Easy:
     2:
     0.197,0.345,0.099,0.189,0.000: // measure 1
0000
0000
0000
0000
,  // measure 2
0000
0000
0000
0000
,  // measure 3
0000
0000
0000
0000
,  // measure 4
0000
0000
0000
0000
,  // measure 5
1000
0000
1000
0000
,  // measure 6
0100
0010
0100
0000
,  // measure 7
0010
0000
0010
0000
,  // measure 8
0100
1000
0100
0000
,  // measure 9
1000
0000
0001
0000
,  // measure 10
1000
0000
0001
0000
,  // measure 11
0100
0000
0010
0000
,  // measure 12
0100
0000
0010
0000
,  // measure 13
1000
0000
1000
0000
,  // measure 14
0010
1000
0100
0000
,  // measure 15
0010
0000
0001
0000
,  // measure 16
1000
0100
0010
0001
,  // measure 17
2000
0000
0100
0000
,  // measure 18
3200
0000
0010
0000
,  // measure 19
0320
0000
0001
0000
,  // measure 20
0032
0000
2003
0000
,  // measure 21
3002
0000
0100
0000
,  // measure 22
0203
0000
0010
0000
,  // measure 23
0320
0000
1000
1030
,  // measure 24
0001
0010
0100
1000
,  // measure 25
0100
0001
0100
0000
,  // measure 26
1000
0010
1000
0000
,  // measure 27
0010
0100
0010
0100
,  // measure 28
0001
1000
0001
0000
,  // measure 29
1000
0100
1000
0000
,  // measure 30
0100
0001
0100
0000
,  // measure 31
1000
0001
1000
0001
,  // measure 32
0100
0010
0100
0000
,  // measure 33
0002
0000
0000
0000
,  // measure 34
0000
0000
0003
0000
,  // measure 35
1000
0000
1000
0000
,  // measure 36
0001
0000
0001
0000
,  // measure 37
0100
0000
0100
0000
,  // measure 38
0010
0000
0010
0000
,  // measure 39
1000
0001
1000
0000
,  // measure 40
0001
1000
0001
0000
,  // measure 41
0100
0010
0100
0000
,  // measure 42
0001
0000
1001
0000
,  // measure 43
1000
0100
1000
0000
,  // measure 44
0001
0010
0001
0000
,  // measure 45
0100
0010
0100
0000
,  // measure 46
1000
1000
1000
1000
,  // measure 47
0001
0001
0001
0001
,  // measure 48
2002
0000
0000
0000
,  // measure 49
0000
0000
3003
0000
,  // measure 50
2200
0000
3300
0000
,  // measure 51
0022
0000
0033
0000
,  // measure 52
2020
0000
3030
0000
,  // measure 53
0202
0000
0303
0000
,  // measure 54
1100
0011
1010
0101
,  // measure 55
2002
0000
0000
0000
0000
0000
0000
0000
0000
0000
0000
0000
0000
0000
0000
0000
0000
0000
0000
0000
0000
0000
0000
0000
0000
0000
0000
0000
0000
0000
0000
0000
0000
0000
0000
0000
0000
0000
0000
0000
0000
0000
0000
0000
0000
0000
0000
0000
0000
0000
0000
0000
0000
0000
0000
0000
0000
0000
0000
0000
0000
0000
0000
0000
0000
0000
0000
0000
0000
0000
0000
0000
0000
0000
0000
0000
0000
0000
0000
0000
0000
0000
0000
0000
0000
0000
0000
0000
0000
0000
0000
0000
0000
0000
0000
0000
0000
0000
0000
0000
0000
0000
0000
0000
0000
0000
0000
0000
0000
0000
0000
0000
0000
0000
0000
0000
0000
0000
0000
0000
0000
0000
0000
0000
0000
0000
0000
0000
0000
0000
0000
0000
0000
0000
0000
0000
0000
0000
0000
0000
0000
0000
0000
0000
0000
3003
0000
0000
0000
0000
0000
0000
0000
0000
0000
0000
0000
0000
0000
0000
0000
0000
0000
0000
0000
0000
0000
0000
0000
0000
0000
0000
0000
0000
0000
0000
0000
0000
0000
0000
0000
0000
0000
0000
0000
0000
0000
0000
0000
0000
0000
0000
;
