#TITLE:JIVE INTO THE NIGHT;
#SUBTITLE:;
#ARTIST:CYDNEY;
#TITLETRANSLIT:;
#SUBTITLETRANSLIT:;
#ARTISTTRANSLIT:;
#GENRE:;
#CREDIT:;
#MENUCOLOR:;
#BANNER:JIVE INTO THE NIGHT.png;
#BACKGROUND:JIVE INTO THE NIGHT-bg.png;
#LYRICSPATH:;
#CDTITLE:CDTitle.png;
#MUSIC:JIVE INTO THE NIGHT.ogg;
#OFFSET:0.000;
#SAMPLESTART:55.940;
#SAMPLELENGTH:12.000;
#SELECTABLE:YES;
#LISTSORT:;
#BPMS:0.000=170.000;
#STOPS:158.000=0.353
;
#TICKCOUNT:0.000=2;
#BGCHANGES:;
#KEYSOUNDS:;
#ATTACKS:;

//---------------dance-single - DDRDAIKENKAI----------------
#NOTES:
     dance-single:
     DDRDAIKENKAI:
     Challenge:
     10:
     0.871,1.000,0.564,0.350,0.576: // measure 1
0000
0000
0000
0000
,  // measure 2
0000
0000
0000
0000
,  // measure 3
0000
0000
0000
0000
,  // measure 4
0000
0000
0000
0000
,  // measure 5
0001
0010
0001
1000
0100
1000
0010
0100
,  // measure 6
0001
0010
0001
1000
0100
1000
0010
0100
,  // measure 7
0101
0001
1000
0100
1100
0100
0010
0001
,  // measure 8
0022
0033
2002
3003
2020
3030
2002
3003
,  // measure 9
0110
0000
0010
0000
1000
0000
0000
0000
0001
0100
0000
0100
0001
0000
0000
0000
,  // measure 10
0100
0000
0001
0000
0010
0000
0001
0000
1000
0010
0000
0100
0000
0001
1000
0000
,  // measure 11
0001
0000
0010
0000
0100
0000
0000
0000
1000
0100
0000
0010
0001
0000
0000
0000
,  // measure 12
1000
0000
0001
0000
0010
0000
0100
0000
1000
0001
0000
0100
0000
0010
1000
0000
,  // measure 13
1010
0000
0010
0000
1000
0000
0000
0000
0001
0010
0000
0100
0000
0000
0000
0000
,  // measure 14
1000
0000
0100
0000
0001
0000
0100
0000
1000
0010
0000
0100
0000
0001
0100
0001
,  // measure 15
0100
0000
0010
0000
1000
0000
0000
0000
0010
0100
0000
0001
0000
0000
0000
0000
,  // measure 16
1000
0001
0100
0001
0010
0001
0100
0010
1000
0000
0000
0000
0101
0000
0000
0000
,  // measure 17
1001
0000
0000
0000
0101
0000
0000
0000
1100
0000
0000
0000
1010
0000
0000
1000
,  // measure 18
0100
0010
0000
1001
1000
0001
0100
0010
,  // measure 19
0110
0000
0000
0000
1010
0000
0000
0000
1100
0000
0000
1000
0001
0000
0100
0000
,  // measure 20
0010
0000
1000
0100
0000
0010
0000
0100
0000
1000
0000
0010
0100
0010
0100
0000
,  // measure 21
0101
0000
0000
0000
1010
0000
0000
0000
0110
0000
0000
0000
1010
0000
0000
1000
,  // measure 22
0100
0010
0000
0110
0100
0010
0001
0100
,  // measure 23
0010
1000
0010
1000
0100
0010
0100
0010
0001
0010
0001
0010
0100
1000
0100
1000
,  // measure 24
0000
0000
1001
0000
0000
1001
0000
0000
2002
0000
0000
0000
3003
0000
0000
0000
,  // measure 25
0011
0000
0001
0000
0010
0000
0001
0100
0001
0000
0010
0000
0100
0000
0120
0000
,  // measure 26
0130
0000
1000
0000
0010
0000
0100
0010
0100
0010
0100
0000
0001
0000
1000
0000
,  // measure 27
0001
0000
0100
0000
0010
0000
1000
0100
1000
0000
0010
0000
0100
0000
0210
0000
,  // measure 28
0310
0100
0010
2000
0100
0100
3100
0010
,  // measure 29
0011
0000
0001
0000
0100
0000
0010
0000
1000
0000
0100
0000
0010
0000
0000
0001
,  // measure 30
0010
0100
1000
0010
0100
0001
0100
0001
,  // measure 31
0102
0000
0203
0000
0320
0000
1030
0200
,  // measure 32
0010
0000
0310
0000
0100
0000
1000
0000
0001
1000
0010
1000
0010
1000
0010
0100
,  // measure 33
0001
0000
0100
0000
0001
0000
1000
0100
1000
0000
0100
0000
0100
0000
0020
0000
,  // measure 34
0032
0203
0320
2030
3000
1000
0010
0100
,  // measure 35
0001
0000
0100
0000
0010
0000
1000
0100
1000
0000
0100
0000
0100
0000
2000
0000
,  // measure 36
3020
0230
0302
0023
0001
0001
0031
0100
,  // measure 37
0110
0000
0010
0000
1000
0000
0100
0000
0001
0000
0100
0000
1000
0000
0000
0001
,  // measure 38
1000
0001
0010
0100
1000
0001
0100
0010
,  // measure 39
0120
0000
2030
0000
3200
0000
0310
0100
,  // measure 40
1000
0000
0000
0000
0010
0000
0000
0000
0100
0000
0000
0000
0010
0000
0000
0000
1000
0000
0000
0000
0001
0000
0000
0000
0100
0000
0000
0000
0010
0000
0000
0000
0200
0300
0000
0000
0000
0000
0000
0000
0000
0000
0000
0000
0000
0000
0000
0000
1010
0000
0000
0000
0000
0000
0000
0000
0000
0000
0000
0000
0000
0000
0000
0000
,  // measure 41
0101
0000
1010
0000
0000
0001
0100
1000
,  // measure 42
0000
1100
0000
0100
0001
0010
1100
0000
,  // measure 43
1001
0000
0000
0000
0102
0000
0000
0103
0010
0000
1000
0000
0010
0000
0100
0001
,  // measure 44
0000
1000
0000
0100
0000
1000
0000
0001
0100
0001
0100
0000
0110
0000
0000
0000
,  // measure 45
1010
0000
0101
0000
0000
1000
0010
0100
,  // measure 46
0000
0000
0110
0000
0000
0000
0010
0000
1000
0000
0001
0000
1000
0100
1000
0100
,  // measure 47
0010
0100
0010
0100
0010
0001
0010
0001
1000
0001
1000
0001
0000
0000
0011
0000
,  // measure 48
0000
1001
0000
0000
2020
0000
0000
0000
3030
0000
0000
0000
0010
0000
0100
0000
,  // measure 49
0010
1000
0001
0010
0001
0100
0010
0100
,  // measure 50
0010
1000
0001
0010
0001
0100
0010
0100
,  // measure 51
0010
1000
0001
0010
0001
0100
0010
0100
,  // measure 52
0010
1000
0001
0010
0001
0100
0101
0100
,  // measure 53
0001
1000
0100
1000
0010
0100
0001
0100
,  // measure 54
0001
1000
0100
1000
0010
0100
0110
0100
,  // measure 55
0101
0001
1001
0001
0101
0100
0001
0010
,  // measure 56
0100
0000
1000
0000
0010
1000
0010
1000
0010
1000
0010
1000
0010
0000
0100
0000
,  // measure 57
0001
0000
0000
0000
0010
0100
0000
1000
0001
0000
0000
0000
1000
0000
0100
0000
,  // measure 58
0010
0000
0001
0000
0100
0010
0000
1000
0000
0010
0100
0000
0001
0000
0100
0000
,  // measure 59
0010
0000
0000
0000
1000
0001
0000
0100
0001
0000
0000
0000
1000
0000
0001
0000
,  // measure 60
0100
0000
0001
0000
1000
0001
0000
0010
0000
0001
0100
0000
0110
0000
0010
0000
,  // measure 61
1000
0000
0000
0000
0010
0100
0000
0001
0000
0000
0000
0000
1000
0000
0001
0000
,  // measure 62
0010
0000
0001
0000
0100
0010
0000
1000
0000
0001
0100
0001
0100
0000
0010
0000
,  // measure 63
1000
0000
0000
0000
0100
0010
0000
0001
0000
0000
0000
0000
1000
0010
1000
0010
,  // measure 64
0100
0001
0100
0001
1000
0000
0001
0000
0100
0000
0010
0000
1010
0000
0000
0000
,  // measure 65
0011
0000
1010
0000
0000
0001
1000
0100
,  // measure 66
0000
1100
0000
0100
0010
0001
0011
0000
,  // measure 67
1010
0000
0000
0000
1002
0000
0000
1003
0100
0000
0010
0000
0100
0000
1000
0001
,  // measure 68
0000
0100
0000
0010
0000
1000
0000
0010
0100
0010
0100
0000
0110
0000
0000
0000
,  // measure 69
1010
0000
0110
0000
0000
0010
0100
0001
,  // measure 70
0000
0000
0101
0000
0000
0000
0001
0000
0100
0000
0010
0000
1000
0100
1000
0100
,  // measure 71
0010
0100
0010
0100
0010
0001
0010
0001
0010
0100
0010
0100
1000
0010
1000
0010
,  // measure 72
0100
0001
0100
0001
1000
0001
1000
0001
0100
0010
0100
0010
1000
0000
0010
0100
,  // measure 73
0000
0001
0100
0000
0010
0000
1000
0000
0001
0000
0001
0000
1000
0000
0100
0000
,  // measure 74
0000
0000
2100
0000
0000
0000
0100
0000
3100
0000
0010
0000
0001
0000
0010
0100
,  // measure 75
0000
1000
0001
0000
0100
0000
0010
0000
1000
0000
0001
0000
0100
0000
0001
0000
,  // measure 76
0000
0000
2001
0000
0000
0000
0001
0000
3001
0000
0100
0000
0010
0000
1000
0001
,  // measure 77
0000
0100
0001
0000
1000
0000
0001
0000
0100
0000
0010
0000
1000
0000
0001
0000
,  // measure 78
0000
0000
1002
0000
0000
0000
1000
0000
2003
0000
0000
0000
3001
0000
0100
0010
,  // measure 79
0000
0100
0010
0000
0100
0000
0001
0000
0010
0000
0100
0000
1000
0010
0000
0010
,  // measure 80
0100
0000
0100
0001
1000
0001
1000
0000
0001
1000
0001
2000
0002
0000
0000
0000
,  // measure 81
0000
0000
0000
3003
;

//---------------dance-single - DDRDAIKENKAI----------------
#NOTES:
     dance-single:
     DDRDAIKENKAI:
     Hard:
     9:
     0.685,0.689,0.538,0.256,0.077: // measure 1
0000
0000
0000
0000
,  // measure 2
0000
0000
0000
0000
,  // measure 3
0000
0000
0000
0000
,  // measure 4
0000
0000
0000
0000
,  // measure 5
0000
0000
0000
0000
,  // measure 6
0000
0000
0000
0000
,  // measure 7
2020
3030
0202
0303
,  // measure 8
1010
1100
1001
0021
,  // measure 9
0031
0010
0100
0000
1000
0010
0100
0000
,  // measure 10
0010
1000
0100
0001
0100
1000
0010
0000
,  // measure 11
1000
0010
0100
0000
0001
0010
0100
0000
,  // measure 12
0010
0001
0100
1000
0100
0001
0010
0000
,  // measure 13
0001
0100
0010
0000
1000
0001
1000
0000
,  // measure 14
0010
0100
0001
1000
0100
0010
0001
0000
,  // measure 15
1000
0010
0100
0000
0010
1000
0100
0000
,  // measure 16
0010
0001
0100
0010
1000
0000
1001
0000
,  // measure 17
1010
0000
0000
0000
0110
0000
0000
0000
0101
0000
0000
0000
1001
0000
0000
0001
,  // measure 18
0010
0100
0000
0110
0000
0100
1000
0001
,  // measure 19
0100
0000
0000
0000
0110
0000
0000
0000
1010
0000
0000
0010
0100
0000
0001
0000
,  // measure 20
0010
0001
0100
0010
1000
0100
1100
0000
,  // measure 21
0011
0000
0000
0000
1100
0000
0000
0000
0101
0000
0000
0000
1010
0000
0000
0010
,  // measure 22
0100
0001
0000
1000
0000
0001
0100
0010
,  // measure 23
1010
0000
0110
0000
0001
0010
0100
1000
,  // measure 24
0000
0000
0110
0000
0000
0110
0000
0000
0110
0000
0100
0000
0001
0000
0100
0000
,  // measure 25
0010
1000
0001
0100
0010
1000
0100
0000
,  // measure 26
1000
0001
1000
0000
0010
1000
0100
0010
,  // measure 27
0001
0100
0010
0100
0001
0010
0100
0000
,  // measure 28
1000
0001
0100
0020
0000
1000
1030
0010
,  // measure 29
0100
0000
0001
0000
0010
0000
0001
0000
0100
0000
0010
0000
1000
0000
0000
0100
,  // measure 30
0010
0001
0010
0100
1000
0001
0100
0000
,  // measure 31
1020
0000
0230
0000
0301
0000
0010
0200
,  // measure 32
1000
1300
0100
0010
0001
0100
0010
1000
,  // measure 33
0001
0000
0000
0100
0000
0000
0010
0000
0000
0000
1000
0000
0100
0000
1000
0000
,  // measure 34
0010
0001
0010
1000
0000
0100
0010
0001
,  // measure 35
0100
0000
0000
0010
0000
0000
1000
0000
0000
0000
0010
0000
1000
0000
0001
0000
,  // measure 36
0100
0010
0100
0002
0000
0013
0100
1000
,  // measure 37
1020
0000
0000
0130
0000
0000
0001
0000
0010
0000
0100
0000
1000
0000
0100
0000
,  // measure 38
2000
0000
0000
3100
0000
0000
0010
0000
0011
0000
0000
0000
1001
0000
0000
0000
,  // measure 39
1020
0000
0230
0000
0301
0000
1000
0010
,  // measure 40
0100
0000
0000
0000
0000
0000
0000
0000
0010
0000
0000
0000
0000
0000
0000
0000
0100
0000
0000
0000
0000
0000
0000
0000
0001
0000
0000
0000
0000
0000
0000
0000
2002
3003
0000
0000
0000
0000
0000
0000
0000
0000
0000
0000
0000
0000
0000
0000
0011
0000
0000
0000
0000
0000
0000
0000
0000
0000
0000
0000
0000
0000
0000
0000
,  // measure 41
1100
0000
0101
0000
0000
0010
1000
0001
,  // measure 42
0000
1001
0000
0001
1000
0100
2000
0000
,  // measure 43
3020
0000
0130
0000
0001
0010
0100
1000
,  // measure 44
0100
0010
0001
0100
0010
1000
1010
0000
,  // measure 45
1001
0000
1010
0000
0000
0100
0001
0010
,  // measure 46
0000
0110
0000
0100
1000
0100
0010
0001
,  // measure 47
0100
0010
1000
0100
0010
0001
0000
1001
,  // measure 48
0000
1001
0000
0000
2002
0000
0000
0000
3003
0000
0000
0000
0010
0000
1000
0000
,  // measure 49
0001
0100
0010
1000
0100
1000
0010
0100
,  // measure 50
0001
1000
0010
0100
0001
0100
0010
1000
,  // measure 51
0001
0100
0010
1000
0100
1000
0010
0100
,  // measure 52
0001
1000
0010
0100
0001
0100
0010
1000
,  // measure 53
0001
0100
0010
1000
0100
1000
0010
0100
,  // measure 54
0001
1000
0010
0100
0001
0100
0010
1000
,  // measure 55
0001
0100
0010
1000
0100
1000
0010
1000
,  // measure 56
0100
0010
0001
0010
0100
1000
0010
0100
,  // measure 57
0001
0000
0010
0001
0100
0000
0010
1000
,  // measure 58
0100
0010
0001
1000
0100
0000
1000
0001
,  // measure 59
0100
0000
0010
0100
0001
0000
0010
0001
,  // measure 60
0100
0010
1000
0100
1000
0000
1100
0100
,  // measure 61
0010
0000
0010
0001
0100
0000
0100
0010
,  // measure 62
1000
0100
1000
0010
0100
0000
0001
0010
,  // measure 63
0100
0000
1000
0001
0100
0000
0010
1000
,  // measure 64
0001
0100
0010
1000
1001
0000
1010
0000
,  // measure 65
1001
0000
0101
0000
0000
1000
0010
0100
,  // measure 66
0000
0101
0000
0100
0001
0010
0200
0000
,  // measure 67
2300
0000
0000
0000
3200
0000
0000
0310
0001
0000
0100
0000
0010
0000
1000
0000
,  // measure 68
0100
1000
0001
0100
0110
0000
1010
0000
,  // measure 69
0110
0000
0101
0000
0000
0001
0100
0010
,  // measure 70
0000
0110
0000
0010
1000
0001
0000
0110
,  // measure 71
0000
0110
0000
0000
1010
0000
0000
0000
0101
0000
0000
0000
0001
0000
0011
0000
,  // measure 72
0000
1001
0000
0000
2200
0000
0000
0000
3300
0000
0000
0000
0001
0000
1000
0000
,  // measure 73
0100
1000
0100
0010
0001
1000
0010
0100
,  // measure 74
0000
0210
0000
0310
1000
0001
0010
0001
,  // measure 75
0100
0001
0100
0010
1000
0100
0010
0001
,  // measure 76
0000
1002
0000
1000
1003
0001
0010
0100
,  // measure 77
1000
0001
0100
0010
1000
0100
0010
0001
,  // measure 78
0000
0012
0000
0100
0103
0010
1000
0001
,  // measure 79
1000
0000
0010
0000
0100
0000
0001
0000
1000
0000
0000
0000
0001
0100
0000
0100
,  // measure 80
0010
0000
0010
1000
0000
1000
0001
0000
0001
1000
0000
0000
2002
0000
0000
0000
,  // measure 81
0000
0000
0000
3003
;

//---------------dance-single - DDRDAIKENKAI----------------
#NOTES:
     dance-single:
     DDRDAIKENKAI:
     Medium:
     7:
     0.549,0.552,0.418,0.145,0.000:
0000
0000
0000
0000
,
0000
0000
0000
0000
,
0000
0000
0000
0000
,
0000
0000
0000
0000
,
0000
0000
0000
0000
,
0000
0000
0000
0000
,
0010
0000
0100
0000
,
0010
0010
1000
1001
,
0001
0010
0001
0000
1000
0000
1000
0000
,
0001
0100
0001
0000
1000
0010
0100
0000
,
0010
1000
0001
0000
1000
0000
1000
0000
,
0001
0010
0001
0000
0100
0010
1000
0000
,
0100
0010
0100
0000
1000
0000
1000
0000
,
0001
0010
0001
0000
1000
0010
0100
0000
,
0010
1000
0100
0000
0010
0001
0100
0000
,
0010
1000
0100
0010
0001
0000
1001
0000
,
0101
0101
0101
0010
,
1000
0001
1000
0000
0010
0100
0010
0000
,
1010
1010
1010
0001
,
1000
0010
1000
0010
1000
0010
1000
0000
,
0011
0011
0011
0010
,
0001
0000
0001
0000
0010
0001
0010
0000
,
1001
0010
1001
0100
,
1000
1000
1000
1000
,
0001
0100
0001
0000
1000
0010
1000
0000
,
0001
0000
0001
0000
0100
0010
0100
0000
,
0010
0000
0010
0000
1000
0001
1000
0000
,
0001
0000
0001
0000
1000
0100
1000
0100
,
1000
0001
0010
0001
,
0100
0010
1010
0110
,
0102
0000
2003
0000
3200
0000
0310
0002
,
0000
1000
1003
0000
0001
0100
0001
0000
,
1000
0000
1000
0000
0010
0100
0010
0000
,
0100
0001
0100
0000
0001
0000
1001
0000
,
1000
0000
1000
0000
0001
0010
0001
0000
,
0100
0010
0100
0000
0001
0000
1001
0000
,
1200
0000
0310
0000
0001
0100
0010
0000
,
1020
0000
0130
0000
0001
0010
0100
0000
,
1001
0100
1001
0010
,
1001
0110
1001
0011
,
1100
0011
0000
0001
,
0100
0000
0010
1000
0100
0010
0002
0000
,
2003
3200
0320
0031
,
0001
0000
1000
0010
1000
0000
1001
0000
,
0011
0101
0000
0010
,
0010
0000
1000
0001
1000
0000
0001
0010
,
0001
0000
0100
0010
0100
0000
1010
0000
,
1001
0000
0202
0000
0303
0000
0001
0010
,
0001
0000
1000
0000
1000
0000
0010
0100
,
0010
0000
1000
0000
1000
0000
0001
0010
,
0001
0000
1000
0000
1000
0000
0010
0100
,
0010
0000
1000
0000
1000
0000
0001
0010
,
0001
0000
1000
0000
1000
0000
0010
0100
,
0010
1000
1000
1010
,
0110
0000
0101
0000
1001
0000
0001
0010
,
0100
1000
0100
0010
0001
0000
1000
0010
,
1000
0000
0001
0100
0001
0000
0100
0010
,
0100
0000
0001
1000
0001
0000
1000
0100
,
1000
0000
0010
0100
0010
0000
1000
0100
,
0010
0000
0001
0100
0010
0000
1000
0001
,
1000
0000
0010
0010
0010
0000
1000
0001
,
0100
0000
0010
0010
0010
0000
1000
0100
,
1000
0000
0010
0010
0010
0000
0100
0001
,
0010
0100
0010
0010
0010
0000
1001
0000
,
1010
0000
0101
0000
0010
0000
1000
0100
,
1000
0000
0010
0100
0001
0100
0020
0000
,
2030
0000
3002
0000
0013
0001
0100
0000
,
0010
1000
0100
0010
0001
0000
0011
0000
,
1100
0000
0101
0000
0010
1000
0100
0000
,
1000
0000
0010
0100
0001
0000
0010
0001
,
0010
0000
0100
1000
0100
0000
0010
0001
,
0100
0010
1000
0100
1000
0000
0011
0000
,
1001
0000
0010
1000
0001
0000
0100
0001
,
1000
0000
0010
1000
0001
0000
1000
0100
,
0010
0000
0001
0010
0100
0000
1000
0010
,
0100
0000
0001
0010
0001
0000
1010
0000
,
0110
0000
0010
0100
0001
0000
0010
0001
,
0100
0000
0010
1000
0100
0000
0010
0100
,
1000
0000
0100
0010
0001
0000
1000
0100
,
1000
0100
1000
0100
0010
0000
2002
0000
,
0000
0000
0000
3003
;

//---------------dance-single - DDRDAIKENKAI----------------
#NOTES:
     dance-single:
     DDRDAIKENKAI:
     Easy:
     5:
     0.445,0.621,0.538,0.094,0.000:
0000
0000
0000
0000
,
0000
0000
0000
0000
,
0000
0000
0000
0000
,
0000
0000
0000
0000
,
1000
1000
0010
0100
,
0001
0001
0010
0100
,
1000
1000
0010
0100
,
0001
0001
1000
1001
,
0010
0010
1000
1000
,
0001
0001
1000
1000
,
0010
0010
1000
1000
,
0001
0001
1000
1000
,
0010
1000
0001
0100
,
0010
0100
0001
0001
,
0011
0000
1001
0000
,
1010
1010
1010
0000
,
1001
0100
0010
0100
,
0001
0001
1000
1000
,
1001
0100
0010
0100
,
0001
0001
1000
1000
,
0001
0010
0001
0010
,
0100
1000
0100
1000
,
0001
0100
0010
1000
,
1001
1001
2002
3003
,
0001
0001
1000
1000
,
0001
0001
0100
0100
,
0010
0010
1000
1000
,
0001
0001
1000
1000
,
0010
0100
0001
1000
,
0001
0100
0010
1000
,
0100
0010
0001
1000
,
2002
3003
0001
0010
,
0100
0100
1000
0001
,
0100
0100
0100
0000
,
0010
1000
0001
0100
,
0001
0001
0001
0000
,
1000
0010
1000
1000
,
0001
0010
0001
0001
,
0011
1001
1010
1001
,
0110
1001
0110
1010
,
0110
0101
0000
0001
,
0001
1000
0100
0110
,
0011
1001
0000
0010
,
0010
1000
0001
0101
,
0110
1010
0000
0001
,
0001
1000
0100
1100
,
0010
1001
0010
0101
,
0101
0102
0003
0010
,
0010
1000
0001
0100
,
0100
0010
1000
0001
,
0001
1000
0010
1000
,
1000
0001
0100
0010
,
0100
0001
1000
0010
,
0100
0001
1000
0001
,
0100
0001
0100
0010
,
0010
1000
1001
0001
,
0001
1000
1000
0010
,
0010
0100
0100
0010
,
0010
0100
0100
0001
,
0001
1000
1000
1001
,
0100
0001
0001
0100
,
1000
0100
0100
1000
,
0010
0100
0001
1001
,
0110
2002
3003
0011
,
0011
0011
0100
1000
,
0010
0001
0010
1010
,
1010
1010
0100
0001
,
0010
0100
1000
1100
,
1100
1100
0010
0001
,
0100
0010
1000
1010
,
0100
1001
0010
0101
,
0101
0202
0303
0011
,
0010
0100
1000
0010
,
1000
0100
1100
0010
,
0001
0100
0010
1000
,
0100
0010
0110
0100
,
1000
0010
0001
0010
,
1000
0001
1001
0011
,
0100
1010
0100
1001
,
1001
1001
0110
2002
,
0000
0000
0000
3003
;

//---------------dance-single - DDRDAIKENKAI----------------
#NOTES:
     dance-single:
     DDRDAIKENKAI:
     Beginner:
     2:
     0.267,0.379,0.171,0.068,0.000:
0000
0000
0000
0000
,
0000
0000
0000
0000
,
0000
0000
0000
0000
,
0000
0000
0000
0000
,
0000
0000
0000
0000
,
0000
0000
0000
0000
,
0010
0000
0100
0000
,
0010
0010
0010
0010
,
0010
0000
1000
0000
,
0001
0000
1000
0000
,
0010
0000
1000
0000
,
0001
0000
0100
0000
,
0010
0000
0100
0000
,
0010
0000
1000
0000
,
1001
0000
1001
0000
,
1001
1001
1001
0000
,
0010
0010
0010
0000
,
1000
0000
0001
0000
,
0100
0100
0100
0000
,
0001
0000
1000
0000
,
0010
0010
0010
0000
,
1000
0000
0001
0000
,
1000
0000
0010
0000
,
0220
0000
0330
0000
,
1000
1000
1000
0000
,
0001
0000
0001
0000
,
0100
0100
0100
0000
,
0010
0000
0010
0000
,
1000
1000
1000
0000
,
0001
0001
0001
0000
,
1000
0000
0001
0000
,
2002
0000
3003
0000
,
0001
0001
0001
0000
,
1000
0000
1000
0000
,
0010
0010
0010
0000
,
0100
0000
0100
0000
,
0001
0001
0001
0000
,
1000
1000
1000
0000
,
0001
0000
1000
0000
,
2002
0000
3003
1000
,
1000
1000
0000
0001
,
0001
0001
0000
0100
,
0100
0100
0000
0010
,
0010
0010
0000
1000
,
1000
1000
0000
0001
,
0001
0001
0000
0100
,
0000
0010
0000
0110
,
0110
0110
0000
0100
,
0100
0100
0100
0100
,
0100
0100
0000
0010
,
0010
0010
0010
0010
,
0010
0010
0000
1000
,
1000
1000
1000
1000
,
1000
1000
0000
0001
,
0001
0001
0001
0001
,
0001
0001
0000
1000
,
0000
0001
0000
1000
,
0000
0001
0000
0100
,
0000
0010
0000
0100
,
0000
0010
0000
1000
,
0000
0001
0000
1000
,
0000
0001
0000
1001
,
0000
0110
0000
1001
,
1001
1001
0000
1000
,
1000
1000
0000
0001
,
0001
0001
0000
1000
,
1000
1000
0000
0001
,
0001
0001
0000
0100
,
0100
0100
0000
0010
,
0010
0010
0000
0100
,
0000
0010
0000
0110
,
0110
0110
0000
0010
,
0000
1000
0000
0001
,
0001
0001
0000
0100
,
0000
0010
0000
1000
,
1000
1000
0000
0001
,
0000
0100
0000
0010
,
0010
0010
0000
1000
,
0000
0001
0000
0100
,
0100
0100
0000
0220
,
0000
0000
0000
0330
;
