#TITLE:It's Not Right But It's Okay;
#SUBTITLE:(Thunderpuss Remix);
#ARTIST:Whitney Houston;
#TITLETRANSLIT:;
#SUBTITLETRANSLIT:;
#ARTISTTRANSLIT:;
#GENRE:;
#CREDIT:;
#MENUCOLOR:;
#NEWMETERSYSTEM:NO;
#BANNER:It's Not Right But It's Okay (Thunderpuss Remix).png;
#BACKGROUND:It's Not Right But It's Okay (Thunderpuss Remix)-bg.png;
#LYRICSPATH:It's Not Right But It's Okay (Thunderpuss Remix).lrc;
#CDTITLE:CDTitle.png;
#MUSIC:It's Not Right But It's Okay (Thunderpuss Remix).ogg;
#OFFSET:0.000;
#SAMPLESTART:97.115;
#SAMPLELENGTH:14.600;
#SELECTABLE:YES;
#LISTSORT:;
#BPMS:0.000=129.999;
#STOPS:;
#BGCHANGES:7.625=It's Not Right But It's Okay (Thunderpuss Remix).avi=1.000=1=0=0,
274.000=It's Not Right But It's Okay (Thunderpuss Remix)-bg.png=1.000=0=0=1,
99999=-nosongbg-=1.000=0=0=0 // don't automatically add -songbackground-
;
#ATTACKS:;

//---------------dance-single - DDRDAIKENKAI----------------
#NOTES:
     dance-single:
     DDRDAIKENKAI:
     Hard:
     8:
     0.602,0.665,0.712,0.240,0.259: // measure 1
0000
0000
0000
0000
,  // measure 2
0000
0000
0000
0000
,  // measure 3
0000
0000
0000
0000
,  // measure 4
0000
0000
0000
0000
0000
0000
0000
0000
0000
0000
0000
0000
0000
1000
0001
1000
,  // measure 5
0001
0001
1000
1000
0010
0100
0010
0100
,  // measure 6
0001
0000
0010
0000
1000
0000
0010
0000
0002
0000
0000
1003
0000
0000
0010
0000
,  // measure 7
1000
0000
0100
0000
0001
0000
0100
0000
2000
0000
0000
3001
0000
0000
0010
0000
,  // measure 8
0001
0000
0100
0000
1000
0000
0100
0000
0002
0000
0000
1003
0000
0000
0100
0000
,  // measure 9
1000
0000
0001
0000
1000
0000
0001
0000
0200
0000
0000
0301
0000
0000
1000
0000
,  // measure 10
1001
0001
0010
0100
1100
0110
0011
0000
,  // measure 11
1001
0000
0001
0000
0010
0000
0001
0000
0200
0000
0000
0310
0000
0000
1000
0000
,  // measure 12
1010
0000
1000
0000
0001
0000
0010
0000
0011
0000
0000
0001
1000
0000
0001
0000
,  // measure 13
1000
0000
0000
0000
0100
0000
0000
0000
0010
0000
0000
0000
0001
0000
0000
0000
0100
0000
0000
0000
0010
0000
0000
0000
2000
0000
0000
0000
0000
0000
0000
0000
0000
3001
0000
0000
0000
0000
0000
0000
0000
0000
0100
0000
0000
0000
0000
0000
,  // measure 14
0010
0000
0001
0000
0010
0000
1000
0000
0002
0000
0000
1003
0000
0000
0010
0000
,  // measure 15
0100
0000
1000
0000
0100
0000
0001
0000
2000
0000
0000
3001
0000
0000
0100
0000
,  // measure 16
0010
0001
0010
1000
0001
1000
0010
1000
,  // measure 17
1010
0000
0010
0000
0001
0000
0000
0000
0002
0000
0000
0013
0000
0000
1000
0000
,  // measure 18
1001
0000
0000
0011
0000
0000
0001
0000
1001
0000
0000
1100
0000
0000
1000
0000
,  // measure 19
0100
0100
0001
0001
0010
0010
1000
1000
,  // measure 20
0001
0010
0000
0001
0000
0010
0000
0100
1000
0000
0001
1000
0000
0000
1001
0000
,  // measure 21
0010
1000
0010
1000
0100
0010
0100
2000
,  // measure 22
0001
0001
0001
3002
1000
1000
1003
0010
,  // measure 23
0100
0010
0001
0000
0011
0000
2010
0001
,  // measure 24
3001
0000
0001
0000
1000
0000
1000
0000
0001
0000
1000
0010
0000
1000
0100
0000
,  // measure 25
1000
0010
0001
0100
0001
0010
1000
0100
,  // measure 26
0010
0001
0100
0002
,  // measure 27
1003
0100
1000
0010
1000
0001
1000
0010
,  // measure 28
0100
0001
0010
0001
1000
0001
0100
0001
,  // measure 29
1000
0100
0010
0001
1000
0100
0010
0001
,  // measure 30
1001
0000
0000
0000
1001
0000
0000
0000
0110
0000
0000
1010
0000
0000
0110
0000
,  // measure 31
1001
0000
0000
0000
1001
0000
0000
0000
0110
0000
0000
0101
0000
0000
0110
0000
,  // measure 32
1000
0000
0000
0000
,  // measure 33
1001
0000
0001
0000
0000
0000
0001
0000
0001
0000
0000
0001
0000
0000
0010
0000
,  // measure 34
0110
0000
0000
0100
0000
0000
0100
0000
1000
0000
0000
0010
0000
0000
1000
0000
,  // measure 35
1001
0000
0001
0000
0000
0000
0001
0000
0010
0000
0000
0001
0000
0000
0100
0000
,  // measure 36
0110
0000
0000
0010
0000
0000
1000
0000
0001
0000
0000
0010
0000
0000
0100
0000
,  // measure 37
1100
0000
0000
1000
0000
0000
0001
0000
0101
0000
0000
0001
0000
0000
1000
0000
,  // measure 38
1010
0000
0000
1000
0000
0000
0001
0000
0011
0000
0000
0001
0000
0000
1000
0000
,  // measure 39
1001
0000
0000
0001
0000
0000
0100
0000
0110
0000
0000
0010
0000
0000
1000
0000
,  // measure 40
1001
0000
0000
1000
0000
0000
0010
0000
0110
0000
0000
0100
0000
0000
0001
0000
,  // measure 41
1001
0000
0000
1000
0001
0000
0100
0000
0101
0000
0000
0011
0000
0000
1000
0000
,  // measure 42
1100
0000
0000
1010
0000
0000
0001
0000
1001
0000
0000
0101
0000
0000
1000
0000
,  // measure 43
1001
0000
0000
1010
0000
0000
1100
0000
1010
0000
0000
1001
0000
0000
0110
0000
,  // measure 44
1001
0000
0000
0101
0000
0000
0011
0000
0101
0000
0000
1001
0000
0000
0110
0000
,  // measure 45
1000
0001
1000
0001
1000
0001
2002
0000
0000
0000
0000
0000
,  // measure 46
3003
0000
0000
0000
,  // measure 47
0000
0000
0000
0000
,  // measure 48
0000
0000
0000
0000
,  // measure 49
1001
0000
0000
0001
0100
0000
0010
0000
1010
0000
0000
0010
0100
0000
0001
0000
,  // measure 50
0011
0000
0000
0010
0100
0000
1000
0000
1010
0000
0000
1000
0100
0000
0010
0000
,  // measure 51
0011
0000
0000
0001
0100
0000
0010
0000
1010
0000
0000
0010
0100
0000
0001
0000
,  // measure 52
1002
0000
0000
1003
0000
0000
0001
0000
2001
0000
0000
3001
0000
0000
1000
0000
,  // measure 53
1001
0000
0000
1010
0000
0000
0011
0000
1002
0000
1000
0000
1003
0000
0000
0000
,  // measure 54
1001
0001
0100
0010
1000
1000
0001
0000
,  // measure 55
1000
0010
0100
0001
0020
0000
1030
0010
,  // measure 56
0001
1000
0100
0010
0001
1000
0100
0010
,  // measure 57
0001
0000
1000
0001
0000
1000
0001
0000
0100
0000
0010
0000
0110
0000
0000
0000
,  // measure 58
1010
0010
0100
0001
1000
0100
0010
0000
,  // measure 59
1001
0001
0010
0100
1000
0001
0100
0000
,  // measure 60
1010
1000
0100
1000
1010
0010
0001
0010
,  // measure 61
0110
0100
0001
1000
0100
0010
0110
0000
,  // measure 62
0012
0000
1003
0001
0100
0010
1000
0000
,  // measure 63
0201
0000
0310
1000
0200
0000
0310
1000
,  // measure 64
0020
0032
2003
3020
,  // measure 65
0031
0010
1000
0001
0100
0010
1000
0100
,  // measure 66
1200
0000
0320
0000
0032
0000
1003
0100
,  // measure 67
1000
1000
0010
0010
0110
0110
0101
0101
,  // measure 68
1001
0000
0000
1010
0000
0000
0100
0000
1001
0000
0000
0011
0000
0000
0100
0000
,  // measure 69
0110
0000
0000
0110
0000
0000
0110
0000
2002
0000
0000
0000
3003
0000
0000
0000
;

//---------------dance-single - ----------------
#NOTES:
     dance-single:
     :
     Medium:
     5:
     0.396,0.452,0.194,0.279,0.077:
0000
0000
0000
0000
,
0000
0000
0000
0000
,
0000
0000
0000
0000
,
0000
0000
0000
0000
,
1000
0000
0001
0000
0100
0010
0100
0010
,
1000
0000
0001
0000
1000
0000
0010
1000
,
0100
0000
0000
0000
0010
0000
0000
0000
0001
0000
0000
0001
0000
0000
0001
0000
,
1000
0000
0000
0000
0001
0000
0000
0000
0100
0000
0000
0100
0000
0000
0100
0000
,
0010
1000
0100
0010
,
1001
0000
0001
0000
0100
0100
0100
0000
,
0110
0010
1000
0001
,
0011
1001
1010
1001
,
1000
0100
0010
0001
0100
0000
0010
0000
,
1000
0000
0100
1000
0010
0000
0100
0000
,
0001
0000
0000
0000
0010
0000
0000
0000
0001
0000
0000
0001
0000
0000
0001
0000
,
1000
0000
1000
0000
0010
0100
0010
0010
,
1000
1000
1000
0000
0001
0001
0001
0000
,
0100
0000
0010
0000
1000
0001
1000
1000
,
0001
0001
0010
0000
0200
0000
1300
0000
,
2002
0000
3003
0000
,
0001
0100
0001
0000
1000
0010
1000
0000
,
0010
0000
0100
0000
0001
0010
0100
0000
,
1000
0100
0010
0000
0001
0000
1000
0000
,
0010
0010
0010
0000
0100
0100
0100
0000
,
0001
0000
1000
0000
0100
1000
0001
0000
,
0010
0000
0001
0000
1000
0001
0200
0000
,
0320
2030
3200
0320
,
0032
0023
0230
1300
,
1001
0000
0100
0000
1001
0000
0010
1000
,
0100
0100
1000
0000
0010
1000
0010
1000
,
0002
0000
0013
0000
0100
0010
0001
0000
,
1000
0000
0000
0000
,
1001
0000
0000
0000
0000
0000
0000
0000
0001
0000
0000
0001
0000
0000
0001
0000
,
0100
0000
0010
0000
1000
0010
1000
0010
,
0100
0000
0000
0000
0000
0000
0000
0000
0001
0000
0000
0001
0000
0000
0001
0000
,
0010
0000
0000
0010
0200
0000
1300
0000
,
1001
0000
0110
0000
,
1001
0000
0001
0000
0100
0010
0100
0000
,
0110
0000
1001
0000
,
0110
0000
0000
0000
1000
0001
1000
0000
,
0001
0000
0000
0001
0000
0000
0001
0000
1000
0000
0000
1000
0000
0000
1000
0000
,
0010
0000
0000
0010
0000
0000
0010
0000
0100
0000
0000
0100
0000
0000
0100
0000
,
0010
0000
0000
1000
0000
0000
0010
0000
1000
0000
0000
0100
0000
0000
1000
0000
,
0001
0000
0000
0010
0000
0000
0001
0000
0100
0000
0000
0001
0000
0000
0100
0000
,
0110
0110
1001
0000
,
0000
0000
0000
0000
,
0000
0000
0000
0000
,
0000
0000
0000
0000
,
1001
0000
0000
0000
0001
0000
0000
0000
1000
0000
0000
1000
0000
0000
1000
0000
,
0100
0000
0000
0000
0010
0000
0000
0000
0001
0000
0000
0001
0000
0000
0001
0000
,
0100
0010
1000
0100
,
0010
0000
0000
0010
0000
0000
0010
0000
0001
0000
0000
0001
0000
0000
0001
0000
,
1000
0000
0000
1000
0000
0000
1000
0000
2002
0000
0000
0000
3003
0000
0000
0000
,
0010
0000
0010
0000
1000
0100
0010
0000
,
0001
0000
0100
0000
0002
0000
0013
0100
,
2000
3020
0032
0023
,
2030
0000
3001
0000
1001
0000
0100
0010
,
1000
0000
0100
0000
0010
0000
0001
1000
,
0100
1000
0001
0100
,
0010
1000
0100
0000
0100
1000
0010
0000
,
0010
1000
0001
0000
0010
0001
1000
0000
,
1002
0000
0013
0000
0100
0010
0001
0000
,
0200
0000
0310
0000
2000
0000
3100
0010
,
0002
0203
2300
3200
,
0302
0000
1003
0000
0001
0010
0100
1000
,
0020
2030
3200
0320
,
0032
0000
0003
0100
0010
0100
0010
0010
,
1000
0000
0000
1000
0000
0000
1000
0000
0001
0000
0000
0001
0000
0000
0001
0000
,
0100
0110
2002
3003
;

//---------------dance-single - DDRDAIKENKAI----------------
#NOTES:
     dance-single:
     DDRDAIKENKAI:
     Easy:
     3:
     0.284,0.372,0.433,0.062,0.000:
0000
0000
0000
0000
,
0000
0000
0000
0000
,
0000
0000
0000
0000
,
0000
0000
0000
0000
,
1000
0001
0100
0001
,
1000
0000
0001
0000
,
1000
0100
0010
0001
,
0100
0000
0001
0000
,
0010
0100
0010
0100
,
0110
0000
1000
1000
,
1001
0000
0001
0000
,
1001
1001
0110
0110
,
1000
1000
0001
0000
,
0100
0100
0001
0000
,
0010
0000
0100
0000
,
1000
0001
1000
1000
,
0010
0010
1000
0000
,
0001
0001
1000
0000
,
1001
0000
0110
0000
,
2002
0000
3003
0000
,
0001
0010
0100
1000
,
0001
0001
1000
1000
,
0100
0000
1000
0000
,
0010
0010
0010
0010
,
1000
0010
0100
0001
,
0100
0100
0010
0010
,
1000
0100
0010
0001
,
0001
0010
0100
1000
,
1001
0000
0001
0001
,
0100
0100
0010
1000
,
1001
1001
0110
0110
,
1000
0000
0000
0000
,
1001
0000
0100
0000
,
1001
0000
0010
0000
,
1001
0000
1000
0000
,
1001
0000
0001
0000
,
1001
0000
0110
0000
,
1001
0000
0110
0000
,
1010
0000
1100
0000
,
1010
0000
1100
0000
,
1001
1001
0110
0000
,
0110
0110
1001
0000
,
0101
0101
0011
0000
,
0011
0011
0101
0000
,
1001
0110
2002
0000
,
3003
0000
0000
0000
,
0000
0000
0000
0000
,
0000
0000
0000
0000
,
1001
0001
1000
0001
,
0100
0010
0100
0010
,
1000
0100
0010
0001
,
1001
0010
1001
0100
,
1001
0110
2002
3003
,
0001
0001
1000
0100
,
0010
0010
0100
1000
,
0010
0010
1000
1000
,
1001
0000
0100
0100
,
0010
1000
0010
0010
,
1000
0100
1000
1000
,
0001
0010
0100
1000
,
1001
0000
0100
0010
,
0110
0000
0010
1000
,
1001
0000
0001
0010
,
0100
1000
0100
0010
,
0001
0000
0100
0010
,
1000
0010
0100
0001
,
1000
0000
0001
1000
,
1100
0000
0011
0000
,
1001
0110
2002
3003
;
