#TITLE:IN THE NAME OF LOVE;
#SUBTITLE:;
#ARTIST:Y&Co. feat. Erica;
#TITLETRANSLIT:;
#SUBTITLETRANSLIT:;
#ARTISTTRANSLIT:;
#GENRE:EUROBEAT;
#CREDIT:;
#MENUCOLOR:;
#NEWMETERSYSTEM:NO;
#BANNER:IN THE NAME OF LOVE.png;
#BACKGROUND:IN THE NAME OF LOVE-bg.png;
#LYRICSPATH:;
#CDTITLE:;
#MUSIC:IN THE NAME OF LOVE.ogg;
#OFFSET:0.000;
#SAMPLESTART:49.180;
#SAMPLELENGTH:12.400;
#SELECTABLE:YES;
#LISTSORT:;
#BPMS:0.000=154.995;
#STOPS:;
#BGCHANGES:;
#ATTACKS:;

//---------------dance-single - DDRDAIKENKAI----------------
#NOTES:
     dance-single:
     DDRDAIKENKAI:
     Challenge:
     11:
     0.931,1.000,0.523,0.190,0.941:
0000
0000
0000
0000
,
0000
0000
0000
0000
,
0000
0000
0000
0000
0000
0000
0000
1010
,
0000
0000
0101
0000
0000
0000
0011
0000
0000
0000
1100
0000
0100
0000
0100
1000
,
0010
0000
1000
0000
0100
0000
0001
0100
0000
0000
1000
0000
0100
0000
0001
0100
,
0000
0000
1000
0000
0100
0000
0001
0100
0000
0000
1000
0000
0001
0000
1000
0000
,
0010
0000
0001
0000
0010
0000
1000
0100
0000
0000
1000
0000
0100
0000
0010
0000
,
0220
0000
0000
0000
0000
0000
0000
0330
0000
0010
0001
0010
0001
0010
0001
0010
,
0001
0000
0001
0100
0010
0000
0010
1000
0000
1000
0100
1000
0010
0100
0001
0010
,
0100
1000
0100
0000
0010
0000
0001
0100
0000
0010
0000
1000
0000
0100
0000
1000
,
0010
0000
0010
0100
0001
0000
0001
1000
0000
1000
0001
0100
0010
1000
0100
0010
,
0001
0010
0001
0000
1000
0000
0100
1000
0000
0001
0000
0100
0000
0010
0000
1000
,
0001
0000
0001
1000
0100
0000
0100
1000
0000
1000
0001
0100
0010
1000
0100
0010
,
0001
0010
0001
0000
0001
0000
1000
0100
0000
1000
0000
0010
0000
0100
0000
0010
,
1000
0000
1000
0100
0010
0000
0010
0100
0000
0100
1000
0000
1000
0100
0010
0000
,
0010
0001
0010
0000
0001
0000
0100
0010
0000
1000
0000
0100
0000
1000
0001
0000
,
1001
0001
0010
0001
0100
0001
1000
0001
,
0100
1000
0100
0001
0100
0010
0100
0001
,
0100
0010
1000
0010
0100
0010
0001
0010
,
1000
0100
0010
0100
0001
0100
0010
0100
,
1000
0010
1000
0010
0100
0010
0100
0010
,
0100
0001
0100
0001
0010
0100
0010
0100
,
1000
1010
0010
0110
0100
0101
0001
2002
,
3003
1100
2200
3300
0011
0022
0033
1001
,
0001
1000
0001
1000
0100
1000
0100
1000
0010
1000
0010
1000
0010
0100
0010
0100
,
0001
0100
0001
0100
0001
0010
0001
0010
0100
0010
0100
0010
0100
1000
0100
1000
,
0010
1000
0010
1000
0010
0100
0010
0100
0010
1000
0010
1000
0100
1000
0100
1000
,
0010
0000
0110
0110
0000
1010
0000
0101
,
0001
0010
0100
1000
0010
1000
0100
0010
0001
0100
0010
1000
0100
1000
0010
0100
,
0001
0010
0100
0010
0001
1000
0100
1000
0001
0100
0010
1000
0100
0010
0001
1000
,
0010
1010
0110
0000
0110
0101
0000
1001
,
0001
1000
0000
0100
1000
0000
0001
0100
0000
0001
0010
0000
0011
0000
0011
0000
,
1001
0100
0010
0100
1000
0010
0001
0010
,
1000
0100
0010
0100
1000
2010
3010
0000
,
0001
0010
1000
0001
0100
1000
0100
0010
,
0100
0001
1000
0001
0100
0210
0310
0000
,
0010
1000
0100
1000
0001
0010
1000
0010
,
0001
1000
0100
0001
0100
1000
0010
0000
,
0001
0010
1000
0100
0010
1000
0010
0001
,
0011
0000
0110
0000
0000
0000
1200
0000
0000
0000
1300
0000
1000
0010
1000
0010
,
1000
0010
0100
0010
1000
0001
1000
0010
,
0100
0001
0010
0100
1000
1001
0002
0000
,
1003
0001
0100
0010
1000
0100
1000
0010
,
0100
0001
0010
0100
1000
1010
0020
0000
,
1030
0100
1000
1010
0000
0110
0010
1000
,
0001
0100
0010
0110
0000
0101
0001
1000
,
2200
3300
0011
0011
0202
0000
0313
0000
,
1001
0000
1001
0000
0000
0000
0021
0000
0000
0000
0031
1000
0001
1000
0001
1000
,
0100
0000
0100
1000
0010
0000
0010
0100
0000
0100
0001
0010
0100
1000
0100
0010
,
0001
1000
0001
0000
1000
0000
0001
0100
0000
0010
0000
1000
0000
0100
0000
1000
,
0010
0000
0010
0100
0001
0000
0001
0010
0000
0010
0001
0100
0010
1000
0100
0010
,
0001
1000
0001
0000
1000
0000
0001
0010
0000
0100
0000
1000
0000
0001
0000
0100
,
0010
0000
0010
1000
0100
0000
0100
1000
0000
1000
0010
0100
0001
0010
0001
0100
,
0010
0100
0010
0000
1000
0000
0100
1000
0000
0010
0000
0100
0000
0001
0000
1000
,
0100
0000
0100
1000
0001
0000
0001
0100
0000
0100
0001
0000
0100
0010
1000
0000
,
0100
1000
0100
0000
0010
0000
0001
0010
0000
0100
0000
1000
0000
1000
0001
0001
,
1000
0000
1000
0001
0100
0000
0100
0001
0000
0001
0100
0100
0010
0010
1000
1000
,
0001
0010
0001
0010
0001
0000
0001
0001
0000
1000
0000
0100
0000
1000
0010
0100
,
0010
0000
0010
1000
0010
0000
0010
0100
0000
0100
0001
0010
0100
1000
0001
0100
,
0001
0001
0100
0001
0100
0000
0001
0100
0000
0010
0100
0001
0100
0100
0010
0100
,
0001
0000
0001
1000
1000
0000
0100
1000
1000
0100
0010
0100
1000
1000
0001
0100
,
0020
0000
2030
0000
3010
0010
0100
0001
0000
0100
0000
0001
0000
0010
0000
0100
,
0010
0000
0100
0100
1000
0000
0100
1000
0000
1000
0001
0000
0100
0010
1000
0000
,
0001
0010
0001
0010
0001
0000
0100
0010
0000
1000
0000
0100
1000
0100
1000
0100
,
1100
1001
0000
0011
1100
1001
0000
0011
,
1100
1001
0000
0011
0000
1001
0000
0000
;

//---------------dance-single - DDRDAIKENKAI----------------
#NOTES:
     dance-single:
     DDRDAIKENKAI:
     Hard:
     9:
     0.675,0.655,0.409,0.314,0.366: // measure 1
0000
0000
0000
0000
,  // measure 2
0000
0000
0000
0000
,  // measure 3
0000
0000
0000
0000
,  // measure 4
0000
0000
0000
0000
,  // measure 5
1000
0000
0001
1000
0100
1000
0000
1000
,  // measure 6
0001
0100
0001
0100
0010
1000
0100
0000
,  // measure 7
0010
0001
0100
0000
0010
1000
0100
0000
,  // measure 8
2000
0000
0000
0000
0000
0000
0000
3000
0000
0000
0001
0000
0001
0000
0001
0000
,  // measure 9
0100
0000
0010
0000
0100
0000
0010
1000
0000
1000
0001
0000
0010
0000
0100
0000
,  // measure 10
1000
0000
0001
0000
1000
0000
0001
0100
0000
0010
0000
0100
0000
0010
0000
0100
,  // measure 11
0001
0000
1000
0000
0100
0000
0010
0100
0000
0100
0010
0000
0100
0000
1000
0000
,  // measure 12
0001
0000
0100
0000
0010
0000
0100
0001
0000
0010
0000
0001
0000
0010
0000
0100
,  // measure 13
1000
0000
0100
0000
0010
0000
0001
0100
0000
0100
0001
0000
1000
0000
0100
0000
,  // measure 14
1000
0000
0001
0000
1000
0000
0001
0010
0000
0001
0000
0010
0000
0001
0000
0100
,  // measure 15
0010
0000
1000
0000
0010
0000
0100
0001
0000
0001
0100
0000
0010
0000
0100
0000
,  // measure 16
0001
0000
0010
0000
0001
0000
0010
0100
0000
0010
0000
0100
0000
0010
0001
0000
,  // measure 17
0102
0000
0103
0010
0100
0001
1000
0000
,  // measure 18
0100
0010
0100
0010
0001
0100
1000
0000
,  // measure 19
0100
0000
0001
0010
0100
1000
0001
0000
,  // measure 20
1000
0100
1000
0100
0010
0001
1000
0000
,  // measure 21
0001
0010
0001
0100
0000
0100
0010
1000
,  // measure 22
0000
1000
0001
0010
0000
0010
0001
0100
,  // measure 23
0000
0101
0000
1010
0000
1100
0000
0012
,  // measure 24
0000
1000
2003
0000
0001
3001
0000
1001
,  // measure 25
2000
0000
3002
0000
0103
0010
1000
0000
,  // measure 26
0100
0010
0100
0010
0001
0100
1000
0100
,  // measure 27
0001
0011
1100
0101
,  // measure 28
2010
0000
3010
0100
0000
0120
0000
0000
,  // measure 29
1030
1001
0101
0012
,  // measure 30
0013
0100
0010
0100
1000
0001
0100
0000
,  // measure 31
0102
0100
0103
0010
0100
0001
0000
2001
,  // measure 32
0001
3001
0100
0010
1000
0000
1000
0100
,  // measure 33
0010
0001
0000
0011
0000
1001
0000
2010
,  // measure 34
0000
0010
3020
0000
0130
0002
0000
0000
,  // measure 35
1003
0100
0000
1100
0000
0110
0000
0012
,  // measure 36
0000
1000
2003
0000
0010
3020
0000
0000
,  // measure 37
0130
0001
0000
0101
0000
0001
0010
0100
,  // measure 38
1000
0010
0000
1020
0000
1000
2030
0000
,  // measure 39
3100
0010
0000
0210
0000
0310
0001
0100
,  // measure 40
0010
0110
0000
1020
0000
0000
1000
1000
,  // measure 41
1030
0001
0000
1001
0000
0101
0000
0011
,  // measure 42
0000
0001
0200
0000
0010
0320
0000
0000
,  // measure 43
1030
0100
0000
1100
0000
0110
0000
0012
,  // measure 44
0000
1000
2003
0000
0010
3020
0000
0000
,  // measure 45
1030
0001
0000
1001
0000
0001
1000
0100
,  // measure 46
1000
0001
0000
1001
0000
0001
0100
0010
,  // measure 47
2000
0000
0010
0010
3010
0000
0120
0000
,  // measure 48
1030
0001
0000
1002
0000
1003
0100
0010
,  // measure 49
0001
0000
1000
0000
0100
0000
1000
0001
0000
1000
0001
0000
0100
0000
0010
0000
,  // measure 50
0100
0000
0001
0000
0010
0000
0100
1000
0000
0100
0000
1000
0000
0010
0000
0100
,  // measure 51
0010
0000
0100
0000
0001
0000
0100
0010
0000
0100
0001
0000
0010
0000
0001
0000
,  // measure 52
0010
0000
0100
0000
1000
0000
0001
0100
0000
0001
0000
0100
0000
0010
0000
0100
,  // measure 53
0010
0000
1000
0000
0001
0000
1000
0001
0000
1000
0100
0000
0010
0000
0100
0000
,  // measure 54
1000
0000
0100
0000
1000
0000
0010
1000
0000
0010
0000
1000
0000
0001
0000
1000
,  // measure 55
0001
0000
0100
0000
0010
0000
1000
0001
0000
1000
0010
0000
1000
0000
0100
0000
,  // measure 56
0020
0000
0000
0032
0000
0000
2003
0000
0100
0000
3100
0000
1000
0000
0001
0000
,  // measure 57
1001
0000
1000
0000
0001
0000
0001
0100
0000
0100
0010
0000
1000
0000
0100
0000
,  // measure 58
1000
0000
1000
0000
1000
0000
1000
0001
0000
0100
0000
0010
0000
1000
0000
0010
,  // measure 59
0100
0000
1000
0000
0100
0000
0001
0010
0000
0001
0010
0000
0100
0000
1000
0000
,  // measure 60
0100
0000
0100
0000
0100
0000
0001
0100
0000
1000
0000
1000
0010
0000
0010
0000
,  // measure 61
1010
0000
0000
0010
0001
0000
0000
0001
0010
0000
1000
0000
0100
0000
0001
0000
,  // measure 62
0100
0000
0010
0000
0100
0000
0100
1000
0000
0010
0000
0100
0000
0010
0000
0100
,  // measure 63
0001
0000
0010
0000
0001
0000
0010
0100
0000
0010
0100
0000
1000
0000
0100
0000
,  // measure 64
0010
0000
0100
0000
0010
0000
0100
1000
0000
0001
0000
1000
0000
0001
0000
0100
,  // measure 65
0010
0110
0000
0010
1000
1001
0000
0001
,  // measure 66
1000
0000
0000
0000
0000
0000
0000
0000
0000
0000
0000
0000
0000
0000
0000
0000
0000
0000
0000
0000
0000
0000
0000
0000
1100
0000
0000
0000
0000
0000
0000
0000
0000
0000
0000
0000
0000
0000
0000
0000
0000
0000
0000
0000
0000
0000
0000
0000
0000
0000
0000
0000
0000
0000
0000
0000
0000
0000
0000
0000
0000
0000
0000
0000
0000
0000
0000
0000
0000
0000
0000
0000
0210
0000
0000
0000
0000
0000
0000
0000
0000
0000
0000
0000
0000
0000
0000
0000
0000
0000
0000
0000
0000
0000
0000
0000
0000
0000
0000
0000
0000
0000
0000
0000
0000
0000
0000
0000
0000
0000
0000
0000
0000
0000
0000
0000
0000
0000
0000
0000
0010
0300
0000
0000
0000
0000
0000
0000
0000
0000
0000
0000
0000
0000
0000
0000
0000
0000
0000
0000
0000
0000
0000
0000
0000
0000
0000
0000
0000
0000
0000
0000
0000
0000
0000
0000
0000
0000
0000
0000
0000
0000
0000
0000
0000
0000
0000
0000
0000
0000
0000
0000
0000
0000
0000
0000
0000
0000
0000
0000
0000
0000
0000
0000
0000
0000
0000
0000
0000
0000
0000
0000
;

//---------------dance-single - DDRDAIKENKAI----------------
#NOTES:
     dance-single:
     DDRDAIKENKAI:
     Medium:
     5:
     0.409,0.374,0.057,0.067,0.000:
0000
0000
0000
0000
,
0000
0000
0000
0000
,
0000
0000
0000
0000
,
0000
0000
0000
0000
,
0001
0000
1000
0000
0001
0100
0001
0000
,
0010
0100
0010
0100
0010
0000
0100
0000
,
1000
0001
0100
0010
,
0220
0000
0000
0000
0000
0000
0000
0330
0000
0000
0000
0000
0000
0000
0000
0000
,
1000
0100
1000
0010
,
0100
0001
0100
0001
0010
0000
0001
0000
,
0100
0010
1000
0100
,
0010
0001
0010
0001
1000
0000
0001
0000
,
0100
0010
1000
0100
,
1000
0010
1000
0010
1000
0000
0010
0000
,
0100
0001
0010
0100
,
1000
0001
1000
0001
0100
0000
0010
0000
,
1000
0000
0001
0000
1000
0100
1000
0000
,
0001
0010
0001
0000
0100
0000
0000
0000
,
0010
0000
1000
0000
0001
0100
0001
0000
,
1000
0010
1000
0000
0001
0000
0000
0000
,
1000
0100
0000
0001
0000
0010
0000
0001
,
0000
0100
0000
1000
0000
0010
0000
0001
,
0000
0001
0000
1000
0000
1000
0000
0001
,
0000
0001
0100
0000
0100
0010
0000
0110
,
0000
0010
1000
0001
,
1000
0100
1000
0100
1000
0000
0001
0000
,
1000
0001
0010
0001
,
0101
0000
0001
0100
0000
0110
0000
0000
,
0010
1000
0100
1000
,
0010
0100
0010
0100
0001
0000
0000
0000
,
0010
0100
0010
0000
0100
1000
0000
2002
,
0000
0000
0000
0000
3003
0000
0001
1000
,
0100
1000
0000
0001
0000
0100
0000
0010
,
0000
1000
0010
0000
1000
0000
0000
0000
,
0001
0010
0000
0100
0000
1000
0000
0001
,
0000
0100
0010
0000
0100
0000
0000
0000
,
0010
1000
0000
0001
0000
1000
0100
0000
,
1000
0001
0000
0100
0000
0000
0000
0000
,
0010
1000
0000
0010
0000
0100
0001
0000
,
0010
0001
0000
2000
0000
3000
0001
0100
,
0001
0100
0000
0010
0000
1000
0000
0100
,
0000
0010
0001
0000
1000
0000
0000
0000
,
0001
0010
0000
0100
0000
1000
0000
0001
,
0000
0100
0010
0000
0010
0000
0000
0000
,
1000
0001
0000
1000
0000
0100
1000
0000
,
0001
0100
0000
0010
0000
0000
0000
0000
,
1000
0000
0001
0010
0001
0000
1000
0000
,
0001
0100
0000
0110
0000
0010
1000
0000
,
0001
0000
1000
0000
0010
0100
0010
0000
,
1000
0000
0100
0000
1000
0001
1000
0000
,
0001
0000
0100
0000
0010
1000
0010
0000
,
0100
0001
0100
0000
0001
0010
0001
0000
,
1000
0000
0100
0000
0010
0001
0010
0000
,
0100
0000
1000
0000
0001
0100
0001
0000
,
1000
0000
0010
0000
0100
0001
0100
0000
,
0001
1000
0001
0000
1000
0001
1000
0000
,
0010
0000
0010
1000
0100
0000
1000
0000
,
0001
0100
0001
0000
0100
0000
0010
1000
,
0010
0000
0100
0000
0001
0010
0100
0000
,
1000
0100
0010
0000
0001
0000
1000
0100
,
1000
0000
1000
0000
1000
0001
0100
0000
,
0010
0100
0010
0000
0010
1000
0100
0000
,
1000
0001
0100
0001
,
0010
0100
0010
0000
0100
1000
0001
0000
,
0100
0010
0000
0010
1000
0001
0000
0001
,
1000
0200
0000
0020
0000
0330
0000
0000
;

//---------------dance-single - DDRDAIKENKAI----------------
#NOTES:
     dance-single:
     DDRDAIKENKAI:
     Beginner:
     1:
     0.235,0.312,0.143,0.105,0.000:
0000
0000
0000
0000
,
0000
0000
0000
0000
,
0000
0000
0000
0000
,
0000
0000
0000
0000
,
0000
1000
1000
0000
,
0001
0001
0001
0000
,
0100
0000
0010
0000
,
0220
0000
0330
0000
,
1000
0000
0001
0000
,
1000
1000
1000
0000
,
0001
0000
1000
0000
,
0001
0001
0001
0000
,
0100
0000
0010
0000
,
0100
0100
0100
0000
,
0010
0000
0100
0000
,
0010
0010
0010
0010
,
0010
0000
1000
0000
,
0001
0001
0001
0000
,
1000
0000
0100
0000
,
0010
0010
0010
0000
,
0001
0000
0100
0000
,
1000
0000
0010
0000
,
0001
0000
0010
0000
,
1000
1000
1000
0000
,
0100
0000
0010
0000
,
0001
0001
0001
0000
,
0100
0000
0010
0000
,
2002
0000
3003
0000
,
1000
0000
0001
0000
,
0100
0100
0100
0000
,
0010
0010
0010
0000
,
2002
0000
3003
0000
,
1000
0000
0001
0000
,
0100
0100
0100
0000
,
0001
0000
1000
0000
,
0100
0100
0100
0000
,
0010
0010
0010
0000
,
0001
0001
0001
0000
,
1000
0000
0100
0000
,
0220
0000
0330
0000
,
0001
0000
0100
0000
,
0010
0010
0010
0000
,
1000
0000
0001
0000
,
0100
0100
0100
0000
,
0010
0000
0100
0000
,
0001
0000
1000
0000
,
0100
0100
0100
0000
,
0020
0000
0030
0000
,
0001
0000
1000
0000
,
0001
0001
0001
0000
,
1000
0000
0001
0000
,
1000
1000
1000
0000
,
0010
0000
0100
0000
,
0010
0010
0010
0000
,
0100
0000
0010
0000
,
0100
0100
0100
0000
,
1001
0000
1000
0000
,
1001
1001
1001
0000
,
0001
0000
1001
0000
,
1000
1000
1000
0000
,
0110
0110
0110
0000
,
0010
0010
0010
0000
,
0100
0100
0100
0000
,
0010
0010
0010
0000
,
0110
0000
1001
0000
,
0220
0000
0000
0000
0000
0330
0000
0000
;

//---------------dance-single - DDRDAIKENKAI----------------
#NOTES:
     dance-single:
     DDRDAIKENKAI:
     Easy:
     4:
     0.330,0.374,0.086,0.086,0.000:
0000
0000
0000
0000
,
0000
0000
0000
0000
,
0000
0000
0000
0000
,
0000
0000
0000
0000
,
1000
0001
1000
0000
,
0001
1000
0100
0000
,
0010
0001
0100
0010
,
2000
0000
0000
0000
0000
0000
0000
3000
0000
0000
0000
0000
0000
0000
0000
0000
,
0001
0010
0001
0010
,
0100
1000
0100
1000
,
0001
0100
0001
0100
,
0010
0010
1000
1000
,
1001
0001
1000
0001
,
1000
0100
0010
0001
,
0100
0010
0100
0010
,
1000
0100
1000
0010
,
0100
0100
0001
0001
,
1000
0100
0001
0000
,
0010
0010
0001
0001
,
0100
1000
0001
0000
,
1000
0100
1000
0100
,
0010
0001
0010
0001
,
0100
0000
0010
0000
1000
0000
0000
0001
,
0000
0001
0001
0000
1000
1000
0000
1001
,
0000
1000
0100
0000
,
0010
0001
0100
0010
,
1000
1000
0001
0000
,
1000
0000
0001
0001
0000
0100
0000
0000
,
0110
0100
0010
0010
,
1000
0100
0001
0000
,
0100
0000
1000
0000
0002
0000
0000
2000
,
0000
0000
3003
0000
,
0001
0010
0001
0100
,
0010
0010
1000
0000
,
0001
1000
0100
0010
,
0100
0100
1000
0000
,
0010
1000
0001
0001
,
0010
0001
0100
0000
,
0010
1000
0100
0001
,
0200
0000
0000
2300
0000
0000
3001
0000
,
1001
0010
0001
0100
,
0010
0010
1000
0000
,
0001
0010
0001
1000
,
0100
0100
0010
0000
,
0100
1000
0001
0100
,
1000
1000
0100
0000
,
0001
1001
2002
3003
,
1000
1000
0000
0100
0000
0000
0010
0000
,
0001
0100
0001
0100
,
0010
1000
0010
1000
,
0001
0010
0001
0010
,
0100
1000
0100
1000
,
0001
1000
0001
1000
,
0010
0100
0010
0100
,
0010
1000
0100
0001
,
0010
0001
0100
1000
,
0001
0001
1000
1000
,
0010
0010
1000
0100
,
1000
1000
0001
0100
,
0001
0001
0010
0001
,
1001
1001
1001
1000
,
0001
0001
0100
0010
,
1000
1000
0001
0001
,
0010
0100
1000
0100
,
1000
1000
0000
0000
0001
0001
0000
0000
,
0100
0200
0000
0020
0000
0330
0000
0000
;
