#VERSION:0.83;
#TITLE:IGNITE;
#SUBTITLE:;
#ARTIST:藍井 エイル;
#TITLETRANSLIT:;
#SUBTITLETRANSLIT:;
#ARTISTTRANSLIT:Aoi Eir;
#GENRE:J-POP;
#ORIGIN:;
#CREDIT:SWORD ART ONLINE II;
#BANNER:IGNITE.png;
#BACKGROUND:IGNITE-bg.png;
#PREVIEWVID:;
#JACKET:IGNITE-jacket.png;
#CDIMAGE:;
#DISCIMAGE:;
#LYRICSPATH:;
#CDTITLE:CDTitle.png;
#MUSIC:IGNITE.ogg;
#OFFSET:-1.583000;
#SAMPLESTART:53.615002;
#SAMPLELENGTH:11.600000;
#SELECTABLE:YES;
#BPMS:0.000=171.000;
#STOPS:;
#DELAYS:;
#WARPS:;
#TIMESIGNATURES:0.000=4=4;
#TICKCOUNTS:0.000=4;
#COMBOS:0.000=1;
#SPEEDS:0.000=1.000=0.000=0;
#SCROLLS:0.000=1.000;
#FAKES:;
#LABELS:0.000=Song Start;
#BGCHANGES:-5.730=IGNITE.mpg=1.000=1=0=1===CrossFade==,
99999=-nosongbg-=1.000=0=0=0 // don't automatically add -songbackground-
;
#KEYSOUNDS:;
#ATTACKS:
;

//---------------dance-single - DDRDAIKENKAI----------------
#NOTEDATA:;
#CHARTNAME:DDRDAIKENKAI;
#STEPSTYPE:dance-single;
#DESCRIPTION:DDRDAIKENKAI;
#CHARTSTYLE:;
#DIFFICULTY:Hard;
#METER:8;
#RADARVALUES:0.605754,0.872320,0.466322,0.477167,0.070491,391.000000,348.000000,43.000000,44.000000,0.000000,0.000000,0.000000,0.000000,0.000000,0.605754,0.872320,0.466322,0.477167,0.070491,391.000000,348.000000,43.000000,44.000000,0.000000,0.000000,0.000000,0.000000,0.000000;
#CREDIT:DDRDAIKENKAI;
#NOTES:
// measure 0
0000
0000
0000
0000
,  // measure 1
0000
0000
0000
0000
,  // measure 2
0000
0000
0000
0000
,  // measure 3
0000
0000
0000
0000
,  // measure 4
0000
0000
0000
0000
,  // measure 5
0000
0000
0000
0000
,  // measure 6
0000
0000
0000
0000
,  // measure 7
0000
0000
0000
0000
0000
0000
0000
0000
1001
0000
1001
0000
0000
0000
0001
1000
,  // measure 8
0002
0000
1003
0100
1000
0001
0010
0001
,  // measure 9
0200
0320
2030
3200
,  // measure 10
0310
0001
0010
0001
0100
0010
0100
0102
,  // measure 11
0000
1003
0100
0010
1001
1001
0000
0000
,  // measure 12
0120
0000
1000
0000
0130
0000
1000
0100
,  // measure 13
1000
0000
0001
0010
0000
0001
0000
0100
,  // measure 14
0020
0000
1030
0010
2000
0000
0100
0000
,  // measure 15
0001
3100
0020
0032
,  // measure 16
1003
0010
1000
0100
0010
0000
0001
0000
,  // measure 17
0100
0010
0100
0001
0010
0000
0100
0000
,  // measure 18
1000
0010
0001
0010
1000
0000
0001
0000
,  // measure 19
1000
0100
0001
0100
2000
0000
3001
0001
,  // measure 20
1002
0000
1003
0200
0000
1300
0001
0010
,  // measure 21
0001
0000
0001
0100
0010
1000
0000
0001
,  // measure 22
0020
0000
0031
0100
1000
0000
1000
0100
,  // measure 23
0001
1000
0100
0010
0200
0000
2300
0000
,  // measure 24
3001
0010
0001
0010
0100
1000
0100
0000
,  // measure 25
1000
0001
1000
0001
0100
0010
1000
0000
,  // measure 26
2100
0000
0000
3001
0000
0010
0012
0000
,  // measure 27
0000
1003
0000
0010
1000
0100
0001
0100
,  // measure 28
1100
1100
0000
1001
1001
0000
0011
0011
,  // measure 29
0000
0110
0110
0000
0010
0001
0010
0100
,  // measure 30
1100
1100
0000
1010
1010
0000
0110
0110
,  // measure 31
0000
0000
0101
0000
0101
0000
0001
0100
0001
0000
1000
0000
0100
0000
0010
0000
,  // measure 32
1002
0000
0103
0001
1000
0000
0100
1000
,  // measure 33
0000
0001
0010
0001
0100
0010
1000
0100
,  // measure 34
2000
0000
3010
1000
0200
0000
1300
0001
,  // measure 35
0100
0010
0000
1000
0001
0100
0020
0000
,  // measure 36
1030
0000
0001
0010
0001
0000
0010
0000
0100
0000
1000
0000
0001
0000
0100
0000
,  // measure 37
0000
0000
0000
0000
0110
0110
0000
0000
,  // measure 38
1002
1000
0100
0010
,  // measure 39
0103
0001
0010
0100
1000
0010
0001
0010
,  // measure 40
2000
0100
3100
0000
0002
0100
0103
0000
,  // measure 41
1000
0000
0010
0000
0001
0000
1000
0000
0100
0000
0010
0000
0001
0000
0010
1000
,  // measure 42
0020
0130
1200
0310
,  // measure 43
0102
1003
0021
0130
,  // measure 44
1000
0010
0100
0001
0010
0100
1000
0010
,  // measure 45
1000
0100
0001
0100
1000
0010
0001
0010
,  // measure 46
2000
0001
0010
0001
,  // measure 47
3010
0100
0010
0100
0001
1000
0100
1000
,  // measure 48
0002
0010
0013
0000
2000
0010
3010
0000
,  // measure 49
0001
0000
0100
0000
1000
0000
0001
0000
0010
0000
0100
0000
1000
0000
0100
0001
,  // measure 50
0200
0310
2010
3001
,  // measure 51
0012
1003
2100
3001
,  // measure 52
0100
0001
0010
0100
1000
0010
0100
0001
,  // measure 53
0010
0000
0100
0000
1000
0000
0010
0000
1000
0000
0100
0000
0010
0000
0001
1000
,  // measure 54
0002
0000
1003
0100
1000
0001
1000
0010
,  // measure 55
1000
0100
0010
0001
0100
0001
0101
0000
,  // measure 56
2100
0000
3001
0010
0001
0100
0010
1000
,  // measure 57
0100
0001
0100
1000
0010
0002
0000
0013
,  // measure 58
0100
0000
0000
0000
0101
0000
0001
0000
0100
0000
0010
0000
0000
0100
0010
0000
,  // measure 59
1000
0000
0000
0100
1000
0000
0010
0000
0000
1000
0001
0000
1000
0000
0100
0000
,  // measure 60
1200
0000
1300
0001
0100
0000
2000
0000
3100
0001
1000
0000
0200
0000
0310
0001
,  // measure 61
0100
0000
0020
0000
1030
0100
0010
0000
0011
0000
0011
0000
0011
0000
1001
0000
;

//---------------dance-single - DDRDAIKENKAI----------------
#NOTEDATA:;
#CHARTNAME:DDRDAIKENKAI;
#STEPSTYPE:dance-single;
#DESCRIPTION:DDRDAIKENKAI;
#CHARTSTYLE:;
#DIFFICULTY:Medium;
#METER:6;
#RADARVALUES:0.426042,0.503262,0.238583,0.574769,0.000000,275.000000,253.000000,22.000000,53.000000,0.000000,0.000000,0.000000,0.000000,0.000000,0.426042,0.503262,0.238583,0.574769,0.000000,275.000000,253.000000,22.000000,53.000000,0.000000,0.000000,0.000000,0.000000,0.000000;
#CREDIT:DDRDAIKENKAI;
#NOTES:
0000
0000
0000
0000
,
0000
0000
0000
0000
,
0000
0000
0000
0000
,
0000
0000
0000
0000
,
0000
0000
0000
0000
,
0000
0000
0000
0000
,
0000
0000
0000
0000
,
0000
0000
0000
0000
1001
1001
0000
0000
,
0002
0000
1000
0000
1003
0100
1000
0000
,
0200
0320
0032
0203
,
0320
0000
1000
0000
1030
0100
0010
0002
,
0000
0100
0103
0000
0110
0110
0000
0000
,
2001
0000
0100
0000
3100
0000
0010
0001
,
0010
0000
0100
0000
0100
0000
1000
0010
,
1000
0000
0100
0010
0100
0000
1000
0000
,
0001
0000
0001
0000
1000
0010
1000
0000
,
0001
0100
0001
0000
1000
0000
0010
0000
,
0001
0010
1000
0100
,
0020
0000
0000
0100
0230
0000
0000
0000
,
2300
0000
0000
0001
3002
0000
0103
0010
,
1000
0000
0100
0000
0010
0000
0001
0100
,
0001
0000
0010
0000
0100
0000
1000
0010
,
1000
0000
0010
0000
0100
0000
0001
1000
,
0001
0000
0100
0000
0010
1000
0010
0000
,
0100
0001
0010
0100
,
1000
0010
0100
0001
,
0012
0000
0000
1003
0000
0000
2100
0000
,
0000
3001
0000
0000
0100
0010
2000
0000
,
3001
0001
0010
0000
0100
0100
0000
1000
,
0001
1000
0001
0000
0100
0010
0100
0010
,
1000
0000
0002
0000
0013
0010
0000
0001
,
1000
0001
1000
0000
0100
0010
0100
0010
,
0001
0000
0100
0000
0110
0000
0100
0002
,
0000
1003
0000
0100
0010
0000
0100
0000
,
0120
0000
0000
0100
0130
0000
0000
1000
,
0010
1000
0000
0100
0000
0010
0002
0000
,
0000
0103
0010
0000
0100
0001
1000
0100
,
0000
0000
0000
0000
0110
0110
0000
0000
,
2001
0010
0001
3100
,
0010
0001
0010
0000
0001
0100
0001
0000
,
0200
0310
0020
0130
,
0200
0301
0002
1003
,
2001
0100
0020
3030
,
1002
0100
0020
0033
,
0010
0002
0000
0203
0000
2300
0000
3200
,
0000
0301
1000
0001
1000
0001
1000
0002
,
0010
0010
0100
0103
,
0010
0100
0010
0100
0010
0100
0001
0000
,
2000
3001
0002
1003
,
2000
3020
0230
0301
,
0102
1000
0020
0033
,
2100
0001
0020
3030
,
0100
0002
0000
2003
0000
3200
0000
0320
,
0000
0031
0100
0000
0010
1000
0000
1000
,
0001
0000
0001
0010
0000
1000
0000
0010
,
0000
0001
0000
0100
0000
0010
2000
0000
,
3020
0000
0130
0001
0000
0010
0000
0100
,
0000
0010
0000
0001
0000
2000
0000
0100
,
3200
0010
0001
0010
,
1300
1100
0011
1002
,
1003
0000
0100
1200
0000
0310
0001
0000
,
0100
0102
0000
0103
0010
0010
0010
0110
;

//---------------dance-single - DDRDAIKENKAI----------------
#NOTEDATA:;
#CHARTNAME:DDRDAIKENKAI;
#STEPSTYPE:dance-single;
#DESCRIPTION:DDRDAIKENKAI;
#CHARTSTYLE:;
#DIFFICULTY:Easy;
#METER:4;
#RADARVALUES:0.252526,0.335508,0.043379,0.347030,0.000000,163.000000,159.000000,4.000000,32.000000,0.000000,0.000000,0.000000,0.000000,0.000000,0.252526,0.335508,0.043379,0.347030,0.000000,163.000000,159.000000,4.000000,32.000000,0.000000,0.000000,0.000000,0.000000,0.000000;
#CREDIT:DDRDAIKENKAI;
#NOTES:
0000
0000
0000
0000
,
0000
0000
0000
0000
,
0000
0000
0000
0000
,
0000
0000
0000
0000
,
0000
0000
0000
0000
,
0000
0000
0000
0000
,
0000
0000
0000
0000
,
0000
0000
0000
0000
,
1001
0000
1000
1000
,
0001
0100
0010
1000
,
0020
0000
0000
0000
0000
0000
0000
0200
,
0000
0000
0330
0000
,
0200
0000
0000
0301
,
0001
0000
1000
1000
,
2000
0000
0200
0000
,
3300
0000
0010
0010
,
0001
0100
0001
0000
,
1000
0010
1000
0000
,
0010
0100
0010
0000
,
1000
0001
1001
0000
,
0001
0010
0001
0001
,
1000
0100
1000
1000
,
0010
0100
0020
0000
,
0100
0100
0130
0000
,
0001
1000
0001
0001
,
1000
0001
1000
1000
,
0200
0000
0000
0310
0000
0000
0020
0000
,
0000
0130
0000
0000
1000
0000
1000
0000
,
0001
0000
0000
0100
0000
0000
0010
0000
,
0000
1000
0000
0000
0100
0000
0100
0000
,
0010
0000
0000
0001
0000
0000
0100
0000
,
0000
0010
0000
0000
1000
0000
1000
0000
,
0200
0000
2300
0000
,
3100
0010
0001
0100
,
0020
0000
0130
0000
,
0001
0010
0100
2000
,
0000
0000
0000
0000
0000
0000
0000
3001
,
0000
0000
0000
0000
,
1002
1000
1000
1003
,
0001
0100
0010
1000
,
0002
0000
2003
0000
,
3020
0000
0130
0000
,
0020
1000
0200
0330
,
0002
0100
0020
0033
,
0001
1000
0100
0010
,
0001
0010
0100
1000
,
0002
0000
1000
1003
,
0010
0100
0010
0100
,
0002
0000
2003
0000
,
3200
0000
0310
0000
,
0200
1000
2000
3300
,
0020
0100
0200
0330
,
0001
0010
0001
0100
,
0010
1000
0100
0010
,
0001
0001
0001
0001
,
0100
0010
0100
0010
,
1000
1000
1000
1000
,
0100
0010
0100
0010
,
0002
1000
1000
1000
,
2003
0001
0001
3001
,
2002
0000
0000
0000
,
0000
0000
0000
0000
0000
0000
0000
3003
;
