#TITLE:I'm Never Gonna Let You Down and Forget You;
#SUBTITLE:;
#ARTIST:Nuage feat. Sonia;
#TITLETRANSLIT:;
#SUBTITLETRANSLIT:;
#ARTISTTRANSLIT:;
#GENRE:SUPER EUROBEAT;
#CREDIT:;
#MENUCOLOR:;
#NEWMETERSYSTEM:NO;
#BANNER:I'm Never Gonna Let You Down and Forget You.png;
#BACKGROUND:I'm Never Gonna Let You Down and Forget You-bg.png;
#LYRICSPATH:;
#CDTITLE:CDTitle.png;
#MUSIC:I'm Never Gonna Let You Down and Forget You.ogg;
#OFFSET:-1.813;
#SAMPLESTART:57.555;
#SAMPLELENGTH:14.200;
#SELECTABLE:YES;
#LISTSORT:;
#BPMS:0.000=135.000;
#STOPS:;
#BGCHANGES:;
#ATTACKS:;

//---------------dance-single - DDRDAIKENKAI----------------
#NOTES:
     dance-single:
     DDRDAIKENKAI:
     Hard:
     7:
     0.477,0.459,0.230,0.188,0.000: // measure 1
0000
0000
0000
0000
,  // measure 2
0000
0000
0000
0000
,  // measure 3
0000
0000
0000
0000
,  // measure 4
0000
0000
0000
0000
,  // measure 5
1001
0001
0100
0010
2000
0000
3000
0000
,  // measure 6
1001
1000
0010
0100
0000
0110
0000
0101
,  // measure 7
0001
0010
0100
1000
,  // measure 8
0010
0100
0010
0100
0220
0000
0330
0000
,  // measure 9
0001
1000
0010
0100
0001
0001
0001
1000
,  // measure 10
0100
1000
0010
0100
0010
0010
0010
1000
,  // measure 11
0100
0010
0001
1000
0100
0100
0100
1000
,  // measure 12
0001
1000
0010
0100
,  // measure 13
0001
0010
0100
1000
0010
0010
0010
1000
,  // measure 14
0100
0010
0001
0100
1000
1000
1000
0100
,  // measure 15
0001
0010
0100
1000
0100
0100
0100
1000
,  // measure 16
0001
0001
1000
1001
,  // measure 17
0110
0000
0010
1000
0100
1000
0001
0000
,  // measure 18
0100
0000
0001
0010
0000
0100
1000
0000
,  // measure 19
0001
0000
1000
0001
0100
0010
1000
0000
,  // measure 20
0001
0000
1000
0010
0000
0100
0001
0100
,  // measure 21
1000
0000
0100
0010
1000
0000
0100
0010
,  // measure 22
0001
0000
0001
0000
1000
0010
0100
0000
,  // measure 23
0001
0010
0001
0010
0100
1000
0100
1000
,  // measure 24
0002
0000
0100
0000
0103
0010
0100
0010
,  // measure 25
2000
0000
3100
0010
0002
0000
0103
0010
,  // measure 26
2000
3010
0020
0130
,  // measure 27
0110
0000
0000
1010
0000
0000
1001
0000
,  // measure 28
0100
0010
0100
0010
0001
0100
1000
0000
,  // measure 29
1100
0000
0100
0002
0000
0103
0010
1000
,  // measure 30
0100
0000
1000
0020
0000
0130
0001
0010
,  // measure 31
0100
0010
0001
0100
,  // measure 32
0110
0000
0000
0010
1000
0001
0100
0010
,  // measure 33
0110
0000
0100
0001
1000
0010
0100
0000
,  // measure 34
0110
0000
0000
1010
0000
0000
1001
0000
,  // measure 35
0101
0000
0002
0000
0023
0000
0130
1000
,  // measure 36
1010
0000
0000
1200
0000
0310
0001
0100
,  // measure 37
1000
0100
0001
0010
0200
0000
1300
0000
,  // measure 38
0010
1000
0001
0100
0000
0110
0000
1010
,  // measure 39
0010
0000
0100
0000
0001
0000
0010
0100
,  // measure 40
1000
0100
1000
0100
0010
0001
0100
0010
,  // measure 41
1000
0100
1000
0010
0100
0100
0100
0001
,  // measure 42
0010
0001
0100
0010
1000
1000
1000
0100
,  // measure 43
0010
0001
0100
0001
0010
0010
0010
0100
,  // measure 44
1000
0010
0100
0001
,  // measure 45
1000
0001
0010
0001
0100
0100
0100
1000
,  // measure 46
0100
0001
0010
0100
0010
0010
0010
0001
,  // measure 47
0010
1000
0001
0100
1000
1000
1000
0001
,  // measure 48
0010
0000
0001
0000
0100
0010
0001
0010
,  // measure 49
2000
0001
0000
3001
,  // measure 50
0200
0010
0000
0301
,  // measure 51
0020
0100
0000
1030
,  // measure 52
0002
1000
0003
1001
;

//---------------dance-single - DDRDAIKENKAI----------------
#NOTES:
     dance-single:
     DDRDAIKENKAI:
     Medium:
     5:
     0.376,0.378,0.073,0.178,0.000: // measure 1
0000
0000
0000
0000
,  // measure 2
0000
0000
0000
0000
,  // measure 3
0000
0000
0000
0000
,  // measure 4
0000
0000
0000
0000
,  // measure 5
0000
1000
0100
0010
0002
0000
0003
0000
,  // measure 6
0001
0000
1000
0100
0000
1000
0000
0001
,  // measure 7
0100
0001
1000
0100
,  // measure 8
1000
0001
1000
0001
2002
0000
3003
0000
,  // measure 9
0001
0000
1000
0000
0001
1000
0100
0000
,  // measure 10
1000
0000
0001
0000
1000
0001
0100
0000
,  // measure 11
0010
0000
0100
0000
0010
1000
0100
0000
,  // measure 12
0010
0001
0100
0010
2000
0000
3001
0000
,  // measure 13
0010
0000
0100
0000
0010
0001
1000
0000
,  // measure 14
0100
0000
1000
0000
0010
1000
0001
0000
,  // measure 15
0100
0000
0001
0000
0010
0001
0100
0000
,  // measure 16
0010
1000
0100
0000
0010
0001
0100
0000
,  // measure 17
0110
0000
0010
1000
0000
0001
0000
0010
,  // measure 18
0000
0100
1000
0100
0000
0010
0000
0001
,  // measure 19
0000
1000
0010
1000
0000
0001
0100
0001
,  // measure 20
0000
1000
0000
0100
0000
1000
0010
0100
,  // measure 21
0000
0001
0010
0001
0010
0000
0100
1000
,  // measure 22
0000
0010
0000
0100
0000
0001
0000
1000
,  // measure 23
0100
0010
0001
0010
0000
0100
0000
2000
,  // measure 24
0000
0000
0000
0000
3000
0001
0010
0002
,  // measure 25
0000
0003
0100
0010
2000
0000
3100
0010
,  // measure 26
0002
1003
2000
3001
,  // measure 27
0100
0000
0010
1000
0100
0000
0010
0200
,  // measure 28
1000
1300
0010
0010
,  // measure 29
1001
0000
0001
1000
0000
1000
0001
0000
,  // measure 30
0100
0000
0010
1000
0000
1000
0100
0000
,  // measure 31
0010
0001
0100
0010
,  // measure 32
0110
0000
0000
0010
1000
0000
0001
0000
,  // measure 33
1001
0000
0001
1000
0000
1000
0001
0000
,  // measure 34
1001
0000
0001
0100
0000
0100
0010
0000
,  // measure 35
0110
0000
0010
0000
1000
0000
0100
0010
,  // measure 36
0002
0000
0000
2003
0000
3100
1000
0100
,  // measure 37
1000
0000
0010
0100
0010
0000
1000
0000
,  // measure 38
0001
0010
0001
0010
0000
0100
0000
1000
,  // measure 39
0010
0001
0100
1000
,  // measure 40
0100
0010
0100
0010
0001
1000
0001
1000
,  // measure 41
0001
0000
1000
0000
0001
1000
0100
0000
,  // measure 42
1000
0000
0001
0000
1000
0001
0100
0000
,  // measure 43
0010
0000
0100
0000
0010
1000
0100
0000
,  // measure 44
0010
0001
0100
0010
2000
0000
3001
0000
,  // measure 45
0010
0000
0100
0000
0010
0001
1000
0000
,  // measure 46
0100
0000
1000
0000
0010
1000
0001
0000
,  // measure 47
0100
0000
0001
0000
0010
0001
0100
0000
,  // measure 48
0010
1000
0100
0000
0010
0001
0100
0010
,  // measure 49
2000
0000
0000
0000
,  // measure 50
3002
0000
0000
0000
,  // measure 51
0203
0000
0000
0000
,  // measure 52
0320
0000
0000
1030
;

//---------------dance-single - DDRDAIKENKAI----------------
#NOTES:
     dance-single:
     DDRDAIKENKAI:
     Easy:
     3:
     0.201,0.270,0.042,0.094,0.000: // measure 1
0000
0000
0000
0000
,  // measure 2
0000
0000
0000
0000
,  // measure 3
0000
0000
0000
0000
,  // measure 4
0000
0000
0000
0000
,  // measure 5
1001
0000
0000
0000
,  // measure 6
0100
0000
0000
0010
0000
0010
0000
0000
,  // measure 7
2000
0000
0000
0000
,  // measure 8
0002
0000
3003
0000
,  // measure 9
0001
0000
1000
1000
,  // measure 10
0001
0000
0100
0100
,  // measure 11
0010
0000
1000
0000
,  // measure 12
0100
0010
0002
0003
,  // measure 13
1000
0000
0001
0001
,  // measure 14
0100
0000
0001
0001
,  // measure 15
1000
0000
0001
0000
,  // measure 16
0100
0100
0010
0010
,  // measure 17
0110
0000
0010
0000
,  // measure 18
1000
0100
0001
0000
,  // measure 19
0100
0000
1000
0000
,  // measure 20
0010
1000
0100
0000
,  // measure 21
1000
0000
0010
0000
,  // measure 22
0001
0010
1000
0000
,  // measure 23
0001
1000
0001
1000
,  // measure 24
0200
0000
0000
0300
,  // measure 25
0010
0000
0001
0000
,  // measure 26
1000
1000
0001
0000
,  // measure 27
0100
0000
0010
0000
,  // measure 28
0100
0100
0100
0000
,  // measure 29
1001
0000
0001
0000
,  // measure 30
1000
0000
0100
0000
,  // measure 31
0010
0001
0010
0001
,  // measure 32
1000
0000
0001
0001
,  // measure 33
1000
0000
0001
0100
,  // measure 34
0010
0000
1000
0100
,  // measure 35
0010
0000
0001
0000
,  // measure 36
1000
0000
0001
1000
,  // measure 37
0100
0000
1000
0000
,  // measure 38
0001
0100
0001
0000
,  // measure 39
0100
0010
1000
0100
,  // measure 40
0010
0010
0010
0010
,  // measure 41
0110
0000
1000
1000
,  // measure 42
0001
0000
0100
0100
,  // measure 43
0010
0000
1000
0000
,  // measure 44
0100
0010
0002
0003
,  // measure 45
1000
0000
0001
0001
,  // measure 46
0100
0000
0001
0001
,  // measure 47
1000
0000
0001
0000
,  // measure 48
0100
0100
0010
0010
,  // measure 49
2000
0000
0000
3000
,  // measure 50
0020
0000
0000
0030
,  // measure 51
0200
0000
0000
0300
,  // measure 52
0002
0000
0000
1003
;

//---------------dance-single - DDRDAIKENKAI----------------
#NOTES:
     dance-single:
     DDRDAIKENKAI:
     Challenge:
     9:
     0.709,0.706,0.407,0.345,0.700: // measure 1
0000
0000
0000
0000
,  // measure 2
0000
0000
0000
0000
,  // measure 3
0000
0000
0000
0000
,  // measure 4
0000
0000
0000
0000
,  // measure 5
0110
0000
0010
1000
0010
0000
0100
0000
0002
0000
1000
0000
1003
0000
0100
0000
,  // measure 6
0110
0010
0001
0101
0000
1010
0000
1001
,  // measure 7
0200
0320
0032
2003
,  // measure 8
3010
0000
1000
0000
0100
0000
0001
0000
0101
0000
0000
0000
0100
1000
0010
0100
,  // measure 9
0001
0000
0001
0100
0000
0010
0000
1000
0000
0001
0000
1001
0000
0001
0010
0100
,  // measure 10
0010
0000
0010
0100
0000
0010
0000
0100
0000
1000
0000
1001
0000
0001
1000
0001
,  // measure 11
1000
0000
1000
0010
0000
0100
0000
0001
0000
1000
0000
1001
0000
1000
0100
0010
,  // measure 12
0001
0000
0001
0100
0000
0100
2000
0000
0000
3100
0010
1000
0001
1000
0010
0100
,  // measure 13
0001
0000
0001
0010
0000
0100
0000
1000
0000
0001
0000
1001
0000
1000
0100
1000
,  // measure 14
0010
0000
0010
1000
0000
0001
0000
0100
0000
0010
0000
0110
0000
0100
0001
0010
,  // measure 15
0100
0000
0100
1000
0000
0001
0000
0100
0000
0010
0000
0110
0000
0010
1000
0010
,  // measure 16
1000
0001
0000
0001
1000
0001
0000
0001
1000
0100
0010
0100
2000
0000
0000
0000
,  // measure 17
3001
0000
0100
0010
0001
0010
1000
0100
,  // measure 18
0010
0200
2300
3002
0003
1001
0000
0101
,  // measure 19
0100
0001
1000
0100
0010
1000
0010
0001
,  // measure 20
1000
0100
0010
0002
0000
0023
0032
0203
,  // measure 21
1300
0100
0001
1000
0100
1000
0010
0001
,  // measure 22
0010
1000
0000
0001
0100
1000
0000
0100
,  // measure 23
0001
0010
0100
1000
0010
0100
0001
1000
,  // measure 24
0100
0001
0100
1000
0010
0001
0010
1000
,  // measure 25
2001
0000
3010
1000
0100
0010
0001
1000
,  // measure 26
0010
0100
0001
0010
1000
0010
0001
1000
,  // measure 27
1100
0000
0001
0011
0000
0100
0110
2000
,  // measure 28
3001
0000
0100
0000
0001
0000
0100
0000
0010
1000
0010
1000
0100
0000
0100
0010
,  // measure 29
0002
0000
1003
0010
0001
0100
0001
0010
,  // measure 30
1000
0000
0100
0001
0010
1000
0010
0001
,  // measure 31
0101
0000
0100
0000
1000
0010
0100
0001
1000
0100
0010
0001
0100
0001
0010
0100
,  // measure 32
1200
0000
0000
1300
0100
0010
0001
1000
,  // measure 33
1002
0000
1003
0001
0100
0010
1000
0000
,  // measure 34
1020
0000
0000
0000
0130
0000
0101
0000
0001
0010
0100
1000
0010
1000
0100
0010
,  // measure 35
0001
0000
2000
0000
3200
0000
0310
0001
,  // measure 36
0101
0000
1000
1020
0000
0031
0010
1000
,  // measure 37
1001
0000
1000
0010
1000
0000
0001
0000
0011
0000
0000
0000
1100
0000
1000
0000
,  // measure 38
1010
0010
0001
0011
0000
1010
0100
0101
,  // measure 39
0002
0000
0023
0000
0230
0000
1300
0001
,  // measure 40
0100
0000
1000
0000
0010
0000
1000
0000
0100
0001
1000
0001
1000
0001
1000
0000
,  // measure 41
1001
0000
0001
0010
0000
0100
0000
1000
0000
0001
0000
1001
0000
0001
1000
0001
,  // measure 42
0100
0000
0100
0001
0000
1000
0000
0010
0000
0100
0000
0110
0000
0100
0010
0100
,  // measure 43
0001
0000
0001
0100
0000
0010
0000
1000
0000
0001
0000
1001
0000
1000
0001
1000
,  // measure 44
0001
0000
0001
0010
0000
0010
2000
0000
0000
3010
0100
1000
0010
1000
0100
0010
,  // measure 45
0001
0000
0001
0100
0000
1000
0000
0100
0000
0001
0000
0101
0000
0100
0001
0010
,  // measure 46
0100
0000
0100
1000
0000
0010
0000
1000
0000
0100
0000
1100
0000
1000
0100
1000
,  // measure 47
0001
0000
0001
0010
0000
1000
0000
0010
0000
0001
0000
0011
0000
0010
0001
0100
,  // measure 48
0001
1000
0000
1000
0001
1000
0000
1000
0200
0000
0320
0000
0032
0000
0203
0000
,  // measure 49
2300
0000
0000
0100
0000
0000
3010
0000
1000
0000
0000
0100
0000
0000
0010
0000
,  // measure 50
0001
0000
0000
0100
0000
0000
0010
0000
1000
0000
1000
0100
0000
0000
1000
0000
,  // measure 51
0001
0000
0000
0010
0000
0000
0001
0000
0100
0000
0000
0010
0000
0000
1000
0000
,  // measure 52
0001
0000
0001
0100
0000
0000
0010
0000
1000
0000
0100
0010
0002
0000
0000
0000
,  // measure 53
0003
0000
0000
0000
;

//---------------dance-single - DDRDAIKENKAI----------------
#NOTES:
     dance-single:
     DDRDAIKENKAI:
     Beginner:
     1:
     0.118,0.175,0.084,0.052,0.000: // measure 1
0000
0000
0000
0000
,  // measure 2
0000
0000
0000
0000
,  // measure 3
0000
0000
0000
0000
,  // measure 4
0000
0000
0000
0000
,  // measure 5
1001
0000
0000
0000
,  // measure 6
0100
0000
0000
0000
,  // measure 7
0010
0000
0000
0000
,  // measure 8
0010
0000
0000
0000
,  // measure 9
1001
0000
0000
0000
,  // measure 10
1000
0000
0000
0000
,  // measure 11
0001
0000
0000
0000
,  // measure 12
1000
0000
0000
0000
,  // measure 13
1001
0000
0000
0000
,  // measure 14
0001
0000
0000
0000
,  // measure 15
1000
0000
0000
0000
,  // measure 16
0001
0000
0000
0000
,  // measure 17
1001
0000
0100
0000
,  // measure 18
0010
0000
0010
0000
,  // measure 19
1000
0000
0001
0000
,  // measure 20
0100
0000
0100
0000
,  // measure 21
0001
0000
0010
0000
,  // measure 22
0100
0000
0100
0000
,  // measure 23
1000
1000
1000
1000
,  // measure 24
2000
0000
3000
0000
,  // measure 25
0001
0000
1000
0000
,  // measure 26
0010
0000
1000
0000
,  // measure 27
0200
0000
0300
0000
,  // measure 28
0020
0000
0030
0000
,  // measure 29
1001
0000
0001
0000
,  // measure 30
1000
0000
0001
0000
,  // measure 31
0200
0000
0300
0000
,  // measure 32
0020
0000
0030
0000
,  // measure 33
1000
0000
0001
0000
,  // measure 34
1001
0000
0000
0000
,  // measure 35
0010
0000
0100
0000
,  // measure 36
0110
0000
0000
0000
,  // measure 37
0010
0000
1000
0000
,  // measure 38
0100
0000
1000
0000
,  // measure 39
0010
0000
0100
0000
,  // measure 40
0001
0001
0001
0001
,  // measure 41
0001
0000
0000
0000
,  // measure 42
1000
0000
0000
0000
,  // measure 43
0001
0000
0000
0000
,  // measure 44
1000
0000
0000
0000
,  // measure 45
0010
0000
0000
0000
,  // measure 46
0100
0000
0000
0000
,  // measure 47
0010
0000
0000
0000
,  // measure 48
0100
0000
0000
0000
,  // measure 49
0110
0000
0000
0000
;
