#TITLE:I am...;
#SUBTITLE:(album version);
#ARTIST:有沢みはる;
#TITLETRANSLIT:;
#SUBTITLETRANSLIT:;
#ARTISTTRANSLIT:Miharu Arisawa;
#GENRE:CYBER J-ROCK;
#CREDIT:;
#BANNER:I am... (album version).png;
#BACKGROUND:I am... (album version)-bg.png;
#LYRICSPATH:;
#CDTITLE:CDtitle.png;
#MUSIC:I am... (album version).ogg;
#OFFSET:0.000000;
#SAMPLESTART:47.314999;
#SAMPLELENGTH:19.620001;
#SELECTABLE:YES;
#BPMS:0.000000=95.000000
,39.000000=190.000000
,339.000000=95.000000
;
#STOPS:37.750000=0.632000
;
#BGCHANGES:;
#KEYSOUNDS:;
#ATTACKS:;

//---------------dance-single - DDRDAIKENKAI----------------
#NOTES:
     dance-single:
     DDRDAIKENKAI:
     Hard:
     9:
     0.715080,0.907757,0.326923,0.217949,0.312393,689.000000,644.000000,45.000000,30.000000,0.000000,0.000000,0.715080,0.907757,0.326923,0.217949,0.312393,689.000000,644.000000,45.000000,30.000000,0.000000,0.000000:
// measure 0
0000
0000
0000
0000
,  // measure 1
0000
0000
0000
0000
0000
0000
0000
0000
0000
0000
0000
0000
0000
0000
0000
0000
0000
0000
0000
0000
0000
0000
0000
0000
0000
0000
0000
0000
0000
0000
1000
0001
,  // measure 2
1000
0000
0001
0100
0000
0010
1000
0100
0000
0010
0001
0100
0000
0001
1000
0000
,  // measure 3
0001
0000
0100
0010
0000
1000
0010
0100
0000
0001
0100
0010
0000
1000
0001
0000
,  // measure 4
0010
0000
0100
1000
0000
0001
0100
0010
0000
1000
0010
0100
0000
0010
1000
0000
,  // measure 5
0001
0000
0001
0100
0010
0000
0010
1000
0100
0000
0100
0010
0001
1000
0001
1000
,  // measure 6
0100
0000
1000
0001
0100
0010
1000
0000
0001
0000
1000
0010
0000
0100
0001
0000
,  // measure 7
1000
0000
0001
1000
0100
0000
1000
0001
0100
0000
0001
1000
0100
0000
0010
0000
,  // measure 8
0001
0000
0100
0001
0010
0100
1000
0000
0010
0000
1000
0100
0010
0001
0100
0000
,  // measure 9
0001
0000
1000
0001
0010
0000
0001
1000
1010
0000
0011
0000
0200
0000
0000
0000
,  // measure 10
0301
0010
0100
1000
0010
0000
1000
0100
,  // measure 11
0010
0001
0100
0010
1000
0000
2100
0000
,  // measure 12
0001
0000
3001
0100
0000
0010
1000
0100
,  // measure 13
1000
0000
0010
0000
0200
0000
0000
0000
0302
0000
0000
0000
0013
0000
0001
1000
,  // measure 14
0001
0000
0001
0100
1000
0000
0100
0001
,  // measure 15
0010
0100
1000
0010
0001
0000
0010
1000
,  // measure 16
0100
0010
0001
0100
0010
1000
0100
1000
,  // measure 17
0010
0100
0001
0010
0100
1000
1010
0000
,  // measure 18
0101
0000
1000
0100
1000
0010
0001
0010
,  // measure 19
1000
0000
0001
0010
0001
0100
1000
0100
,  // measure 20
0001
0000
0010
0100
1000
0010
0100
0010
,  // measure 21
0001
0020
0000
0000
1030
0100
0001
0100
,  // measure 22
0001
0100
1000
0001
0100
0010
1000
0100
,  // measure 23
1000
0100
0010
0001
0100
0010
0001
0010
,  // measure 24
0001
0010
1000
0100
0010
0001
0010
1000
,  // measure 25
0010
1000
0010
0001
0100
0010
0110
0000
,  // measure 26
1010
0110
0101
2002
,  // measure 27
3003
0000
0000
0000
1000
0100
1000
0100
1000
0001
1000
0001
0200
0000
0000
0000
,  // measure 28
0310
1000
0100
1000
0010
0000
0200
0000
,  // measure 29
0301
0010
0100
0010
0001
0000
2000
0000
,  // measure 30
3010
0000
0001
0010
1000
0000
0001
0100
,  // measure 31
1000
0000
0001
0010
1000
0000
0200
0000
,  // measure 32
0310
0001
0100
0010
1000
0000
0200
0000
,  // measure 33
1300
0010
0100
0001
0010
0000
0002
0000
,  // measure 34
0103
0000
1000
0100
0001
0000
1000
0010
,  // measure 35
0001
0000
1000
0100
0001
0000
1000
0001
,  // measure 36
0100
0001
1000
0001
0100
0000
0010
1000
,  // measure 37
0100
1000
0010
1000
0100
0000
0020
0000
,  // measure 38
0031
0000
0100
0001
0010
0000
0100
1000
,  // measure 39
0010
0000
0100
0001
0010
0000
0200
0000
,  // measure 40
1300
0001
0100
0010
1000
0000
0002
0000
,  // measure 41
1003
0010
0100
0001
1000
0000
1100
0000
,  // measure 42
1001
0000
0101
0000
1001
0000
1000
1000
,  // measure 43
0001
0000
0001
0000
0100
0010
0100
0010
1000
0010
1000
0010
0100
0000
0010
0000
,  // measure 44
1000
0001
1000
0100
0010
0002
0000
0103
,  // measure 45
0010
0002
0000
0013
1000
0001
0010
0001
,  // measure 46
0100
1000
0100
0010
0100
0002
0000
0013
,  // measure 47
0100
0002
0000
0103
1000
0001
0100
0010
,  // measure 48
1000
0001
0100
0001
0010
2000
0000
3001
,  // measure 49
0100
2000
0000
3001
0100
0010
0001
0010
,  // measure 50
1000
0100
0001
1000
0010
0001
0100
0010
,  // measure 51
1000
0000
0000
0000
1100
0000
0000
1100
0000
0000
1100
0000
0100
0000
0010
0000
,  // measure 52
0001
0100
0010
1000
0100
0010
0001
0100
,  // measure 53
0010
0000
0000
0000
0101
0000
0000
0101
0000
0000
0101
0000
0001
0000
0010
0000
,  // measure 54
0100
1000
0010
0100
0001
0010
0100
1000
,  // measure 55
0010
0000
0000
0000
1001
0000
0000
1001
0000
0000
1001
0000
1000
0000
0000
0000
,  // measure 56
0110
0001
0000
0110
2000
0000
0000
0000
,  // measure 57
0000
0000
0000
0000
0000
0000
0000
0000
0000
0000
0000
0000
0000
3000
0000
0000
,  // measure 58
0000
0000
0000
0000
0000
0001
0101
0000
,  // measure 59
1010
0000
0001
0010
0001
0100
1000
0100
,  // measure 60
0001
0000
1000
0100
1000
0010
0001
0010
,  // measure 61
1000
0000
0100
0010
0001
0100
0110
0000
,  // measure 62
1010
0000
0201
0000
0301
0010
1000
0010
,  // measure 63
1000
0010
0001
1000
0010
0100
0001
0010
,  // measure 64
0001
0010
0100
1000
0010
0100
1000
0100
,  // measure 65
1000
0100
0001
0010
0100
1000
0100
0001
,  // measure 66
0100
0001
0100
1000
0010
0100
0110
0000
,  // measure 67
0101
0110
1010
2002
,  // measure 68
3003
0000
0000
0000
1000
0001
1000
0001
1000
0010
1000
0010
1000
0000
0001
0000
,  // measure 69
1000
0100
1000
0010
0100
0010
1000
0100
,  // measure 70
0010
0100
1000
0001
0010
0001
1000
0100
,  // measure 71
0010
0001
0100
0010
1000
0001
0010
0001
,  // measure 72
0010
0000
1000
0010
0001
1000
1001
0001
,  // measure 73
1000
0100
0001
0100
0010
0001
0100
0010
,  // measure 74
1000
0100
1000
0010
0001
0010
1000
0100
,  // measure 75
0010
0001
0100
0010
1000
0001
0100
0010
,  // measure 76
0100
0000
0000
0000
1000
0000
0100
0000
0001
0000
1000
0010
1000
0000
0010
0000
,  // measure 77
0100
1000
0100
0001
1000
0100
0010
1000
,  // measure 78
0010
0001
0100
0010
0001
0010
1000
0100
,  // measure 79
0001
0100
1000
0010
1000
0100
0010
0000
,  // measure 80
1001
1100
0101
1020
,  // measure 81
0130
0001
0010
0100
1000
0000
0120
0000
,  // measure 82
1030
0100
0010
0001
0100
0000
0011
0000
,  // measure 83
1100
0000
0000
0000
1010
0000
0000
0000
0101
0000
0000
0000
0001
0100
0001
0100
,  // measure 84
0001
1000
0001
1000
0100
1000
0100
1000
0010
0100
0010
0100
0002
0000
1003
0010
,  // measure 85
0000
0100
0001
0010
0000
0100
1000
0010
0000
1000
0001
0000
1000
0000
0010
0100
,  // measure 86
0000
0001
0100
0010
0000
1000
0010
0100
0000
0001
1000
0000
0100
0000
0010
0001
,  // measure 87
0000
1000
0010
0100
0000
0001
0100
0010
0000
0100
0001
0000
0100
0000
0100
0001
,  // measure 88
0010
0000
0000
0000
0010
0000
0100
0000
1000
0000
0000
0000
1000
0000
0010
0000
0100
0000
0000
0000
0100
0000
0001
1000
0002
0000
0000
0000
0000
0000
0000
0000
,  // measure 89
0000
0003
0000
0000
;

//---------------dance-single - DDRDAIKENKAI----------------
#NOTES:
     dance-single:
     DDRDAIKENKAI:
     Medium:
     6:
     0.425519,0.451336,0.065385,0.297863,0.032692,410.000000,401.000000,9.000000,41.000000,0.000000,0.000000,0.425519,0.451336,0.065385,0.297863,0.032692,410.000000,401.000000,9.000000,41.000000,0.000000,0.000000:
0000
0000
0000
0000
,
0000
0000
0000
0000
,
1000
0000
0000
0100
0000
0000
0010
0000
0002
0000
0000
0000
0003
0000
0000
0000
,
0010
0000
0000
0100
0000
0000
1000
0000
0001
0000
0000
0000
0200
0000
0000
0000
,
0310
1000
0002
1003
,
2002
0000
0000
0000
3003
0000
1000
1000
,
0001
0000
1000
0000
0001
0000
1000
0000
0100
0000
0000
0010
0000
0000
0001
0000
,
0002
0000
0000
0000
0003
0000
0001
0001
,
0100
0000
0000
0010
0000
0000
0100
0000
0200
0000
0000
0000
0302
0000
0000
0000
,
0023
0000
0000
0000
0000
0000
0000
0030
0100
0000
0100
0000
1000
0000
0000
0000
,
0010
0000
1000
0100
1000
0000
0001
0000
,
0010
0000
0001
0100
0001
0000
1000
0000
,
0001
0000
0100
0010
0100
0000
0001
0000
,
1000
0100
0000
0100
1000
0000
0001
0000
,
0010
0000
0100
1000
0100
0000
0010
0000
,
0001
0000
0100
0010
0100
0000
0001
0000
,
1000
0000
0001
0010
0001
0000
0100
0000
,
0010
1000
0000
1000
0100
0000
0010
0000
,
0001
0000
1000
0100
1000
0000
0001
0000
,
1000
0000
0001
0100
0001
0000
1000
0000
,
0001
0000
1000
0100
1000
0000
0001
0000
,
1000
0001
0000
0001
1000
0000
0010
0000
,
0010
0000
1000
0100
1000
0000
0010
0000
,
0010
0000
0100
0001
0100
0000
0001
0000
,
0010
0000
0100
1000
0100
0000
0220
0000
,
0000
0000
0330
0000
0000
0001
1000
0000
,
1000
0001
0000
0100
0000
0220
0000
0000
,
0330
0000
0010
1000
0010
1000
0100
0000
,
0010
0000
0001
0100
0010
0000
1000
0000
,
0100
0000
1000
0010
0100
0000
0002
0000
,
1000
0100
1000
1003
,
0002
2003
3200
0310
,
0001
0000
1000
0010
0100
0000
0001
0000
,
0010
0000
0100
0010
0001
0000
2000
0000
,
0010
0001
0100
3100
,
0020
0032
2003
3001
,
0100
0000
0010
1000
0010
0000
0100
0000
,
0001
0000
1000
0100
1000
0000
0002
0000
,
1000
0010
0100
0023
,
2030
3020
0032
1003
,
0010
0000
0100
0001
0100
0000
0010
0000
,
1000
0000
0001
0100
0001
0000
1000
0000
,
0100
0000
0010
0001
0010
0000
0100
1000
,
0100
1000
0100
1000
0100
0000
1000
0000
,
0001
0000
0100
0000
0010
1000
0000
0001
,
0000
1000
0000
0010
0100
0000
0001
0000
,
0010
0000
0100
0000
1000
0100
0000
0010
,
0000
0001
0000
0100
0010
0000
1000
0000
,
0001
0000
1000
0000
0010
0100
0000
0001
,
0000
0010
0000
0100
1000
0000
0001
0000
,
0100
0000
0010
0000
1000
0100
0000
0010
,
0001
0000
0000
0000
1000
0000
0000
1000
0000
0000
1000
0000
0001
0000
0000
0000
,
1000
0000
0001
0000
0010
0100
0000
0001
,
0100
0000
0000
0000
1000
0000
0000
1000
0000
0000
1000
0000
0001
0000
0000
0000
,
0010
0000
0100
0000
1000
0001
0000
0100
,
0010
0000
0000
0000
0001
0000
0000
0001
0000
0000
0001
0000
0020
0000
0000
0000
,
0000
2030
0000
0000
0002
0000
0000
0000
,
0000
0000
0000
0000
0000
0000
0000
0000
0000
0000
0000
0000
0000
3003
0000
0000
,
0000
0000
0000
0000
0000
1000
0001
0000
,
0010
0000
0100
0000
1000
0001
0000
1000
,
0100
0000
0010
0000
0001
2000
0000
0000
,
3001
0000
0100
0000
0010
1000
0100
0000
,
0100
0000
0010
0000
0001
0100
0020
0000
,
1030
0000
0100
0010
0100
0000
1000
0000
,
0010
0100
0000
0100
0001
0000
0010
0000
,
0100
1000
0000
1000
0001
0000
2001
0000
,
0000
0000
0000
0001
3001
0000
0011
0000
,
0101
1010
1100
2002
,
3003
0000
1000
0100
1000
0000
0001
0000
,
0100
0000
1000
0100
1000
0000
0100
0000
,
0001
0000
0010
1000
0010
0000
0001
0000
,
1000
0000
0010
0100
0010
0000
1000
0001
,
0100
0000
0001
1000
0100
0000
0010
0000
,
0001
0000
0100
1000
0100
0000
0001
0000
,
0010
0000
1000
0010
1000
0000
0010
0000
,
0001
0000
1000
0010
1000
0000
0001
0100
,
0010
0000
1000
0100
0010
0000
0001
0000
,
1000
0000
0010
0100
0001
0000
1000
0000
,
0001
0000
0100
0010
1000
0000
0001
0000
,
0010
0000
0100
1000
0010
0000
0100
0001
,
0010
0000
0100
1000
0010
0000
0001
0000
,
0010
0000
1000
0100
0010
0000
0001
0000
,
1000
0000
0010
0100
0001
0000
2000
0000
,
0100
0000
0010
0000
3001
0000
0001
0100
,
0001
0000
0100
0000
0001
0000
0100
0000
0001
0000
0000
0000
0010
0000
0000
0100
,
0000
0000
0010
0000
0002
0000
0000
0000
0003
0000
0000
0000
0010
0000
0000
0100
,
0000
0010
0100
0000
2000
0000
3002
0000
,
0103
2000
3010
0002
,
0000
2000
0000
3003
;

//---------------dance-single - DDRDAIKENKAI----------------
#NOTES:
     dance-single:
     DDRDAIKENKAI:
     Easy:
     4:
     0.253236,0.289344,0.079915,0.305128,0.000000,244.000000,233.000000,11.000000,42.000000,0.000000,0.000000,0.253236,0.289344,0.079915,0.305128,0.000000,244.000000,233.000000,11.000000,42.000000,0.000000,0.000000:
0000
0000
0000
0000
,
0000
0000
0000
0000
,
1000
1000
2000
3000
,
0001
0001
0001
0100
,
0200
0300
0020
0030
,
0220
0000
0330
0000
,
1000
0001
1000
0001
,
2000
0000
3000
0000
,
0010
0100
0010
0100
,
0020
0000
0000
0000
0000
0000
0000
0030
0100
0000
0100
0000
0100
0000
0000
0000
,
0100
0100
0000
0001
,
0000
1000
0000
0200
,
0000
0300
0000
0020
,
0000
0030
0000
0001
,
0001
0001
0000
1000
,
0000
0001
0000
2000
,
0000
3000
0000
0020
,
0000
0030
0000
0100
,
0100
0100
0010
1000
,
1000
1000
0100
0010
,
0010
0010
0001
0100
,
0000
0010
0010
2000
,
0000
3000
0001
0002
,
0000
0013
0010
0020
,
0000
0130
0100
0200
,
0000
0300
0000
1000
,
0001
1000
0001
2002
,
0000
3003
0000
0001
,
0000
0100
0010
1000
,
0000
0100
0010
0002
,
0000
0000
0000
0003
,
1000
1000
1000
1000
,
0000
0010
0100
0001
,
0000
0100
0010
2000
,
0000
0000
0000
3000
,
0001
0001
0001
0001
,
0000
0100
0001
1000
,
0000
0100
1000
0002
,
0000
0000
0000
0003
,
1000
1000
1000
0010
,
0000
0100
0010
1000
,
0000
0001
0000
2002
,
0000
3003
0000
0220
,
0000
0330
0000
0100
,
0010
0000
1000
0000
0000
0001
0000
0000
,
1000
0100
0000
0010
,
0001
0000
0100
0000
0000
0010
0000
0000
,
1000
0001
0000
1000
,
0001
0000
0100
0000
0000
0010
0000
0000
,
0100
0001
0000
0010
,
0100
0000
1000
0000
0000
0010
0000
0000
,
0200
0300
0000
0100
,
0001
0000
1000
0000
0000
0100
0000
0000
,
2000
3000
0000
1000
,
0001
0000
0010
0000
0000
0001
0000
0000
,
2000
3000
0000
1001
,
0000
0110
0000
0000
2002
0000
0000
0000
,
0000
0000
0000
0000
0000
0000
0000
0000
0000
0000
0000
0000
0000
3003
0000
0000
,
0000
0000
0000
0100
,
0100
0100
0001
1000
,
1000
1000
0100
0010
,
0010
0010
0001
0100
,
0000
0001
0001
0020
,
0000
0130
1000
0100
,
0000
0010
0001
0100
,
0000
0010
1000
0020
,
0000
1030
0001
1000
,
0001
1000
0001
2002
,
0000
3003
0000
0001
,
0100
0001
0001
1000
,
0100
1000
1000
0001
,
0100
0010
1000
0100
,
0000
0010
0010
0001
,
0100
0001
0001
1000
,
0010
1000
1000
0010
,
1000
0001
0100
0010
,
0000
0100
0001
1000
,
1000
0100
0010
0001
,
0001
0010
0100
1000
,
0100
0010
0001
0100
,
0010
0010
0010
1000
,
0000
0001
0100
0010
,
0000
1000
0000
2002
,
0000
3003
0000
0220
,
0000
0330
0000
0100
,
0001
2000
3000
0100
,
1000
0001
0010
0020
,
0030
0002
0003
2002
,
0000
0000
0000
0000
0000
0000
0000
0000
0000
0000
0000
0000
0000
0000
0000
0000
0000
0000
0000
0000
0000
0000
0000
0000
0000
0000
0000
0000
0000
0000
0000
0000
0000
0000
0000
0000
0000
0000
0000
0000
0000
0000
0000
0000
0000
0000
0000
0000
0000
0000
0000
0000
0000
0000
0000
0000
0000
0000
0000
0000
0000
0000
0000
0000
0000
0000
0000
0000
0000
0000
0000
0000
0000
0000
0000
0000
0000
0000
0000
0000
0000
0000
0000
0000
0000
0000
0000
0000
0000
0000
0000
0000
0000
0000
0000
0000
0003
3000
0000
0000
0000
0000
0000
0000
0000
0000
0000
0000
0000
0000
0000
0000
0000
0000
0000
0000
0000
0000
0000
0000
0000
0000
0000
0000
0000
0000
0000
0000
0000
0000
0000
0000
0000
0000
0000
0000
0000
0000
0000
0000
0000
0000
0000
0000
0000
0000
0000
0000
0000
0000
0000
0000
0000
0000
0000
0000
0000
0000
0000
0000
0000
0000
0000
0000
0000
0000
0000
0000
0000
0000
0000
0000
0000
0000
0000
0000
0000
0000
0000
0000
0000
0000
0000
0000
0000
0000
0000
0000
0000
0000
0000
0000
;
