#TITLE:I Need Your Love;
#SUBTITLE:;
#ARTIST:Calvin Harris feat. Ellie Goulding;
#TITLETRANSLIT:;
#SUBTITLETRANSLIT:;
#ARTISTTRANSLIT:;
#GENRE:Dance Pop;
#CREDIT:;
#MENUCOLOR:;
#NEWMETERSYSTEM:NO;
#BANNER:I Need Your Love.png;
#BACKGROUND:I Need Your Love-bg.png;
#LYRICSPATH:;
#CDTITLE:;
#MUSIC:I Need Your Love.ogg;
#OFFSET:-0.480;
#SAMPLESTART:99.124;
#SAMPLELENGTH:12.000;
#SELECTABLE:YES;
#LISTSORT:;
#BPMS:0.000=125.000;
#STOPS:;
#BGCHANGES:;
#ATTACKS:;

//---------------dance-single - DDRDAIKENKAI----------------
#NOTES:
     dance-single:
     DDRDAIKENKAI:
     Hard:
     8:
     0.554,0.541,0.218,0.258,0.444:
0000
0000
0000
0000
,
0000
0000
0000
0000
,
0000
0000
0000
0000
,
0000
0000
0000
0000
,
0010
0000
0000
1000
0000
0000
0001
0000
0000
0000
1000
0000
0010
0000
1000
0000
,
0100
0000
0000
1000
0000
0000
0001
0000
0000
0000
0100
0000
0010
0000
0100
0000
,
0001
0000
0000
1000
0000
0000
0100
0000
0000
0000
0010
0000
0100
0000
0010
0000
,
0001
0000
0000
1000
0000
0000
0010
0000
0000
0000
1000
0000
0010
0000
0100
0000
,
0001
0000
0000
1000
0000
0000
0100
0000
0000
1000
0001
0000
0100
0000
0001
0000
,
0010
0000
0000
0100
0000
0000
1000
0000
0000
0100
0010
0000
0001
0000
0100
0000
,
0010
0000
0000
1000
0000
0000
0010
0000
0000
0100
0001
0000
1000
0000
0100
0000
,
0010
0000
0000
0100
0000
0000
1000
0000
0002
0000
0000
0000
0023
0000
0000
0000
,
0032
0000
0000
0100
0000
0000
0010
0000
0000
0000
1003
0000
0010
0000
0200
0000
,
1000
0000
0000
0010
0000
0000
0001
0000
0000
0000
0310
0000
1000
0000
0200
0000
,
0010
0000
0000
0001
0000
0000
1000
0000
0000
0000
0310
0000
0001
0000
2000
0000
,
0010
0000
0000
0010
0000
0000
3001
0000
0002
0000
0000
0000
0023
0000
0000
0000
,
0031
0000
0000
0100
0000
0000
1001
0000
0000
0001
0100
0000
0010
0000
0100
0000
,
0010
0000
0000
1000
0000
0000
0101
0000
0000
0001
1000
0000
0100
0000
0010
0000
,
1000
0000
0000
0010
0000
0000
1001
0000
0000
0001
1000
0000
0010
0000
0100
0000
,
0001
0100
0000
0010
0100
0000
0010
1000
0002
0000
0000
0000
0000
0000
0000
0000
,
1003
0100
0000
0100
1000
0000
1000
0010
0000
0010
0100
0000
0001
0000
1000
0000
,
0001
0010
0000
0010
0001
0000
0001
0100
0000
0100
0010
0000
1000
0000
0001
0000
,
1000
0010
0000
0010
1000
0000
1000
0100
0000
0100
1000
0000
0010
0000
1000
0000
,
0001
0100
0000
0100
0001
0000
0001
0010
0000
0010
0001
0000
1000
0000
0010
0000
,
1000
0010
0000
0010
0100
0000
0100
0001
0000
0001
0010
0000
1000
0000
0010
0000
,
0001
0100
0000
0100
0010
0000
0010
1000
0000
1000
0100
0000
0001
0000
0100
0000
,
1000
0100
0000
0100
0010
0000
0010
0001
0000
0001
1000
0000
0001
0000
1000
0000
,
0001
0010
0000
0010
0100
0000
0100
1000
0000
1000
0001
0000
1000
0000
1001
0000
,
0001
0000
0000
0100
0010
0000
1000
0000
0100
0000
0000
1000
0010
0000
0100
0000
,
0001
0000
0000
0010
0100
0000
1000
0000
0010
0000
0100
0000
0110
0000
0000
0000
,
0010
0000
0000
1000
0100
0000
0010
0000
0100
0000
0000
1000
0001
0000
0100
0000
,
0010
0000
0000
1000
0001
0000
1000
0000
0100
0000
1000
0000
1001
0000
0000
0000
,
0001
0000
1000
0010
0000
1000
0000
0100
0000
0010
0000
0000
0110
0000
0000
0000
,
0100
0000
0010
0000
0001
0000
0100
0010
0000
0000
0100
0000
0110
0000
0000
0000
,
0100
0000
0001
0000
0010
0000
0100
2000
0000
0000
3001
0000
0100
0000
0001
0000
,
1000
0000
0000
0010
0000
0000
0001
0000
0000
0100
0000
0000
2100
0000
0000
0000
,
3001
1000
0100
1000
0001
0100
0010
0100
,
0001
0000
0010
0100
0010
0000
0100
1000
0100
0000
1000
0000
1010
0000
0000
0000
,
0100
0001
0010
0001
0100
0010
1000
0010
,
0100
0000
0001
0010
0001
0000
0010
0100
0010
0000
0100
0000
1100
0000
0000
0000
,
1000
0010
1000
0001
1000
0100
0010
0001
,
0100
0000
0010
1000
0010
0000
0100
0010
0100
0000
0001
0000
1001
0000
0000
0000
,
0001
0010
0001
0100
0010
1000
0100
0010
,
0002
0000
1003
0001
0101
0000
1010
0000
,
0200
0000
0302
0010
0023
0000
0130
0000
,
2000
0000
0000
0000
0000
0000
3002
0000
0000
1000
0000
0000
2003
0000
0000
0000
3100
0000
0000
0000
0010
0000
0000
0000
,
0002
0000
2003
0100
3200
0000
0310
0000
,
0002
0000
1003
0010
0110
0000
0101
0000
,
1010
0000
0011
0010
1020
0000
0031
0000
,
1010
0000
0000
0000
0000
0000
0101
0000
0000
0100
0000
0000
2010
0000
0000
0000
3200
0000
0000
0000
0310
0000
0000
0000
,
0011
0110
1200
1300
,
1010
0000
0110
0100
0002
0000
0023
0000
,
0031
0100
0000
0001
0100
0000
0010
1000
0000
0010
1000
0000
0001
0000
1000
0000
,
0100
0010
0000
0100
0010
0000
0001
1000
0000
0001
1000
0000
0010
0000
0001
0000
,
0010
1000
0000
0010
1000
0000
0100
0010
0000
0100
0010
0000
0001
0000
0100
0000
,
0001
0010
0000
0001
0010
0000
0100
0000
2000
0000
0000
0000
3002
0000
0000
0000
,
1003
0010
0000
0100
0010
0000
0100
0001
0000
0010
0001
0000
0100
0000
0001
0000
,
0010
0100
0000
0010
0001
0000
0100
0010
0000
1000
0100
0000
1000
0000
0010
0000
,
0100
0001
0000
0010
0001
0000
0100
0010
0000
1000
0010
0000
0100
0000
0001
0000
,
1000
0010
0000
0100
0010
0000
0001
0010
0000
0100
1000
0000
0100
0000
0002
0000
,
0020
0000
0000
0000
0000
0000
0000
0000
0000
0000
0000
0000
0000
0000
0000
0033
;

//---------------dance-single - DDRDAIKENKAI----------------
#NOTES:
     dance-single:
     DDRDAIKENKAI:
     Medium:
     5:
     0.378,0.418,0.129,0.404,0.077: // measure 1
0000
0000
0000
0000
,  // measure 2
0000
0000
0000
0000
,  // measure 3
0000
0000
0000
0000
,  // measure 4
0000
0000
0000
1000
0001
0000
1000
0000
,  // measure 5
0020
0000
0030
1000
0001
0000
1000
0000
,  // measure 6
0200
0000
0000
0000
0300
0000
0010
0000
0001
0000
0000
0010
0000
0000
0100
0000
,  // measure 7
2000
0000
3000
0001
0010
0000
0100
0000
,  // measure 8
2000
0000
3000
0001
1000
0000
0100
0000
,  // measure 9
0020
0000
0030
0001
1000
0000
0100
0000
,  // measure 10
0020
0000
0000
0000
0030
0000
0001
0000
1000
0000
0000
0001
0000
0000
1000
0000
,  // measure 11
0200
1300
0200
0320
,  // measure 12
0032
0000
0003
1000
0002
0000
2003
0000
,  // measure 13
3200
0000
0000
0300
,  // measure 14
2000
0000
0000
3000
,  // measure 15
0002
0000
0000
0003
,  // measure 16
0200
0000
0300
0010
2000
0000
3002
0000
,  // measure 17
0013
0000
0000
0000
0100
0000
0000
0000
1000
0000
0000
0001
0000
0000
0001
0000
,  // measure 18
1000
0000
0000
0000
0100
0000
0000
0000
0010
0000
0000
0001
0000
0000
0010
0000
,  // measure 19
0100
0000
0000
0000
1000
0000
0000
0000
0010
0000
0000
0100
0000
0000
0001
0000
,  // measure 20
1000
0001
2000
3000
,  // measure 21
1001
0000
1001
0000
1000
0001
0100
0000
,  // measure 22
0101
0000
0101
0000
0100
0001
0010
0000
,  // measure 23
0110
0000
0110
0000
0010
0100
1000
0000
,  // measure 24
1100
0000
1100
0000
0100
0010
0001
0000
,  // measure 25
1001
0000
1100
0000
1000
0001
0100
0000
,  // measure 26
0110
0000
1010
0000
0100
0001
0010
0000
,  // measure 27
0110
0000
1100
0000
0001
0100
0010
0000
,  // measure 28
0110
0000
1010
0000
0100
0000
0001
0001
,  // measure 29
0001
0000
1000
0100
1000
0000
0010
0100
,  // measure 30
0001
0000
0010
0100
2000
0000
3001
0000
,  // measure 31
0100
0000
0001
0010
0001
0000
0100
0010
,  // measure 32
1000
0000
0100
1000
0020
0000
0130
0000
,  // measure 33
0001
0010
0100
0000
2000
0000
3001
0000
,  // measure 34
0100
0010
1000
0000
0200
0000
0310
0000
,  // measure 35
0001
1000
0001
0000
0100
0010
0100
0000
,  // measure 36
0001
0000
0000
0010
0000
0000
0100
0000
0000
1000
0000
0000
0001
0000
0000
0000
,  // measure 37
1000
0100
1000
0000
0001
0100
0010
0000
,  // measure 38
2000
3200
0320
0031
,  // measure 39
1000
0010
0100
0000
0001
0010
0100
0000
,  // measure 40
0020
0032
2003
3010
,  // measure 41
0100
0001
1000
0000
0100
0010
0001
0000
,  // measure 42
0200
0302
2000
3003
,  // measure 43
0010
1000
0010
1000
0002
0000
1003
0100
,  // measure 44
0020
0000
0031
1000
0200
0000
2300
0000
,  // measure 45
3002
0000
0003
0100
0010
0000
1000
0000
,  // measure 46
0002
0000
0000
0000
0000
0000
0003
0000
0000
0010
0000
0000
0001
0000
0000
0000
0001
0000
0000
0000
0001
0000
0000
0000
,  // measure 47
0200
0000
0300
0010
1000
0000
0100
0000
,  // measure 48
0020
0000
0030
0001
1000
0000
0100
0000
,  // measure 49
2000
0000
3000
0001
0010
0000
0100
0000
,  // measure 50
2000
0000
0000
0000
0000
0000
3000
0000
0000
0001
0000
0000
0010
0000
0000
0000
0001
0000
0000
0000
0100
0000
0000
0000
,  // measure 51
0020
1030
0200
1300
,  // measure 52
0002
0000
0003
1000
0200
0000
2300
0000
,  // measure 53
3001
0000
0000
0010
0000
0000
0001
0000
0000
0000
0010
0000
0100
0000
0000
0000
,  // measure 54
1000
0000
0000
0010
0000
0000
1000
0000
0000
0000
0100
0000
0010
0000
0000
0000
,  // measure 55
0001
0000
0000
0100
0000
0000
0001
0000
0000
0000
0010
0000
0100
0000
0000
0000
,  // measure 56
1000
0000
0000
0100
0000
0000
1000
0000
0002
0000
0000
0000
1003
0000
0000
0000
,  // measure 57
0010
0000
0000
0100
0000
0000
0010
0000
0000
0000
1000
0000
0001
0000
0000
0000
,  // measure 58
0100
0000
0000
0010
0000
0000
0100
0000
0000
0000
0001
0000
1000
0000
0000
0000
,  // measure 59
0001
0000
0000
0010
0000
0000
0001
0000
0000
0000
1000
0000
0100
0000
0000
0000
,  // measure 60
1000
0000
0000
0010
0000
0000
1000
0000
0000
0000
0001
0000
1000
0000
2000
0000
,  // measure 61
0002
0000
0000
0000
0000
0000
0000
0000
0000
0000
0000
0000
0000
0000
0000
0000
0000
0000
0000
0000
0000
0000
0000
0000
0000
0000
0000
0000
0000
0000
0000
0000
0000
0000
0000
0000
0000
0000
0000
0000
0000
0000
0000
0000
0000
0000
0000
0000
0000
0000
0000
0000
0000
0000
0000
0000
0000
0000
0000
0000
0000
0000
0000
0000
0000
0000
0000
0000
0000
0000
0000
0000
0000
0000
0000
0000
0000
0000
0000
0000
0000
0000
0000
0000
0000
0000
0000
0000
0000
0000
0000
0000
0000
0000
0000
0000
0000
0000
0000
0000
0000
0000
0000
0000
0000
0000
0000
0000
0000
0000
0000
0000
0000
0000
0000
0000
0000
0000
0000
0000
0000
0000
0000
0000
0000
0000
0000
0000
0000
0000
0000
0000
0000
0000
0000
0000
0000
0000
0000
0000
0000
0000
0000
0000
0000
0000
0000
0000
0000
0000
0000
0000
0000
0000
0000
0000
0000
0000
0000
0000
0000
0000
0000
0000
0000
0000
0000
0000
0000
0000
0000
0000
0000
0000
0000
0000
0000
0000
0000
0000
3000
0003
0000
0000
0000
0000
0000
0000
0000
0000
0000
0000
;

//---------------dance-single - DDRDAIKENKAI----------------
#NOTES:
     dance-single:
     DDRDAIKENKAI:
     Easy:
     3:
     0.243,0.271,0.024,0.307,0.000: // measure 1
0000
0000
0000
0000
,  // measure 2
0000
0000
0000
0000
,  // measure 3
0000
0000
0000
0000
,  // measure 4
0000
0000
0000
0000
,  // measure 5
2000
0000
3000
0000
,  // measure 6
0002
0000
0003
0000
,  // measure 7
0200
0000
0300
0000
,  // measure 8
0200
0000
0301
0001
,  // measure 9
2000
0000
3000
0000
,  // measure 10
0002
0000
0003
0000
,  // measure 11
0020
0000
0030
0000
,  // measure 12
0020
0000
0031
0001
,  // measure 13
2000
0000
0000
3000
,  // measure 14
0002
0000
0000
0003
,  // measure 15
0200
0000
0000
0300
,  // measure 16
0020
0000
1030
1000
,  // measure 17
2000
0000
3001
0001
,  // measure 18
0200
0000
0310
0010
,  // measure 19
0200
0000
0301
0001
,  // measure 20
1000
0001
0020
0000
,  // measure 21
0031
0001
0002
0003
,  // measure 22
1000
1000
2000
3000
,  // measure 23
0010
0010
0020
0030
,  // measure 24
1000
1000
2000
3000
,  // measure 25
0100
0100
0200
0310
,  // measure 26
0100
0100
0200
1300
,  // measure 27
0001
0001
0002
1003
,  // measure 28
0010
0010
0010
1001
,  // measure 29
1000
0010
0010
0010
,  // measure 30
1000
0001
2000
3000
,  // measure 31
0010
0010
0100
0100
,  // measure 32
0001
1000
0200
0300
,  // measure 33
0010
0001
0200
0300
,  // measure 34
0001
0100
2000
3000
,  // measure 35
0100
0001
0010
0100
,  // measure 36
1000
1000
1000
1000
,  // measure 37
1001
0001
1000
0100
,  // measure 38
0020
0000
0001
0031
,  // measure 39
0100
0010
0100
0010
,  // measure 40
2000
0000
0001
3001
,  // measure 41
1000
0100
0010
0001
,  // measure 42
2000
3002
2000
3003
,  // measure 43
0010
1000
0001
1000
,  // measure 44
2002
0000
0000
3003
,  // measure 45
1000
0000
0100
0100
,  // measure 46
0010
0000
0001
1000
,  // measure 47
0010
0000
1000
0001
,  // measure 48
1000
0000
0001
0001
,  // measure 49
0010
0000
0100
0100
,  // measure 50
1000
0000
0001
0001
,  // measure 51
1000
1000
0010
0010
,  // measure 52
0200
0000
0010
0310
,  // measure 53
1000
1000
1000
0100
,  // measure 54
0010
0010
0010
0001
,  // measure 55
0100
0100
0100
0010
,  // measure 56
0100
0100
0020
2030
,  // measure 57
3001
0001
0001
0010
,  // measure 58
0100
0100
0100
1000
,  // measure 59
0010
0010
0010
1000
,  // measure 60
0001
0001
0001
1000
,  // measure 61
0200
0000
0000
0000
0000
0000
0000
0000
0000
0000
0000
0000
0000
0000
0000
0000
0000
0000
0000
0000
0000
0000
0000
0000
0000
0000
0000
0000
0000
0000
0000
0000
0000
0000
0000
0000
0000
0000
0000
0000
0000
0000
0000
0000
0000
0000
0000
0000
0000
0000
0000
0000
0000
0000
0000
0000
0000
0000
0000
0000
0000
0000
0000
0000
0000
0000
0000
0000
0000
0000
0000
0000
0000
0000
0000
0000
0000
0000
0000
0000
0000
0000
0000
0000
0000
0000
0000
0000
0000
0000
0000
0000
0000
0000
0000
0000
0000
0000
0000
0000
0000
0000
0000
0000
0000
0000
0000
0000
0000
0000
0000
0000
0000
0000
0000
0000
0000
0000
0000
0000
0000
0000
0000
0000
0000
0000
0000
0000
0000
0000
0000
0000
0000
0000
0000
0000
0000
0000
0000
0000
0000
0000
0000
0000
0000
0000
0000
0000
0000
0000
0000
0000
0000
0000
0000
0000
0000
0000
0000
0000
0000
0000
0000
0000
0000
0000
0000
0000
0000
0000
0000
0000
0000
0000
0000
0000
0000
0000
0000
0000
0000
0000
0300
0000
0000
0000
0000
0000
0000
0000
0000
0000
;
