#TITLE:I My Me Mine;
#SUBTITLE:;
#ARTIST:Polysics;
#TITLETRANSLIT:;
#SUBTITLETRANSLIT:;
#ARTISTTRANSLIT:;
#CREDIT:;
#BANNER:I My Me Mine.png;
#BACKGROUND:I My Me Mine-bg.png;
#LYRICSPATH:;
#CDTITLE:CDTitle.png;
#MUSIC:I My Me Mine.ogg;
#OFFSET:0.020;
#SAMPLESTART:11.400;
#SAMPLELENGTH:11.440;
#SELECTABLE:YES;
#BPMS:0.000=167.000,287.000=152.284,288.000=153.453,289.000=148.515,290.000=160.428,291.000=146.341,292.000=153.061,293.000=146.699,294.000=147.420,295.000=143.885,296.000=153.061,297.000=147.783,298.000=150.000,299.000=143.885,300.000=148.148,301.000=144.231,302.000=145.631,303.000=140.515,304.000=147.059,305.000=143.885,306.000=143.885,307.000=145.631,308.000=142.180,309.000=137.615,310.000=129.590,311.000=100.167,312.000=81.411,313.000=94.937,314.000=86.083,315.000=73.529,316.000=21.157;
#STOPS:142.000=0.359
,239.000=0.020
;
#BGCHANGES:;

//---------------dance-single - ----------------
#NOTES:
     dance-single:
     :
     Hard:
     9:
     0.784,0.949,0.229,0.886,0.114: // measure 1
0000
0000
0000
0000
,  // measure 2
0000
0000
0000
0000
,  // measure 3
0000
0000
0000
0000
,  // measure 4
0000
0000
0000
0000
,  // measure 5
0000
0000
0000
0000
,  // measure 6
0000
0000
0000
0000
,  // measure 7
0000
0000
0000
0000
,  // measure 8
0000
0000
0000
1001
,  // measure 9
0010
1000
0100
1000
0010
0000
1100
0000
,  // measure 10
0010
0000
0001
0000
0100
0000
0001
0000
0010
0000
0001
1000
0001
0000
0000
0000
,  // measure 11
1000
0100
0001
0100
1000
0000
1100
0000
,  // measure 12
0001
0000
0100
0000
1000
0000
0100
0000
0001
0000
1000
0001
1000
0000
0000
0000
,  // measure 13
1000
0001
0100
0010
1000
0000
1001
0000
,  // measure 14
0001
0000
1000
0000
0010
0000
0100
0000
0001
0000
1000
0001
1000
0000
0000
0000
,  // measure 15
0010
0100
1000
0100
0010
0000
0110
0000
,  // measure 16
0001
0000
0100
0000
0010
0000
0100
0000
0001
0100
0001
0100
0001
0000
1001
0000
,  // measure 17
1000
0010
1000
0100
0001
0100
1000
0100
,  // measure 18
0001
0000
0100
0000
1000
0000
0100
0000
0010
0000
0001
0100
0001
0000
0000
0000
,  // measure 19
0010
0001
0100
0010
1000
0000
1100
0000
,  // measure 20
0010
0000
0001
0000
0100
0000
0010
0000
1000
0000
0100
1000
0100
0000
0000
0000
,  // measure 21
0010
0001
0010
0001
0100
0001
0100
0001
,  // measure 22
0010
0100
1000
0010
0100
0001
1000
0000
,  // measure 23
0001
0100
1000
0100
0001
0000
1001
0000
,  // measure 24
1000
0000
0010
0000
0001
0000
0010
0000
1000
0100
1000
0100
1000
0000
1100
0000
,  // measure 25
0100
0001
0100
0010
0100
0001
0100
1000
,  // measure 26
0100
0000
0001
0000
0100
0000
1000
0000
0100
0000
0010
0100
0010
0000
0000
0000
,  // measure 27
0001
0010
1000
0010
0100
0010
0001
0010
,  // measure 28
0100
0000
0010
0000
1000
0000
0100
0000
0010
0001
0010
0001
0010
0000
0011
0000
,  // measure 29
0010
1000
0100
0010
0001
1000
0100
0010
,  // measure 30
0001
0000
1000
0000
0010
0000
0100
0000
0001
0000
1000
0100
1000
0000
0000
0000
,  // measure 31
0100
0010
0001
0010
0100
0000
1100
0000
,  // measure 32
0100
0000
1000
0000
0010
0000
1000
0000
0100
0000
1000
0010
1000
0000
0000
0000
,  // measure 33
1000
0100
0000
1000
0010
0000
1100
0000
,  // measure 34
0001
0100
0000
0001
0010
0000
0101
0000
,  // measure 35
0010
0001
1000
0100
1000
0000
0010
0000
,  // measure 36
0001
0001
0001
0001
0001
0000
0011
0000
,  // measure 37
0011
0000
0100
1000
0010
0100
0001
1000
,  // measure 38
0100
0020
0130
1100
,  // measure 39
1100
0000
0010
0001
0100
0010
1000
0010
,  // measure 40
0100
0002
0003
1010
,  // measure 41
1010
0000
0100
1000
0100
0010
0001
0100
,  // measure 42
1000
0020
0130
0101
,  // measure 43
0101
0000
1000
0100
1000
0001
0010
0001
,  // measure 44
0100
0000
0001
0000
1000
0100
1000
0000
0001
0000
0010
0000
1000
0000
0000
0000
,  // measure 45
0001
0100
1000
0000
0001
0100
0000
1000
,  // measure 46
0100
0010
0001
0000
1100
0000
0001
0000
,  // measure 47
0100
0000
1000
0000
0100
0000
0000
0000
1000
0000
0010
0000
1000
0100
0000
0000
,  // measure 48
1000
0100
0000
0000
0010
0001
0000
0000
0101
0000
0000
0000
0010
0000
0000
0000
,  // measure 49
0001
0100
1000
0000
0010
1000
1000
0100
,  // measure 50
0100
0010
0001
1000
0100
0000
0010
0010
,  // measure 51
0010
0000
0001
0001
0001
1000
0000
1000
,  // measure 52
0010
0000
0100
0000
0001
1000
0001
0000
M00M
0000
0000
0000
0000
0000
0000
0000
,  // measure 53
0020
0030
0000
0000
0000
0000
0000
0000
0000
0000
0000
0000
0000
0000
0000
0000
0200
0300
0000
0000
0000
0000
0000
0000
0000
0000
0000
0000
0000
0000
0000
0000
2000
3000
0000
0000
0000
0000
0000
0000
0000
0000
0000
0000
0000
0000
0000
0000
0020
0030
0000
0000
0000
0000
0000
0000
0200
0300
0000
0000
0000
0000
0000
0000
,  // measure 54
0020
0030
0000
0000
0000
0000
0000
0000
2000
3000
0000
0000
0000
0000
0000
0000
0200
0300
0000
0000
0000
0000
0000
0000
0000
0000
0000
0000
0000
0000
0000
0000
2000
3000
0000
0000
0000
0000
0000
0000
0000
0000
0000
0000
0000
0000
0000
0000
0000
0000
0000
0000
0000
0000
0000
0000
0000
0000
0000
0000
0000
0000
0000
0000
,  // measure 55
0020
0030
0000
0000
0000
0000
0000
0000
0000
0000
0000
0000
0000
0000
0000
0000
0200
0300
0000
0000
0000
0000
0000
0000
0000
0000
0000
0000
0000
0000
0000
0000
0002
0003
0000
0000
0000
0000
0000
0000
0000
0000
0000
0000
0000
0000
0000
0000
0020
0030
0000
0000
0000
0000
0000
0000
0002
0003
0000
0000
0000
0000
0000
0000
,  // measure 56
0200
0300
0000
0000
0000
0000
0000
0000
0020
0030
0000
0000
0000
0000
0000
0000
2000
3000
0000
0000
0000
0000
0000
0000
0200
0300
0000
0000
0000
0000
0000
0000
2000
3000
0000
0000
0000
0000
0000
0000
0020
0030
0000
0000
0000
0000
0000
0000
0200
0300
0000
0000
0000
0000
0000
0000
0000
0000
0000
0000
0000
0000
0000
0000
,  // measure 57
0002
0000
0000
0000
0000
0000
0000
0000
0000
0000
0000
0000
0000
0000
0000
0000
2003
3000
0000
0000
0000
0000
0000
0000
0002
0003
0000
0000
0000
0000
0000
0000
0020
0030
0000
0000
0000
0000
0000
0000
0200
0300
0000
0000
0000
0000
0000
0000
2000
3000
0000
0000
0000
0000
0000
0000
0000
0000
0000
0000
0000
0000
0000
0000
,  // measure 58
0020
0000
0000
0000
0000
0000
0000
0000
0000
0000
0000
0000
0000
0000
0000
0000
0230
0300
0000
0000
0000
0000
0000
0000
0020
0030
0000
0000
0000
0000
0000
0000
2000
3000
0000
0000
0000
0000
0000
0000
0200
0300
0000
0000
0000
0000
0000
0000
2000
3000
0000
0000
0000
0000
0000
0000
0000
0000
0000
0000
0000
0000
0000
0000
,  // measure 59
0002
0000
0000
0000
0000
0000
0000
0000
0000
0000
0000
0000
0000
0000
0000
0000
0023
0030
0000
0000
0000
0000
0000
0000
0002
0003
0000
0000
0000
0000
0000
0000
0200
0300
0000
0000
0000
0000
0000
0000
0020
0030
0000
0000
0000
0000
0000
0000
2000
3000
0000
0000
0000
0000
0000
0000
0200
0300
0000
0000
0000
0000
0000
0000
,  // measure 60
0020
0030
0000
0000
0000
0000
0000
0000
0002
0003
0000
0000
0000
0000
0000
0000
2000
0000
0000
0000
0000
0000
0000
0000
0000
0000
0000
0000
0000
0000
0000
0000
3000
0000
0000
0000
0000
0000
0000
0000
0000
0000
0000
0000
0000
0000
0000
0000
1001
0000
0000
0000
0000
0000
0000
0000
0010
0000
0000
0000
0000
0000
0000
0000
,  // measure 61
0001
1000
0001
0010
0001
0100
0001
0010
,  // measure 62
0001
0000
0100
0000
1000
0000
0001
1000
0001
0000
0000
0000
1000
0000
0010
0000
,  // measure 63
0100
0001
1000
0100
0010
0001
0000
0000
,  // measure 64
0000
0000
0000
0001
,  // measure 65
0002
0000
2003
3200
2300
3002
0023
0032
,  // measure 66
0203
0320
0230
0301
,  // measure 67
0002
0000
0203
0302
2003
3200
0320
0230
,  // measure 68
2300
3200
0300
0010
,  // measure 69
0020
0000
0230
0320
0032
2003
3020
2030
,  // measure 70
3200
0320
0230
1300
,  // measure 71
2000
0000
3200
2300
3020
0230
0301
0010
,  // measure 72
0001
0000
1000
0000
0100
1000
0100
0000
1000
0000
0010
0000
1000
0000
0000
0000
,  // measure 73
0001
0000
1000
0001
0100
0010
1000
0100
,  // measure 74
1000
0010
0100
0001
,  // measure 75
0001
0000
0100
0001
1000
0100
0010
0001
,  // measure 76
1000
0200
0300
1000
,  // measure 77
1000
0000
0100
1000
0001
0100
0010
0100
,  // measure 78
0001
0000
0020
0000
0130
0000
2000
3000
,  // measure 79
0000
2000
0000
0000
0000
0000
0000
0000
3000
0000
0000
0000
0000
0000
0000
0000
0200
0000
0000
0000
0000
0000
0000
0000
2300
0000
0000
0000
0000
0000
0000
0000
3020
0000
0000
0000
0000
0000
0000
0000
0230
0000
0000
0000
0000
0000
0000
0000
0300
0020
0000
0000
0000
0000
0000
0000
0230
0000
0000
0000
0000
0000
0000
0000
,  // measure 80
0302
0000
0000
0000
0000
0000
0000
0000
0000
0000
0000
0000
0000
0000
0000
0000
0203
0000
0000
0000
0000
0000
0000
0000
0000
0000
0000
0000
0000
0000
0000
0000
0000
0000
0000
0000
0000
0000
0000
0000
0000
0000
0000
0000
0300
0000
0000
0020
0030
0000
0000
0000
0000
0000
0000
0000
0000
0000
0000
0000
0000
0000
0000
0000
;

//---------------dance-single - ----------------
#NOTES:
     dance-single:
     :
     Medium:
     7:
     0.487,0.532,0.105,0.124,0.000:
0000
0000
0000
0000
,
0000
0000
0000
0000
,
0000
0000
0000
0000
,
0000
0000
0000
0000
,
0000
0000
0000
0000
,
0000
0000
0000
0000
,
0000
0000
0000
0000
,
0000
0000
0000
1001
,
1000
1000
1000
1100
,
0001
0000
0001
0000
0001
1000
0001
0000
,
0100
0100
0100
0101
,
0010
0000
0010
0000
0100
0010
0100
0000
,
0001
0001
0001
0011
,
1000
0000
1000
0000
0001
1000
0001
0000
,
0010
0010
0010
0110
,
1000
0000
1000
0000
0001
1000
0001
0000
,
0001
0100
0001
0000
1000
0100
1000
0000
,
0001
0100
0001
0000
0010
0100
0100
0000
,
1000
0100
0010
0001
1000
0000
0000
0000
,
0001
0010
0100
1000
0001
0000
0000
0000
,
1000
0000
0001
0100
0001
0000
1000
0100
,
1000
0000
0010
0100
0010
1000
0001
0000
,
1000
0100
1000
0100
1000
0000
0010
0000
,
0001
0100
0001
0100
0001
0000
0000
0000
,
1000
0000
0000
0001
0100
0000
0000
0010
,
1000
0000
0000
0001
0010
0001
0100
0000
,
0010
0000
0000
1000
0100
0000
0000
1000
,
0020
0000
0030
0000
0001
1000
0001
0001
,
1000
0100
1000
0000
0010
1000
0010
0000
,
0100
0001
0100
0000
0010
0001
0001
0000
,
1000
0001
0100
0010
1000
0000
0000
0000
,
0001
0100
0010
1000
0001
0000
0000
0000
,
1000
0001
0000
1000
0001
0000
1001
0000
,
0010
0100
0000
0010
0100
0000
0110
0000
,
1000
0100
1000
0001
1000
0000
0010
0000
,
0001
0100
0001
1000
0001
0000
1000
0000
,
1000
0000
0001
0000
1000
0100
0000
1000
,
0010
1000
0100
0001
,
0100
0000
1000
0000
0001
0100
0000
0001
,
0010
0002
0003
1000
,
0010
0000
0001
0000
0010
1000
0000
0010
,
0100
0001
0010
0100
,
1000
0000
0100
0000
0010
0000
0001
1000
,
0001
1000
0100
0010
0100
0010
0001
0000
,
0000
1000
0100
0000
0000
1000
0000
0001
,
0000
0100
0010
0000
0100
0000
0001
0000
,
1000
0000
0100
0000
0010
0000
0001
1000
,
0001
1000
0100
0000
1100
0000
0010
0000
,
0000
0001
1000
0000
0000
0001
0000
1000
,
0000
0001
0010
0100
2000
0000
3100
1000
,
0100
0000
0010
0001
0010
0001
0000
1000
,
0100
0010
0001
0000
2002
0000
3003
0000
,
1000
0000
0100
0000
1000
0000
0001
0010
,
0001
0100
1000
0000
,
1000
0000
0010
0000
0100
0000
0001
1000
,
0001
0100
0010
1000
,
0002
1003
0100
0010
,
0002
1003
0010
0100
,
0002
0013
0100
1000
,
0010
0001
0000
1000
,
0000
1000
0000
0001
,
0000
0000
1000
0100
0001
0000
1000
0000
,
0000
0001
0000
2002
,
0000
0000
3003
1001
,
0010
0000
1000
0000
0100
1000
0000
0001
,
0100
0010
1000
0100
,
1000
0000
0001
0000
0010
0001
0000
1000
,
0001
0200
0300
0010
,
0100
0000
1000
0000
0010
0100
0000
0001
,
0010
0001
1000
0010
,
0100
0000
0010
0000
1000
0000
0001
0100
,
0001
0100
0001
0100
0001
0100
0010
0000
,
1000
0000
0100
0000
1000
0001
0000
1000
,
0001
1000
0010
1000
,
0100
0000
1000
0000
0010
0100
0000
0001
,
0100
0010
0000
0001
,
0100
0000
1000
0000
0010
0100
0000
0001
,
0010
0001
0100
0010
,
0010
0000
0100
1000
0100
0010
0001
0010
,
0002
0000
0003
0000
0200
0000
0000
0000
0000
0000
0000
0300
0M00
0000
0000
0000
;

//---------------dance-single - ----------------
#NOTES:
     dance-single:
     :
     Easy:
     4:
     0.284,0.417,0.029,0.114,0.000:
0000
0000
0000
0000
,
0000
0000
0000
0000
,
0000
0000
0000
0000
,
0000
0000
0000
0000
,
0000
0000
0000
0000
,
0000
0000
0000
0000
,
0000
0000
0000
0000
,
0000
0000
0000
1001
,
0000
1000
0000
0001
,
0000
1000
0000
0001
,
0000
0100
0000
0010
,
0000
0100
0000
0010
,
0000
1000
0000
0001
,
0000
1000
0000
0001
,
0000
0100
0000
0010
,
0000
0100
0100
0100
,
0000
0001
0000
0001
,
0000
1000
0000
1000
,
0000
0010
0000
0010
,
0000
0100
0000
0100
,
0000
1000
0000
0001
,
0000
1000
0000
0001
,
0000
0100
0000
0010
,
0000
0100
0000
0010
,
1000
1000
0001
0001
,
1000
0001
1000
0001
,
0100
0100
0010
0010
,
2000
0000
3000
0000
,
0001
0000
0001
0000
,
1000
0000
0100
0000
,
1000
0000
0001
0000
,
1000
0000
0001
0000
,
0100
0000
0010
0100
,
1000
0000
1000
0001
,
1000
0100
0001
0000
,
1000
0001
1000
0001
,
0000
0001
0000
0100
,
0000
0100
0000
0010
,
0000
0010
0000
1000
,
0010
0200
0300
1000
,
0000
0001
0000
1000
,
0000
0001
0000
1000
,
0000
0010
0000
0100
,
0010
0002
0003
0000
,
0100
0100
0000
0010
,
1000
0001
1000
0000
,
0100
0100
0000
1000
,
0100
0010
0001
0000
,
0100
0100
0000
0010
,
0100
0010
1000
0001
,
0001
1000
1000
0001
,
1000
0001
2002
3003
,
0010
0100
0001
0010
,
0001
0100
0010
0000
,
0100
0010
1000
0001
,
1000
0100
0010
0001
,
1000
0001
0100
0010
,
1000
0010
0100
0001
,
1000
0001
0100
0010
,
1000
0001
0000
0100
,
0000
0100
0000
0100
,
0000
0010
1000
0001
,
0000
0001
0000
0220
,
0000
0000
0330
1000
,
0000
0001
0000
1000
,
0100
0010
0100
1000
,
0000
0010
0000
0100
,
0001
0020
0030
0001
,
0000
0001
0000
0100
,
0010
1000
0100
1000
,
0000
1000
0000
0001
,
0010
0002
0003
0100
,
0000
0010
0000
1000
,
0100
0001
0100
1000
,
0000
0010
0000
1000
,
0010
0200
0300
0001
,
0000
0010
0000
0100
,
1000
0010
0100
0001
,
0001
1000
1000
0100
,
0020
0000
0000
0000
0230
0000
0000
0000
0000
0000
0000
0300
0000
0000
0000
0000
;
