#TITLE:Heaven's Rave;
#SUBTITLE:;
#ARTIST:ZeRo-BaSs;
#TITLETRANSLIT:;
#SUBTITLETRANSLIT:;
#ARTISTTRANSLIT:;
#GENRE:;
#CREDIT:;
#MENUCOLOR:;
#NEWMETERSYSTEM:NO;
#BANNER:HeavensRave.png;
#BACKGROUND:HeavensRave-bg.png;
#LYRICSPATH:;
#CDTITLE:CDTitle.png;
#MUSIC:Heaven's Rave.ogg;
#OFFSET:-0.020;
#SAMPLESTART:10.500;
#SAMPLELENGTH:13.300;
#SELECTABLE:YES;
#LISTSORT:;
#BPMS:0.000=183.000;
#STOPS:;
#BGCHANGES:;
#ATTACKS:;

//---------------dance-single - DDRDAIKENKAI----------------
#NOTES:
     dance-single:
     DDRDAIKENKAI:
     Hard:
     9:
     0.700,0.937,0.411,0.157,0.218: // measure 1
0000
0000
0000
0000
,  // measure 2
0000
0000
0000
0000
,  // measure 3
0000
0000
0000
0000
,  // measure 4
0000
0000
0000
0000
,  // measure 5
0001
1000
0010
1000
0001
0100
0010
0100
,  // measure 6
0001
0010
0100
0010
0001
1000
0100
0010
,  // measure 7
0001
0010
0100
1000
0010
0100
0001
0000
,  // measure 8
0202
0303
2002
3003
2200
3300
0220
0330
,  // measure 9
0011
0001
0010
0100
1000
0010
1000
0100
,  // measure 10
0010
0001
0100
0010
1000
0001
1000
0010
,  // measure 11
0100
0010
0100
0001
1000
0001
0100
0000
,  // measure 12
0101
1010
1100
0011
,  // measure 13
1001
0001
1000
0100
0010
0100
1000
0001
,  // measure 14
1000
0010
0100
0001
0100
0010
1000
0100
,  // measure 15
0010
0100
0010
0100
1000
0001
0100
0000
,  // measure 16
0100
0001
0010
0100
0010
0001
1001
0000
,  // measure 17
0101
0001
1000
0000
0100
0010
0001
0000
,  // measure 18
1000
0000
0010
0000
0100
0000
0000
0001
0100
0000
0010
0000
1000
0000
0001
0000
,  // measure 19
0100
0000
0010
0000
1000
0010
0100
0010
,  // measure 20
1000
0001
1000
1001
,  // measure 21
0101
0001
1000
0100
,  // measure 22
0010
0001
0100
0000
0001
0100
1000
0100
,  // measure 23
0001
0000
0100
0000
0010
0000
1000
0001
,  // measure 24
0100
0000
0000
0000
0001
0000
0000
0100
0010
0000
1000
0000
0001
0000
1000
0000
,  // measure 25
1001
0001
0100
0000
0001
1000
0100
0000
,  // measure 26
1000
0000
0001
0000
0100
0000
0000
0010
1000
0000
0001
0000
0100
0000
0010
0000
,  // measure 27
0100
0000
0001
0000
0100
0010
1000
0100
,  // measure 28
0010
0000
0001
0000
0100
0000
0010
1000
,  // measure 29
0001
0010
0001
0100
,  // measure 30
0010
1000
0100
0000
0010
0001
0100
0010
,  // measure 31
1000
0000
0100
0000
0010
0000
0001
0010
,  // measure 32
0100
0000
0000
0000
1000
0000
0000
0010
0100
0000
0001
0000
1000
0000
0100
0000
,  // measure 33
1100
0000
1000
0000
0010
0100
0001
0100
,  // measure 34
0010
0000
1000
0000
0001
0000
1000
0001
,  // measure 35
0100
0010
1000
0100
,  // measure 36
0010
0001
0010
0000
0100
1000
0100
1000
,  // measure 37
0001
0000
0100
0000
0000
0010
0000
0000
1000
0000
0100
0000
0000
1000
0000
0000
,  // measure 38
0001
0000
0100
0000
0000
0001
0000
0000
1000
0000
0010
0000
0000
1000
0000
0000
,  // measure 39
0010
0000
0100
0000
0000
0001
0000
0000
1000
0000
0100
0000
0000
0010
0000
0000
,  // measure 40
0100
0000
1000
0000
0000
0001
0000
0000
0100
0000
0010
0000
0000
1000
0000
0000
,  // measure 41
1002
0000
0000
1000
0000
0000
1003
0000
1000
0000
0000
0001
0000
0000
0100
0000
,  // measure 42
0100
0000
0000
0001
0000
0000
0010
0000
0010
0000
0000
0001
0000
0000
0100
0000
,  // measure 43
0001
0000
0000
0100
0000
0000
0010
0000
1000
0000
0000
0001
0000
0000
0100
0000
,  // measure 44
0100
0000
0000
0001
0000
0000
1000
0000
1000
0000
0000
0100
0000
0000
0010
0000
,  // measure 45
0001
0000
0000
0011
0000
0000
0001
0000
0100
0000
0000
0110
0000
0000
0010
0000
,  // measure 46
1000
0000
0000
1100
0000
0000
1000
0000
0001
0000
0000
1001
0000
0000
0001
0000
,  // measure 47
0010
0000
0000
0011
0000
0000
0001
0000
1000
0000
0000
1010
0000
0000
1000
0000
,  // measure 48
0001
0000
0000
0101
0000
0000
0001
0000
1000
0000
0000
1100
0000
0000
1000
0000
,  // measure 49
1001
0000
0001
1000
0000
0000
0001
0000
1000
0000
0100
1000
0000
0000
0100
0000
,  // measure 50
0010
0000
0001
0010
0000
0000
0001
0000
0001
0000
0000
0100
0000
0000
0110
0000
,  // measure 51
0100
0000
0001
0100
0000
0000
0010
0000
0100
0000
0010
1000
0000
0000
0100
0000
,  // measure 52
0010
0000
0100
1000
0000
0000
0100
0000
0010
0000
0000
0011
0000
0000
1001
0000
,  // measure 53
1001
1000
0100
0010
0001
1000
0100
0000
,  // measure 54
1000
0100
1000
0001
0100
0001
1000
0000
,  // measure 55
0001
1000
0100
0010
0100
1000
0001
0000
,  // measure 56
1000
0010
1000
0100
1000
0010
1010
0000
,  // measure 57
0101
0100
0010
0000
0100
0010
1000
0000
,  // measure 58
0100
1000
0001
0000
0100
0001
0010
0000
,  // measure 59
0001
0010
0001
0010
0100
1000
0010
0000
,  // measure 60
1000
0100
1000
0010
0100
0010
0220
0330
,  // measure 61
2002
0000
0000
0000
,  // measure 62
0000
0000
0000
0000
,  // measure 63
3003
0000
0000
0000
;

//---------------dance-single - DDRDAIKENKAI----------------
#NOTES:
     dance-single:
     DDRDAIKENKAI:
     Challenge:
     11:
     0.952,1.000,0.520,0.278,0.508: // measure 1
0000
0000
0000
0000
,  // measure 2
0000
0000
0000
0000
,  // measure 3
0000
0000
0000
0000
,  // measure 4
0000
0000
0000
0000
,  // measure 5
1010
0000
0010
0100
0000
0010
0100
0000
0001
0000
0010
0000
0001
0000
0100
0000
,  // measure 6
0010
0000
1000
0010
0000
1000
0010
0000
1000
0000
0100
0000
0010
0000
0001
0000
,  // measure 7
0010
0100
0010
0000
0100
0000
1000
0010
1000
0000
0010
0000
0100
0000
0000
0000
,  // measure 8
0101
0001
2002
3003
1100
0100
0220
0330
,  // measure 9
0011
0000
0001
1000
0010
0100
0010
1000
0001
0000
1000
0000
0100
0000
0010
0000
,  // measure 10
0001
0000
1000
0001
0100
0010
0100
0001
1000
0000
0100
0000
0010
0000
0001
0000
,  // measure 11
1000
0100
1000
0100
0010
0000
0100
0010
0001
0000
0100
0000
0001
0000
0000
0000
,  // measure 12
0102
0103
0210
0310
1020
1030
2001
3001
,  // measure 13
0201
0000
0301
0100
0001
0010
0001
0100
0010
0000
1000
0000
0100
0000
1000
0000
,  // measure 14
0010
0000
0100
0001
0100
0010
1000
0001
0010
0000
0100
0000
1000
0000
0010
0000
,  // measure 15
0100
0001
0100
0000
0010
0100
0010
0000
1000
0100
1000
0000
0001
1000
0001
0000
,  // measure 16
0100
0001
0100
0001
0100
0010
0100
0010
1000
0010
1000
0010
1000
0001
1000
0001
,  // measure 17
1000
0001
0100
1000
0100
0001
1000
0010
,  // measure 18
0001
0000
0010
0000
1000
0000
0001
1000
0010
0000
1000
0000
0001
0000
1000
0000
,  // measure 19
0100
0010
0100
1000
0010
1000
0100
0010
,  // measure 20
0001
0010
0100
1000
0001
0100
0110
0010
,  // measure 21
1010
1000
0100
1000
0010
0100
0001
0010
,  // measure 22
0100
1000
0001
1000
0100
0010
0001
1000
,  // measure 23
0001
0100
0010
1000
0100
1000
0010
0100
,  // measure 24
0001
0000
0010
0000
0100
0000
1000
0001
0100
0000
0001
0000
0011
0000
0001
0000
,  // measure 25
1001
1000
0010
1000
0100
0010
0100
1000
,  // measure 26
0001
0000
0100
0000
1000
0000
0100
0001
0010
0000
0100
0000
1000
0000
0010
0000
,  // measure 27
1000
0100
0001
0100
1000
0010
0100
1000
,  // measure 28
0100
0010
0100
0001
0100
0010
1000
0100
,  // measure 29
0010
0100
1000
0001
0010
0100
1000
0001
,  // measure 30
0100
0010
0100
0001
1000
0001
0100
0010
,  // measure 31
1020
1030
0100
0001
0100
1000
0001
0100
,  // measure 32
0120
0000
0130
0000
0101
0000
0001
1000
0200
0000
1300
0000
2001
0000
3001
0000
,  // measure 33
0101
0001
0100
0010
0100
1000
0100
0001
,  // measure 34
1000
0010
1000
0100
1000
0010
1000
0001
,  // measure 35
0010
0100
0010
0001
0010
1000
0010
0100
,  // measure 36
1000
0001
0100
0001
0010
0001
0100
0001
,  // measure 37
0100
0000
0010
0000
0100
0010
0000
0000
1000
0000
0010
0000
1000
0010
0000
0000
,  // measure 38
0100
0000
0001
0000
0100
0001
0000
0001
0010
0000
0001
0000
0010
0001
0000
0000
,  // measure 39
1000
0000
0100
0000
1000
0100
0000
0000
0010
0000
0100
0000
0010
0100
0000
0000
,  // measure 40
1000
0000
0001
0000
1000
0001
0000
0000
0100
0000
0001
0000
0100
0001
0000
0000
,  // measure 41
0102
0000
0000
0100
0000
0000
0100
0000
0100
0000
0000
0103
0000
0000
0010
0000
,  // measure 42
1020
0000
0000
1000
0000
0000
1030
0000
0100
0000
0000
0010
0000
0000
0001
0000
,  // measure 43
1002
0000
0000
1003
0000
0000
0010
0000
0210
0000
0000
0310
0000
0000
0100
0000
,  // measure 44
0101
0000
0000
1001
0000
0000
1100
0000
0000
0110
0000
0000
2002
0000
3003
0000
,  // measure 45
0101
0000
0001
0100
0000
0001
0100
0000
0010
0000
0100
0010
0000
0100
0010
0000
,  // measure 46
1000
0000
0010
1000
0000
0010
1000
0000
0100
0000
1000
0100
0000
0000
0110
0000
,  // measure 47
0010
0000
0100
0010
0000
0100
0010
0000
0001
0000
0010
0001
0000
0010
0001
0000
,  // measure 48
1000
0000
0001
1000
0000
0001
1000
0000
0001
0000
0100
0001
0000
0000
0101
0000
,  // measure 49
1001
0000
0001
1000
0000
0100
1000
0000
0001
0000
1000
0010
0000
1000
0001
0000
,  // measure 50
0100
0000
0010
1000
0000
0100
0010
0000
0100
0000
1000
0010
0000
0000
0110
0000
,  // measure 51
0100
0000
0010
0100
0000
0001
0100
0000
0001
0000
0010
0001
0000
0010
0100
0000
,  // measure 52
0010
0000
0100
1000
0000
0001
1000
0000
0010
0000
0000
1010
0000
0000
1001
0000
,  // measure 53
0101
0001
1000
0001
0100
0001
0100
0001
,  // measure 54
1000
0010
0100
0010
1000
0010
0100
0010
,  // measure 55
0100
0001
0100
0010
0100
0001
0100
0010
,  // measure 56
1000
0000
0001
0000
1000
0000
0100
0010
0100
0000
0010
0000
0011
0000
0001
0000
,  // measure 57
1001
1000
0010
0100
1000
0100
0001
1000
,  // measure 58
0001
0100
0010
1000
0001
0010
0100
1000
,  // measure 59
1100
0100
0001
0100
1000
0001
0100
0010
,  // measure 60
1010
0000
0010
0000
1000
0000
0001
0100
0002
0000
0103
0000
0210
0000
0310
0000
,  // measure 61
2020
0000
0000
0000
,  // measure 62
3030
0000
0000
0000
;

//---------------dance-single - DDRDAIKENKAI----------------
#NOTES:
     dance-single:
     DDRDAIKENKAI:
     Medium:
     6:
     0.518,0.637,0.326,0.169,0.000:
0000
0000
0000
0000
,
0000
0000
0000
0000
,
0000
0000
0000
0000
,
0000
0000
0000
0000
,
1000
0100
0000
1000
0000
0010
0000
1000
,
0000
0100
0000
0010
0000
0001
0100
0001
,
0000
0100
0000
0001
0000
0010
0002
0000
,
0203
0302
2003
3010
,
1000
1000
0001
0001
,
0100
0000
0100
0000
0010
0000
0010
0100
,
0010
1000
0100
0010
,
0011
1001
0110
1001
,
1000
1000
0001
0001
,
0100
0000
0100
0000
0010
0000
0010
1000
,
0010
1000
0100
0010
,
0110
1100
0101
1001
,
0001
0100
0001
0000
1000
0100
1000
0000
,
0010
0100
0010
0000
1000
0100
1000
0100
,
1000
1000
0001
0001
,
0100
0010
0100
0000
0010
0100
0010
0100
,
0010
1000
0001
1000
,
0010
0000
0100
0000
0001
1000
0001
0000
,
0100
1000
0100
0001
,
0010
0000
0100
0000
1000
0010
1000
0000
,
1000
0100
1000
0000
0001
0100
0001
0000
,
1000
0001
1000
0000
0010
0000
0100
0010
,
0100
0001
1000
0100
,
1000
0000
0001
0000
0010
0001
0010
0000
,
0001
0100
1000
0100
,
0001
0000
0010
0000
0100
1000
0010
1000
,
0010
0100
0001
0100
,
1010
1010
0101
0101
,
1001
0000
0001
0000
0100
0001
0100
0000
,
0001
0000
1000
0000
0100
1000
0100
0000
,
1000
0010
0100
0001
,
0010
0100
1000
0001
,
1000
0100
1000
0000
0010
0100
0010
0000
,
0100
0001
0100
0000
0001
0010
0001
0000
,
1000
0100
1000
0000
0001
0010
0001
0000
,
1000
0010
1000
0000
0001
0100
0001
0000
,
0202
0000
0000
0303
,
2020
0000
0000
3030
,
2200
3300
0220
0330
,
0011
0011
0101
0101
,
0001
0010
1000
0010
,
0001
0000
0100
0000
0010
0000
1000
0100
,
1000
0010
0100
0001
,
0010
0000
0100
0000
1000
0010
1000
0000
,
1000
0100
0010
0001
,
1000
0000
0001
0000
0100
0000
0010
0100
,
0010
0000
0100
0000
0001
0000
1000
0100
,
1000
0000
0001
0000
0010
0001
0010
0000
,
0001
0100
1000
0100
,
0001
0010
0001
0000
1000
0000
0001
0010
,
0001
0001
1000
1000
,
0010
0010
0100
0101
,
0101
0000
0001
0000
1000
0100
1000
0000
,
0010
0000
0010
0000
0100
0001
0100
0000
,
0010
1000
0010
0000
1000
0001
1000
0000
,
1010
0001
1100
0101
,
2002
0000
0000
0000
,
0000
0000
0000
0000
,
3003
0000
0000
0000
;

//---------------dance-single - DDRDAIKENKAI----------------
#NOTES:
     dance-single:
     DDRDAIKENKAI:
     Easy:
     5:
     0.385,0.637,0.169,0.302,0.000:
0000
0000
0000
0000
,
0000
0000
0000
0000
,
0000
0000
0000
0000
,
0000
0000
0000
0000
,
0000
0000
0000
0000
,
0000
0000
0000
0000
,
0000
0000
0000
0000
,
0000
0000
0000
0000
,
1000
1000
0001
0001
,
1000
1000
0001
0001
,
0100
0010
0100
0010
,
0110
0110
0110
0110
,
0001
0001
1000
1000
,
0001
0001
1000
1000
,
0100
0010
0100
0010
,
0200
0320
0230
0320
,
0031
0001
0100
0100
,
0001
0001
0100
0100
,
0010
0010
1000
1000
,
0010
0010
1000
1000
,
0100
1000
0100
1000
,
0100
1000
0100
1000
,
0010
0100
0010
0100
,
0010
0100
0010
0100
,
0001
0001
0010
0010
,
0001
0001
0010
0010
,
0100
0100
1000
1000
,
0100
0100
1000
1000
,
0001
1000
0001
1000
,
0001
1000
0001
1000
,
0010
0100
0010
0100
,
0010
0100
0010
0100
,
0100
0001
0000
0001
,
0000
1000
0000
1000
,
0000
0010
0000
0010
,
0000
0100
0000
0100
,
0002
0003
2000
3000
,
0200
0300
2000
3000
,
0002
0003
2000
3000
,
0200
0300
2000
3000
,
2020
0000
3030
0000
,
0202
0000
0303
0000
,
2002
3003
2002
3003
,
1001
1001
1001
1001
,
0001
0001
0100
0100
,
0001
0010
0100
1000
,
0010
0010
1000
1000
,
0010
1000
0100
0010
,
0001
0001
0100
0100
,
0001
0010
0100
1000
,
0010
0010
1000
1000
,
0010
1000
0100
0010
,
0001
0100
0001
0100
,
0010
1000
0010
1000
,
0001
0010
0001
0010
,
0100
1000
0100
1000
,
0001
0001
0100
0100
,
0010
0010
1000
1000
,
0001
1000
0001
1000
,
0020
0030
0220
0330
,
2002
0000
0000
0000
,
0000
0000
0000
0000
,
3003
0000
0000
0000
;

//---------------dance-single - DDRDAIKENKAI----------------
#NOTES:
     dance-single:
     DDRDAIKENKAI:
     Beginner:
     2:
     0.225,0.450,0.121,0.073,0.000:
0000
0000
0000
0000
,
0000
0000
0000
0000
,
0000
0000
0000
0000
,
0000
0000
0000
0000
,
0000
0000
0000
0000
,
0000
0000
0000
0000
,
0000
0000
0000
0000
,
0000
0000
0000
0000
,
0001
0001
0000
1000
,
0000
0001
0000
0100
,
0000
0010
0000
1000
,
1000
1000
1000
1000
,
0000
0001
0000
1000
,
0000
0010
0000
0100
,
0000
0001
0000
0100
,
0100
0100
0100
0100
,
0000
0010
0000
1000
,
0000
0001
0000
1000
,
0000
0001
0000
0100
,
0000
0010
0000
1000
,
1000
1000
0000
0001
,
0000
1000
0000
0100
,
0000
0010
0000
0001
,
0000
1000
1000
1000
,
1000
0000
0001
0000
,
1000
0000
0010
0000
,
0100
0000
0001
0000
,
0100
0000
0010
0000
,
1000
0000
0001
0000
,
1000
0000
0100
0000
,
1000
0000
0001
0000
,
0100
0000
0010
0000
,
1000
0000
0001
0000
,
1000
0000
0001
0000
,
0100
0000
0010
0000
,
0100
0000
0010
0000
,
1000
1000
1000
0000
,
0001
0001
0001
0000
,
0100
0000
0010
0000
,
0100
0000
0010
0000
,
0220
0000
0330
0000
,
0220
0000
0330
0000
,
1001
0000
1001
0000
,
1001
1001
1001
1001
,
0000
0001
0000
1000
,
0000
0001
0000
1000
,
0000
0010
0000
0100
,
0000
0010
0000
0100
,
0000
0010
0000
1000
,
0000
0001
0000
0100
,
0000
0010
0000
1000
,
0000
0001
0000
0100
,
0100
0000
0001
0000
,
1000
0000
0100
0000
,
0010
0000
0001
0000
,
1000
0000
0010
0000
,
0110
0000
0001
0000
,
1000
0000
0001
0000
,
0100
0000
0010
0000
,
1000
0000
0001
0000
,
2002
0000
0000
0000
,
0000
0000
0000
0000
,
3003
0000
0000
0000
;
