#TITLE:Help Me Dr. Dick;
#SUBTITLE:(Dancemania Mix);
#ARTIST:E-ROTIC;
#TITLETRANSLIT:;
#SUBTITLETRANSLIT:;
#ARTISTTRANSLIT:;
#GENRE:;
#CREDIT:;
#BANNER:HMDD (Dancemania Mix).png;
#BACKGROUND:HMDD (Dancemania Mix)-bg.png;
#LYRICSPATH:;
#CDTITLE:CDTitle.png;
#MUSIC:HMDD (Dancemania Mix).ogg;
#OFFSET:-0.035;
#SAMPLESTART:22.820;
#SAMPLELENGTH:13.300;
#SELECTABLE:YES;
#BPMS:0.000=147.020;
#STOPS:;
#TIMESIGNATURES:0.000=4=4
;
#BGCHANGES:;
#KEYSOUNDS:;
#ATTACKS:;

//---------------dance-single - DDRDAIKENKAI----------------
#NOTES:
     dance-single:
     DDRDAIKENKAI:
     Easy:
     4:
     0.336,0.404,0.011,0.620,0.000,161.000,1.000,58.000,0.000,0.000,0.000,-1.000,-1.000,0.336,0.404,0.011,0.620,0.000,161.000,1.000,58.000,0.000,0.000,0.000,-1.000,-1.000: // measure 1
0000
0000
0000
0000
,  // measure 2
0000
0000
0000
0000
,  // measure 3
0000
0000
0000
0000
,  // measure 4
0000
0000
0000
0000
,  // measure 5
0000
0000
0000
0000
,  // measure 6
0000
0000
0000
0000
,  // measure 7
2000
0000
0000
0000
,  // measure 8
3002
0000
0000
0000
,  // measure 9
2003
0000
0000
0000
,  // measure 10
3002
0000
0000
0003
,  // measure 11
0010
0010
0010
0010
,  // measure 12
0010
0010
0010
0000
,  // measure 13
0100
0100
0100
0100
,  // measure 14
0100
0100
0100
0000
,  // measure 15
1000
1000
1000
0000
,  // measure 16
0001
0001
0001
0000
,  // measure 17
0100
0100
0100
0000
,  // measure 18
0010
0010
0010
0000
,  // measure 19
0100
0100
0100
0100
,  // measure 20
0100
0100
0100
0000
,  // measure 21
0010
0010
0010
0010
,  // measure 22
0010
0010
0010
0000
,  // measure 23
2000
0100
0100
3100
,  // measure 24
0020
0001
0001
0031
,  // measure 25
2000
0010
0010
3010
,  // measure 26
0200
0001
0001
0301
,  // measure 27
0020
0001
0001
0031
,  // measure 28
0200
0010
0010
0310
,  // measure 29
2000
3200
2300
3200
,  // measure 30
0320
0000
0032
0000
0200
0303
0000
0000
,  // measure 31
0010
0100
0002
1003
,  // measure 32
0001
1000
0200
0300
,  // measure 33
1000
0001
1000
0010
,  // measure 34
0200
0000
0002
0303
,  // measure 35
0010
0100
2000
3001
,  // measure 36
0010
0100
2000
3000
,  // measure 37
0100
0010
0001
1000
,  // measure 38
0200
0000
0020
0330
,  // measure 39
0001
0100
0001
0100
,  // measure 40
0010
1000
0001
0000
,  // measure 41
0001
0100
0001
0100
,  // measure 42
0010
1000
0001
0000
,  // measure 43
2000
3200
2300
3200
,  // measure 44
0320
0000
0032
0000
0200
0303
0000
0000
,  // measure 45
0002
0023
0032
0023
,  // measure 46
0230
0000
2300
0000
0020
3030
0000
0000
,  // measure 47
2000
3200
1000
1300
,  // measure 48
0002
0203
0001
0301
,  // measure 49
0002
0023
0230
0320
,  // measure 50
0032
0203
0302
0003
,  // measure 51
2000
3200
1000
1300
,  // measure 52
0002
0203
0001
0301
,  // measure 53
2000
3002
2003
3002
,  // measure 54
1000
1000
1000
1003
,  // measure 55
1001
0000
0000
0000
;

//---------------dance-single - DDRDAIKENKAI----------------
#NOTES:
     dance-single:
     DDRDAIKENKAI:
     Medium:
     6:
     0.455,0.462,0.150,0.759,0.000,213.000,14.000,71.000,0.000,0.000,0.000,-1.000,-1.000,0.455,0.462,0.150,0.759,0.000,213.000,14.000,71.000,0.000,0.000,0.000,-1.000,-1.000: // measure 1
0000
0000
0000
0000
,  // measure 2
0000
0000
0000
0000
,  // measure 3
0000
0000
0000
0000
,  // measure 4
0000
0000
0000
0000
,  // measure 5
0000
0000
0000
0000
,  // measure 6
0000
0000
0000
0000
,  // measure 7
2000
0000
0000
0000
,  // measure 8
3002
0000
0000
0000
,  // measure 9
2003
0000
0000
0000
,  // measure 10
3020
0000
0000
0030
0000
0000
0000
0000
,  // measure 11
2000
3002
2003
3002
,  // measure 12
2003
0000
3002
0000
1003
0001
0000
0000
,  // measure 13
2000
3002
2003
3001
,  // measure 14
1001
1001
1001
1001
,  // measure 15
1000
0100
1000
0010
,  // measure 16
2000
0000
3002
0000
1003
0001
0000
0000
,  // measure 17
0010
0001
0100
0010
,  // measure 18
2000
0000
3200
0000
0310
0001
0000
0000
,  // measure 19
0002
0023
0032
0023
,  // measure 20
0032
0000
0203
0000
0301
1000
0000
0000
,  // measure 21
0020
2030
3020
2030
,  // measure 22
3020
0000
0230
0000
0301
1000
0000
0000
,  // measure 23
0200
0000
1300
0100
1000
0100
1000
0000
,  // measure 24
0020
0000
0130
0001
0100
0001
0100
0000
,  // measure 25
0002
0000
1003
0100
1000
0100
1000
0000
,  // measure 26
0010
0000
1000
0001
1000
0001
1000
0000
,  // measure 27
2000
0000
3010
0100
0010
0100
0010
0000
,  // measure 28
2000
0000
3100
1000
0100
1000
0100
0000
,  // measure 29
2000
3002
2003
3001
,  // measure 30
1001
0000
1001
0000
1001
0000
0001
1000
,  // measure 31
0001
1000
0001
0000
2000
0000
3001
0010
,  // measure 32
0001
0000
0001
0010
0002
0000
0003
0000
,  // measure 33
0001
0000
1000
0100
1000
0000
0010
1000
,  // measure 34
0200
0000
2000
3300
,  // measure 35
0100
0010
0100
0000
0020
0000
0031
0100
,  // measure 36
0001
0000
0001
0100
0002
0000
0003
0000
,  // measure 37
0010
0100
0010
0000
0100
0000
1000
0100
,  // measure 38
2000
0000
0020
3030
,  // measure 39
1000
0100
1000
0100
1000
0000
0010
0100
,  // measure 40
0002
0000
2003
0000
3001
1000
0000
0000
,  // measure 41
0010
0100
0010
0100
0010
0000
1000
0100
,  // measure 42
2000
0000
3200
0000
1300
0100
0000
0000
,  // measure 43
2000
3200
2300
3200
,  // measure 44
0320
0000
0032
0000
0103
0010
0000
0000
,  // measure 45
2000
3200
2300
3200
,  // measure 46
0320
0000
0032
0000
0103
0010
0000
0000
,  // measure 47
2000
0000
3001
0100
0001
0100
0001
0000
,  // measure 48
0020
0000
0130
0010
0100
0010
0100
0000
,  // measure 49
2000
3200
2300
3200
,  // measure 50
0320
0000
0032
0000
0103
0010
0000
0000
,  // measure 51
2000
0000
3001
0100
0001
0100
0001
0000
,  // measure 52
2000
0000
3100
1000
0100
1000
0100
0000
,  // measure 53
1100
1100
0110
0110
,  // measure 54
1001
0000
1001
0000
1001
0000
1000
0001
,  // measure 55
1000
0000
0000
0000
;

//---------------dance-single - DDRDAIKENKAI----------------
#NOTES:
     dance-single:
     DDRDAIKENKAI:
     Hard:
     8:
     0.527,0.491,0.577,0.235,0.262,269.000,54.000,22.000,0.000,0.000,0.000,-1.000,-1.000,0.527,0.491,0.577,0.235,0.262,269.000,54.000,22.000,0.000,0.000,0.000,-1.000,-1.000: // measure 1
0000
0000
0000
0000
,  // measure 2
0000
0000
0000
0000
,  // measure 3
0000
0000
0000
0000
,  // measure 4
0000
0000
0000
0000
,  // measure 5
0000
0000
0000
0000
,  // measure 6
0000
0000
0000
0000
,  // measure 7
1000
2000
0000
0000
0000
0000
0000
0000
,  // measure 8
3020
0000
0000
0000
,  // measure 9
2030
0000
0000
0000
,  // measure 10
3002
0000
0000
0000
0000
0000
0200
0003
0000
0000
0000
0000
0000
0300
0000
0000
,  // measure 11
0011
0011
1100
1100
,  // measure 12
0101
0000
0101
0000
0010
1000
0000
0000
,  // measure 13
1100
1100
0011
0011
,  // measure 14
1001
0000
0000
0000
1001
0000
0000
0000
1001
0000
0000
0010
0100
0000
0001
0000
,  // measure 15
1000
0000
0100
0000
0010
0000
0001
0100
0000
0000
0001
0000
0010
0001
0010
0000
,  // measure 16
0200
0000
2300
0000
3001
0100
0000
0000
,  // measure 17
0010
0000
1000
0000
0010
0000
0100
0002
0000
0000
1003
0000
0001
0100
0001
0000
,  // measure 18
0020
0000
0230
0000
1300
0001
0000
0000
,  // measure 19
1000
1010
0001
0101
,  // measure 20
1001
0000
1001
0000
0010
0100
0001
0000
,  // measure 21
0001
1100
1000
0011
,  // measure 22
1001
0000
0110
0000
0001
0010
0100
0000
,  // measure 23
1000
0001
0000
0000
0100
0000
0010
0000
1000
0000
0100
1000
0000
0100
0000
0000
,  // measure 24
0010
0001
0000
0000
0010
0000
0100
0000
1000
0000
0001
0100
0000
0010
0000
0000
,  // measure 25
1000
0100
0000
0000
1000
0000
0010
0000
0100
0000
0001
0010
0000
0100
0000
0000
,  // measure 26
1000
0100
0000
0000
0010
0000
0001
0000
0100
0000
0010
1000
0000
0001
0000
0000
,  // measure 27
1000
0010
0000
0000
0100
0000
0001
0000
0010
0000
0100
1000
0000
0001
0000
0000
,  // measure 28
0100
0010
0000
0000
1000
0000
0100
0000
1000
0000
0010
0100
0000
0001
0000
0000
,  // measure 29
0101
1010
1100
0011
,  // measure 30
1001
0000
0110
0000
1001
0000
0010
0100
,  // measure 31
0010
0000
0100
0000
0001
0000
0100
0010
0000
0000
1000
0000
0100
0000
0010
0001
,  // measure 32
0000
0000
0100
0000
0010
0000
1000
0200
0000
0000
1300
0000
0000
0000
0000
0000
,  // measure 33
0001
0000
0010
0000
0100
0000
1000
0001
0000
0000
0100
0000
0010
0000
1000
0020
,  // measure 34
0000
0000
2000
3030
,  // measure 35
0001
0000
0010
0000
0100
0000
1000
0002
0000
0000
0103
0000
0010
0000
0100
0010
,  // measure 36
0000
0000
0100
0000
0010
0000
1000
0002
0000
0000
1003
0000
0000
0000
0000
0000
,  // measure 37
0001
0000
0010
0000
0100
0000
1000
0200
0000
0000
0310
0000
0001
0000
0100
0020
,  // measure 38
0000
0000
2000
3030
,  // measure 39
0100
0000
0010
0000
0001
0000
1000
0100
0000
0000
1000
0000
0001
0100
0001
0000
,  // measure 40
0200
0000
0320
0000
1030
0001
0000
0000
,  // measure 41
1000
0000
0100
0000
0010
0000
0001
1000
0000
0000
0001
0000
0010
0100
0010
0000
,  // measure 42
0200
0000
0000
0000
2000
0300
0000
0000
3001
0000
0100
0000
0001
0000
0000
0000
,  // measure 43
0011
1100
0101
1010
,  // measure 44
1001
0000
0101
0000
1000
0100
1000
0000
,  // measure 45
0011
0101
1010
1100
,  // measure 46
1001
0000
0110
0000
1001
0000
0001
1000
,  // measure 47
0001
0100
0000
0000
0010
0000
1000
0000
0100
0000
0010
0001
0000
1000
0000
0000
,  // measure 48
0100
0010
0000
0000
0001
0000
1000
0000
0010
0000
0100
0001
0000
0100
0000
0000
,  // measure 49
0101
1010
1100
0011
,  // measure 50
0101
0000
1001
0000
0100
1000
0001
0000
,  // measure 51
0100
0010
0000
0000
1000
0000
0100
0000
1000
0000
0010
0100
0000
0001
0000
0000
,  // measure 52
0010
0100
0000
0000
1000
0000
0100
0000
0010
0000
0001
0100
0000
0010
0000
0000
,  // measure 53
1010
1001
0011
1001
,  // measure 54
1100
0000
0101
0000
1100
0000
0001
0100
,  // measure 55
0010
0000
0000
0000
;

//---------------dance-single - DDRDAIKENKAI----------------
#NOTES:
     dance-single:
     DDRDAIKENKAI:
     Challenge:
     11:
     0.753,0.751,0.417,0.481,0.604,409.000,39.000,45.000,0.000,2.000,0.000,-1.000,-1.000,0.753,0.751,0.417,0.481,0.604,409.000,39.000,45.000,0.000,2.000,0.000,-1.000,-1.000: // measure 1
0000
0000
0000
0000
,  // measure 2
0000
0000
0000
0000
,  // measure 3
0000
0000
0000
0000
,  // measure 4
0000
0000
0000
0000
,  // measure 5
0000
0000
0000
0000
,  // measure 6
2002
0000
3003
0000
0202
0000
0303
0000
2020
0000
3030
0000
2001
0000
3001
1000
,  // measure 7
0002
0203
0010
0000
0000
0000
0310
0000
,  // measure 8
2000
0100
0000
3100
,  // measure 9
0020
0001
0000
0031
,  // measure 10
0002
0103
0200
0301
,  // measure 11
0001
0100
0000
0000
0010
1000
0000
0000
0001
0100
0000
0000
0010
1000
0000
0000
,  // measure 12
0100
0010
0000
0000
0001
1000
0000
0000
0100
0000
0010
0000
0001
0000
0000
0000
,  // measure 13
1000
0010
0000
0000
0100
0001
0000
0000
1000
0100
0000
0000
0010
0001
0000
0000
,  // measure 14
1001
0000
0000
0000
0101
0000
0000
0000
1010
0000
0000
0100
0010
0000
0100
1000
,  // measure 15
0100
0000
0010
0000
0001
0000
0100
0010
0000
0010
1000
0000
0001
1000
0001
0000
,  // measure 16
0201
0000
0320
0000
1030
0100
1000
0000
,  // measure 17
0001
0000
0010
0000
0100
0000
1000
0010
0000
0010
0100
0000
0001
0100
0001
0000
,  // measure 18
0021
0000
0230
0000
1300
0100
0010
0000
,  // measure 19
0010
0100
0000
0000
0100
1000
0000
0000
1000
0100
0000
0000
0100
0010
0000
0000
,  // measure 20
0010
0001
0000
0000
0001
1000
0000
0000
1000
0000
0001
0000
0100
0000
0000
0000
,  // measure 21
0001
0010
0000
0000
0010
0001
0000
0000
0001
0100
0000
0000
0100
1000
0000
0000
,  // measure 22
1000
0100
0000
0000
0100
0001
0000
0000
0001
0000
1000
0000
0100
0000
0010
0000
,  // measure 23
0001
1000
0100
0020
0001
0000
0031
0000
1000
0000
0001
0100
0000
0010
1000
0100
,  // measure 24
1000
0010
0100
0002
1000
0000
1003
0000
0100
0000
0010
0001
0000
0010
0100
1000
,  // measure 25
0001
0100
0010
2000
0100
0000
3100
0000
1000
0000
0010
0100
0000
0001
0000
0000
,  // measure 26
0001
0010
0000
0000
0100
0000
1000
0000
0001
0000
0100
0010
0000
1000
0000
0000
,  // measure 27
0001
0100
0010
0200
0001
0000
0301
0000
0010
0000
0001
0100
0000
0010
1000
0100
,  // measure 28
1000
0010
0100
0020
1000
0000
1030
0000
0010
0000
0100
0001
0000
0010
0100
1000
,  // measure 29
0100
0010
0001
0000
0100
0010
1000
0000
0100
0010
0001
0000
0100
0010
1000
0000
,  // measure 30
1010
0000
0010
0000
0110
0000
0100
0000
0101
0000
0001
0000
1001
0000
0001
0100
,  // measure 31
0002
0000
1003
0000
0001
0000
0001
0200
0000
0000
0301
0000
0010
0100
1000
0002
,  // measure 32
0003
0000
0100
0000
0010
0000
1000
0002
0000
0000
0013
0000
0000
0000
0000
0000
,  // measure 33
0001
0000
0010
0000
0001
0000
0100
0002
0000
0000
0103
0000
0010
1000
0001
0200
,  // measure 34
0000
0000
2320
3030
,  // measure 35
1000
0000
0100
0000
0010
0000
0001
0200
0000
0000
0301
0000
0010
0100
1000
0002
,  // measure 36
0003
0000
0100
0000
0010
0000
1000
0002
0000
0000
0103
0000
0000
0000
0000
0000
,  // measure 37
0001
0000
0010
0000
0100
0000
1000
0002
0000
0000
0103
0000
0010
1000
0100
2000
,  // measure 38
0000
0000
3022
0033
,  // measure 39
1000
0000
0001
0000
0010
0000
0100
1000
0000
0100
1000
0000
0010
0100
0010
0000
,  // measure 40
0200
0001
0302
1000
1003
0100
0010
0001
,  // measure 41
0100
0000
0010
0000
1000
0000
0100
1000
0000
1000
0010
0000
0100
0001
0100
0000
,  // measure 42
0020
1000
2030
0100
3100
0010
0001
1000
,  // measure 43
1100
0100
0110
0010
0011
0001
1001
1000
,  // measure 44
1010
0010
0110
0100
0101
1001
1000
0100
,  // measure 45
1100
1000
1001
0001
0101
0100
0110
0010
,  // measure 46
1010
1000
1001
0001
0101
0110
0010
1000
,  // measure 47
0100
0010
0001
0020
0100
0000
0130
0000
1000
0000
0010
0100
0000
0001
0010
0001
,  // measure 48
0100
0010
1000
0002
1000
0000
1003
0000
0001
0000
0100
0010
0000
0100
0010
1000
,  // measure 49
0100
0010
0001
0000
0100
0010
1000
0000
0001
0100
0001
0000
1000
0100
1000
0000
,  // measure 50
0001
1000
0001
0000
0100
0010
0100
0000
0101
0000
1001
0000
0001
0000
1000
0000
,  // measure 51
0100
1000
0010
0200
0001
0000
0301
0000
0100
0000
0010
1000
0000
0100
1000
0010
,  // measure 52
0100
0001
0010
0200
1000
0000
1300
0000
0010
0000
0100
0001
0000
0010
0001
0100
,  // measure 53
0010
1000
0100
0000
0010
0001
0100
0000
0010
1000
0100
0000
0010
0001
0100
0000
,  // measure 54
0101
0001
1001
1000
1100
0100
0110
0011
,  // measure 55
1001
0000
0000
0000
;

//---------------dance-single - DDRDAIKENKAI----------------
#NOTES:
     dance-single:
     DDRDAIKENKAI:
     Beginner:
     2:
     0.192,0.202,0.021,0.139,0.000,111.000,2.000,13.000,0.000,0.000,0.000,-1.000,-1.000,0.192,0.202,0.021,0.139,0.000,111.000,2.000,13.000,0.000,0.000,0.000,-1.000,-1.000: // measure 1
0000
0000
0000
0000
,  // measure 2
0000
0000
0000
0000
,  // measure 3
0000
0000
0000
0000
,  // measure 4
0000
0000
0000
0000
,  // measure 5
0000
0000
0000
0000
,  // measure 6
0000
0000
0000
0000
,  // measure 7
2002
0000
0000
0000
,  // measure 8
0000
0000
0000
0000
,  // measure 9
0000
0000
0000
0000
,  // measure 10
0000
0000
3003
0000
,  // measure 11
1000
1000
1000
1000
,  // measure 12
1000
1000
1000
0000
,  // measure 13
0001
0001
0001
0001
,  // measure 14
0001
0001
0001
0000
,  // measure 15
1000
0000
1000
0000
,  // measure 16
0001
0001
0001
0000
,  // measure 17
0100
0000
0100
0000
,  // measure 18
0010
0010
0010
0000
,  // measure 19
1000
1000
1000
1000
,  // measure 20
1000
1000
1000
0000
,  // measure 21
0001
0001
0001
0001
,  // measure 22
0001
0001
0001
0000
,  // measure 23
2000
0000
3000
0000
,  // measure 24
0200
0000
0300
0000
,  // measure 25
0020
0000
0030
0000
,  // measure 26
0002
0000
0003
0000
,  // measure 27
2000
0000
3000
0000
,  // measure 28
0020
0000
0030
0000
,  // measure 29
0100
0100
0100
0100
,  // measure 30
0100
0100
0000
0000
,  // measure 31
0000
0001
0000
1000
,  // measure 32
0000
0001
0000
1000
,  // measure 33
0000
0100
0000
1000
,  // measure 34
0000
0100
0000
1000
,  // measure 35
0000
0001
0000
0001
,  // measure 36
0000
1000
0000
1000
,  // measure 37
0000
0010
0000
0010
,  // measure 38
0020
0000
0030
0000
,  // measure 39
0100
0100
0100
0000
,  // measure 40
0001
0001
0001
0000
,  // measure 41
1000
1000
1000
0000
,  // measure 42
0100
0100
0100
0000
,  // measure 43
0010
0010
0010
0010
,  // measure 44
0010
0010
0010
0000
,  // measure 45
0001
0001
0001
0001
,  // measure 46
0001
0001
0001
0000
,  // measure 47
0200
0000
0300
0000
,  // measure 48
0020
0000
0030
0000
,  // measure 49
1000
1000
1000
1000
,  // measure 50
1000
1000
1000
0000
,  // measure 51
0002
0000
0003
0000
,  // measure 52
0200
0000
0300
0000
,  // measure 53
0010
0010
0010
0010
,  // measure 54
0010
0010
0010
0000
,  // measure 55
0110
0000
0000
0000
;
