#TITLE:HEART OF SWORD;
#SUBTITLE:~夜明け前~;
#ARTIST:T.M.Revolution;
#TITLETRANSLIT:;
#SUBTITLETRANSLIT:~yoake mae~;
#ARTISTTRANSLIT:;
#GENRE:ELECTRONIC ROCK;
#CREDIT:;
#MENUCOLOR:;
#NEWMETERSYSTEM:NO;
#BANNER:HEART OF SWORD.png;
#BACKGROUND:HEART OF SWORD-bg.png;
#LYRICSPATH:;
#CDTITLE:CDTitle.png;
#MUSIC:HEART OF SWORD.ogg;
#OFFSET:-0.100;
#SAMPLESTART:15.855;
#SAMPLELENGTH:15.900;
#SELECTABLE:YES;
#LISTSORT:;
#BPMS:0.000=119.970;
#STOPS:;
#BGCHANGES:0.000=Heart of Sword.avi=1.000=0=0=1,
99999=-nosongbg-=1.000=0=0=0 // don't automatically add -songbackground-
;
#ATTACKS:;

//---------------dance-single - DDRDAIKENKAI----------------
#NOTES:
     dance-single:
     DDRDAIKENKAI:
     Hard:
     8:
     0.511,0.578,0.276,0.410,0.312: // measure 1
0000
0000
0000
0000
,  // measure 2
0000
0000
0000
0000
,  // measure 3
0000
0000
0000
0000
,  // measure 4
0000
0000
0000
0000
,  // measure 5
0000
0000
0000
0000
,  // measure 6
0000
0000
0000
0000
,  // measure 7
0000
0000
0000
0000
,  // measure 8
0000
0000
0000
0000
,  // measure 9
1001
0000
0000
0000
1100
0000
0000
0000
0010
0000
0001
0100
0000
0000
0001
0000
,  // measure 10
0010
0000
0100
0000
0010
0000
0001
0100
0000
0000
0010
0000
1000
0000
0100
0000
,  // measure 11
0010
0000
0210
0000
1300
0010
0100
0010
,  // measure 12
2000
0000
0000
3002
0000
0000
0203
0000
0310
0000
0000
0000
0110
0000
0000
0000
,  // measure 13
1001
0000
0000
0000
0011
0000
0000
0000
0001
0000
0100
0001
0000
0000
0001
0010
,  // measure 14
0001
0000
0100
0000
0010
0000
1000
0100
0000
0000
0010
0000
0100
0000
1000
0010
,  // measure 15
1000
0000
1002
0000
1003
0010
0100
0001
,  // measure 16
1000
0000
0000
0100
0000
0000
0010
0000
0000
0001
0000
0000
2001
0000
0000
0000
,  // measure 17
3001
0100
0000
0001
0100
0000
0010
1000
0000
0010
1000
0000
0001
0000
0010
0000
,  // measure 18
0100
0000
0000
0100
0000
0000
0010
0000
0000
0010
0000
0000
0001
0000
0001
0000
,  // measure 19
1000
0100
0000
1000
0100
0000
0010
0001
0000
0010
0001
0000
0100
0000
0010
0000
,  // measure 20
1000
0000
0000
1000
0000
0000
0001
0000
0000
0001
0000
0000
1002
0000
1000
0000
,  // measure 21
1003
0000
0100
0000
0010
0000
0100
0000
0001
0000
0100
0000
0010
0000
0100
1000
,  // measure 22
0010
0000
0010
1000
0000
1000
0002
0000
0000
0103
0000
0000
0101
0000
0001
0000
,  // measure 23
0100
0000
0010
0000
0100
0000
1000
0000
0100
0000
0010
0000
0100
0000
0001
0010
,  // measure 24
0001
0000
0001
1000
0000
1000
0020
0000
0000
0130
0000
0000
0110
0000
0010
0000
,  // measure 25
1000
0000
0010
0000
0100
0000
0010
0000
0001
0000
0010
0000
0100
0000
0010
1000
,  // measure 26
0001
0000
0001
0010
0000
0010
0200
0000
0000
1300
0000
0000
1001
0000
0001
0000
,  // measure 27
0010
0000
0100
0000
0010
0000
1000
0000
0010
0000
0100
0000
0010
0000
0001
0100
,  // measure 28
0010
0000
0010
1000
0000
1000
0200
0000
0000
1300
0000
0000
1001
0000
0001
0000
,  // measure 29
0200
0000
0000
0301
0000
0000
2000
0000
0000
3100
0000
0000
0010
0000
0001
0000
,  // measure 30
0200
0000
0000
0301
0000
0000
0020
0000
0000
0130
0000
0000
1000
0000
0010
0000
,  // measure 31
0200
0000
0000
1300
0000
0000
0200
0000
0000
0301
0000
0000
1000
0000
0100
0000
,  // measure 32
0020
0000
0000
0031
0000
0000
0020
0000
0000
1030
0000
0000
0010
0000
0001
0000
,  // measure 33
2000
0000
0000
3010
0000
0000
0200
0000
0000
0301
0000
0000
0010
0000
0100
0000
,  // measure 34
2000
0000
0000
3001
0000
0000
0200
0000
0000
0310
0000
0000
0100
0000
0001
0000
,  // measure 35
1000
1000
0100
0001
0001
0010
1000
1000
,  // measure 36
0100
0001
0001
0010
1000
1000
2002
3003
,  // measure 37
0120
0000
0000
0000
1030
0000
0000
0000
1100
0000
0010
0000
0001
0000
0100
0010
,  // measure 38
1000
0000
0100
0000
0001
0000
0100
0010
0000
0000
0002
0000
0023
0000
0130
0000
,  // measure 39
2100
0000
3001
0000
0110
1000
0001
0100
,  // measure 40
2000
0000
0000
3200
0000
0000
0320
0000
2030
0000
0100
0000
3001
0000
0000
0000
,  // measure 41
0120
0000
0000
0000
1030
0000
0000
0000
1010
0000
0100
0000
0001
0000
1000
0001
,  // measure 42
0010
0000
0100
0000
0001
0000
0100
1000
0000
0000
0002
0000
0203
0000
0310
0000
,  // measure 43
0120
0000
1030
0100
0210
0010
0301
0100
,  // measure 44
0110
0000
0010
1000
0000
0100
1000
0000
0010
1000
0001
0000
2001
0000
0000
0000
,  // measure 45
3001
0000
0000
0000
0011
0000
0000
0000
0100
0000
1000
0010
0000
0000
1000
0000
,  // measure 46
0100
0000
0010
0000
0100
0000
1000
0010
0000
0010
0100
0000
0001
0000
0010
0000
,  // measure 47
0110
0000
0021
0000
0031
0100
0010
0100
,  // measure 48
0002
0000
0000
2003
0000
0000
3020
0000
0130
0000
0010
0000
0110
0000
0000
0000
,  // measure 49
1001
0000
0000
0000
1100
0000
0000
0000
1000
0000
0010
1000
0000
0000
1000
0100
,  // measure 50
1000
0000
0010
0000
0100
0000
0001
0010
0000
0010
0100
0000
0010
0000
0001
0000
,  // measure 51
0100
0000
0010
0000
1000
0000
0100
0000
0010
0000
0100
0000
1000
0000
0001
0010
,  // measure 52
0001
0000
1000
0100
0000
1000
0010
0000
0100
0001
1000
0100
2000
0000
3000
0000
,  // measure 53
2002
0000
0000
0000
,  // measure 54
0000
0000
0000
0000
,  // measure 55
3003
0000
0000
0000
;

//---------------dance-single - DDRDAIKENKAI----------------
#NOTES:
     dance-single:
     DDRDAIKENKAI:
     Medium:
     5:
     0.366,0.433,0.134,0.357,0.067: // measure 1
0000
0000
0000
0000
,  // measure 2
0000
0000
0000
0000
,  // measure 3
0000
0000
0000
0000
,  // measure 4
0000
0000
0000
0000
,  // measure 5
0000
0000
0000
0000
,  // measure 6
0000
0000
0000
0000
,  // measure 7
0000
0000
0000
0000
,  // measure 8
0000
0000
0000
0000
,  // measure 9
0100
0000
1001
0000
0010
1000
0100
0000
,  // measure 10
0010
0001
0100
0010
1000
0000
0100
1000
,  // measure 11
0200
0000
0000
0300
2000
0000
0000
3000
0001
0000
0010
0000
0001
0000
0000
0000
,  // measure 12
0100
0000
0000
0010
0000
0000
1000
0000
0001
0000
0000
0000
1001
0000
0000
0000
,  // measure 13
0110
0000
0100
0000
0010
1000
0010
0000
,  // measure 14
0100
0001
1000
0100
1000
0000
0001
0010
,  // measure 15
0001
0000
1000
0000
0001
0100
1000
0100
,  // measure 16
0002
0000
2003
0000
3100
0010
0100
0000
,  // measure 17
1000
0000
0010
0000
0100
0001
1000
0000
,  // measure 18
0100
0000
0000
0010
0000
0000
0001
0000
0000
0010
0000
0000
0100
0000
0000
0000
,  // measure 19
1000
0000
0001
0000
0100
0010
1000
0000
,  // measure 20
1000
0000
0000
1000
0000
0000
0001
0000
0000
0001
0000
0000
1001
0000
0000
0000
,  // measure 21
1000
0100
1000
0000
0001
0010
0001
0000
,  // measure 22
0100
0000
0000
0010
0000
0000
0100
0000
0000
0001
0000
0000
1000
0000
0000
0000
,  // measure 23
0100
0010
0100
0000
1000
0010
1000
0000
,  // measure 24
0001
0000
0000
0010
0000
0000
0100
0000
0000
1000
0000
0000
0001
0000
0000
0000
,  // measure 25
1000
0010
1000
0000
0001
0100
0001
0000
,  // measure 26
1000
0000
0000
0100
0000
0000
0010
0000
0000
0001
0000
0000
0100
0000
0000
0000
,  // measure 27
0010
1000
0010
0000
0100
0001
0100
0000
,  // measure 28
0001
0000
0000
1000
0000
0000
0001
0000
0000
1000
0000
0000
1001
0000
0000
0000
,  // measure 29
0110
2000
3200
0302
,  // measure 30
0023
0000
1030
0100
2000
0000
3002
0000
,  // measure 31
0003
2000
3020
0032
,  // measure 32
0203
0000
1000
2300
0000
0010
3010
0100
,  // measure 33
0001
0020
0230
2300
,  // measure 34
3002
0000
0003
0100
0010
0000
0110
0000
,  // measure 35
1000
2000
0000
3001
0002
0000
0103
0200
,  // measure 36
0000
0310
0020
0000
1030
0001
1001
0000
,  // measure 37
0120
0000
2030
0000
3100
0010
0001
0000
,  // measure 38
0001
0010
0001
0010
0100
0000
0100
1000
,  // measure 39
0020
0000
0032
0000
0013
1000
0001
0000
,  // measure 40
1000
0000
0000
0010
0000
0000
0100
0000
0002
0000
0000
0000
0003
0000
0000
0000
,  // measure 41
1200
0000
0310
0000
0001
0100
1000
0000
,  // measure 42
0100
0001
0100
0001
1000
0000
0100
0010
,  // measure 43
0120
0000
0032
0000
0103
0010
1000
0000
,  // measure 44
0020
0000
0200
0330
,  // measure 45
0010
0000
1001
0000
0100
0001
0010
0000
,  // measure 46
0100
1000
0010
0100
0001
0000
0010
0001
,  // measure 47
0020
0000
0000
0030
0002
0000
0000
0003
1000
0000
0100
0000
1000
0000
0000
0000
,  // measure 48
0010
0000
0000
0100
0000
0000
0001
0000
1000
0000
0000
0000
1001
0000
0000
0000
,  // measure 49
0210
0000
0310
0000
0100
0001
0100
0000
,  // measure 50
0010
1000
0001
0010
0001
0000
1000
0100
,  // measure 51
1000
0000
0001
0000
1000
0010
0001
0010
,  // measure 52
2000
0000
3002
0000
0013
0100
1000
0000
,  // measure 53
2002
0000
0000
0000
,  // measure 54
0000
0000
0000
0000
,  // measure 55
3003
0000
0000
0000
;

//---------------dance-single - DDRDAIKENKAI----------------
#NOTES:
     dance-single:
     DDRDAIKENKAI:
     Easy:
     3:
     0.199,0.265,0.036,0.276,0.000: // measure 1
0000
0000
0000
0000
,  // measure 2
0000
0000
0000
0000
,  // measure 3
0000
0000
0000
0000
,  // measure 4
0000
0000
0000
0000
,  // measure 5
0000
0000
0000
0000
,  // measure 6
0000
0000
0000
0000
,  // measure 7
0000
0000
0000
0000
,  // measure 8
0000
0000
0000
0000
,  // measure 9
1000
0001
1000
1000
,  // measure 10
0010
1000
0100
0000
,  // measure 11
0010
0100
0010
0010
,  // measure 12
0200
2300
3002
0003
,  // measure 13
0100
0010
0100
0100
,  // measure 14
0010
0100
0001
0000
,  // measure 15
0001
1000
0001
0001
,  // measure 16
2000
0000
0000
3000
,  // measure 17
0001
0000
0100
0000
,  // measure 18
0010
0010
1000
0000
,  // measure 19
0100
0000
0010
0000
,  // measure 20
0001
0001
1000
0000
,  // measure 21
1001
0000
0100
0000
,  // measure 22
0010
1000
0100
0000
,  // measure 23
0010
0000
0100
0000
,  // measure 24
0010
0001
0100
0000
,  // measure 25
1000
0000
0100
0000
,  // measure 26
0001
0010
1000
0000
,  // measure 27
0001
0000
0100
0000
,  // measure 28
1000
0010
0002
0003
,  // measure 29
0110
0010
1000
1000
,  // measure 30
0200
0000
1300
1000
,  // measure 31
0000
0010
0001
0001
,  // measure 32
0200
0000
1300
1000
,  // measure 33
0000
0100
0001
1000
,  // measure 34
0002
0000
1000
1003
,  // measure 35
2002
0000
0000
0003
,  // measure 36
0200
0000
0000
3300
,  // measure 37
0200
0000
0320
0000
,  // measure 38
0230
0000
0302
0000
,  // measure 39
2003
0000
3200
0000
,  // measure 40
0320
0000
0032
0000
,  // measure 41
2003
0000
3020
0000
,  // measure 42
0230
0000
0302
0000
,  // measure 43
0203
0000
0320
0000
,  // measure 44
2030
0000
0200
3300
,  // measure 45
0010
0010
0001
0001
,  // measure 46
0100
0010
1000
0000
,  // measure 47
0100
0100
1000
1000
,  // measure 48
0010
0100
0001
0000
,  // measure 49
0010
0010
1000
1000
,  // measure 50
0010
0001
0100
0000
,  // measure 51
0010
0010
0001
0001
,  // measure 52
0020
0000
0200
0330
,  // measure 53
2002
0000
0000
0000
,  // measure 54
0000
0000
0000
0000
,  // measure 55
3003
0000
0000
0000
;
