#TITLE:Green Light;
#SUBTITLE:(MSTRKRFT Remix);
#ARTIST:John Legend feat. Andre 3000;
#TITLETRANSLIT:;
#SUBTITLETRANSLIT:;
#ARTISTTRANSLIT:;
#GENRE:R&B REMIX;
#CREDIT:;
#BANNER:Green light (MSTRKRFT Remix).png;
#BACKGROUND:Green light (MSTRKRFT Remix)-bg.png;
#LYRICSPATH:;
#CDTITLE:CDTitle.png;
#MUSIC:Green light (MSTRKRFT Remix).ogg;
#OFFSET:0.000001;
#SAMPLESTART:113.776779;
#SAMPLELENGTH:14.328354;
#SELECTABLE:YES;
#BPMS:0.000000=134.000000
;
#STOPS:
;
#BGCHANGES:;
#KEYSOUNDS:;
#ATTACKS:;

//---------------dance-single - ----------------
#NOTES:
     dance-single:
     :
     Hard:
     9:
     0.594127,0.639899,0.271686,0.229888,0.512024,597.000000,558.000000,39.000000,33.000000,0.000000,0.000000,0.594127,0.639899,0.271686,0.229888,0.512024,597.000000,558.000000,39.000000,33.000000,0.000000,0.000000:
// measure 0
0000
0000
0000
0000
,  // measure 1
0000
0000
0000
0000
,  // measure 2
0000
0000
0000
0000
,  // measure 3
0000
0000
0000
0000
,  // measure 4
0000
0000
0000
0000
,  // measure 5
0000
0000
0000
0000
,  // measure 6
0000
0000
0000
0000
,  // measure 7
0000
0000
0000
0000
,  // measure 8
0100
0000
0000
0001
0000
0000
0020
0000
0000
0000
0000
0000
0130
0000
0000
0000
,  // measure 9
1000
0000
0000
0010
0000
0000
0002
0000
0000
0000
0000
0000
0013
0000
0000
0000
,  // measure 10
1000
0000
0000
0001
0000
0000
2000
0000
0000
0000
0001
0000
0000
0000
0010
0000
,  // measure 11
0000
0000
0010
0000
0000
0000
0100
0000
0000
0000
3100
0000
1000
0001
0000
0000
,  // measure 12
0100
0000
0000
0010
0000
0000
0002
0000
0000
0000
0000
0000
0013
0000
0000
0000
,  // measure 13
1000
0000
0000
0100
0000
0000
0020
0000
0000
0000
0000
0000
1030
0000
0000
0000
,  // measure 14
0010
0000
0000
0001
0000
0000
0200
0000
0000
0000
0010
0000
0000
0000
1000
0000
,  // measure 15
0000
0000
0010
0000
0000
0000
0301
1000
0001
0000
0000
0101
0000
0000
1001
0000
,  // measure 16
0001
0000
0000
0010
0000
0000
0200
0000
1300
0000
0000
0000
1010
0000
0000
0000
,  // measure 17
0100
0000
0000
0001
0000
0000
2000
0000
3100
0000
0000
0000
1100
0000
0100
0000
,  // measure 18
0010
0000
0000
0001
0000
0000
2000
0000
0010
0000
3020
0000
0100
0000
0230
0000
,  // measure 19
0001
0000
0302
0000
1000
0000
1003
0000
0100
0000
0000
0100
1000
0000
0001
0000
,  // measure 20
0010
0000
0000
1000
0000
0000
0020
0000
0031
0000
0000
0000
0101
0000
0000
0000
,  // measure 21
0100
0000
0000
1000
0000
0000
0200
0000
0301
0000
0000
0000
0101
0000
0001
0000
,  // measure 22
1000
0000
0000
0100
0000
0000
0020
0000
0001
0000
0032
0000
1000
0000
2003
0000
,  // measure 23
0010
0000
3020
0000
0001
0000
0032
0000
0013
0000
0000
0000
1000
0001
1000
0000
,  // measure 24
0001
0000
1000
0100
0000
0001
0100
0000
0000
0000
1000
0100
0000
0001
0100
0000
,  // measure 25
0000
0000
1000
0100
0000
0001
0100
0000
0000
0000
1000
0100
0000
0001
0100
0000
,  // measure 26
1000
0000
0001
0010
0000
1000
0010
0000
0000
0000
0001
0010
0000
1000
0010
0000
,  // measure 27
0001
0000
1000
0100
0000
0001
0100
0000
0000
0000
1000
0100
0000
0001
0100
0000
,  // measure 28
1100
0000
0100
0000
1000
0010
0000
0010
1000
0000
1000
0100
0000
0000
0010
0000
,  // measure 29
0001
0000
0100
0000
0010
1000
0000
1000
0001
0000
0001
0010
0000
0000
0001
0000
,  // measure 30
0011
0000
0001
0000
0100
0010
0000
0010
1000
0000
1000
0100
0000
0000
0010
0000
,  // measure 31
0100
0000
1000
0000
0001
1000
0000
1000
1001
0000
0000
1010
0000
0000
0101
0000
,  // measure 32
0100
0000
0001
1000
0000
0001
1000
0000
0100
0000
0010
0000
0001
0000
0000
0000
,  // measure 33
0010
0000
0100
1000
0000
0100
1000
0000
0001
0000
0100
0000
1000
0000
1000
0000
,  // measure 34
0100
0000
0010
1000
0000
0010
1000
0000
0001
0000
0100
0000
0001
0000
0000
0000
,  // measure 35
1000
0000
0100
0010
0000
0100
0010
0000
0001
0000
0000
0001
0100
0010
0100
0000
,  // measure 36
0110
0000
0010
1000
0000
0010
1000
0000
0001
0000
0100
0010
0000
0100
0010
0000
,  // measure 37
1000
0000
0001
0100
0000
0001
0100
0000
0010
0000
1000
0001
0000
1000
0001
0000
,  // measure 38
0010
0000
0001
0100
0000
0010
0100
0000
0001
0000
1000
0010
0000
0100
0010
0000
,  // measure 39
0100
0000
0010
1000
0000
0100
1000
0000
1100
0000
0000
1001
0000
0000
1010
0000
,  // measure 40
1000
0000
1000
0010
0000
0010
0100
0000
0100
0001
0000
0001
,  // measure 41
1000
0000
0000
0000
1000
0000
0100
0000
0000
0000
0100
0000
0001
0000
0000
0000
0001
0000
0100
0000
0000
1000
0000
0000
,  // measure 42
0001
0000
0001
0100
0000
0100
0010
0000
0010
0001
0000
0001
,  // measure 43
0010
0000
0000
0000
0000
0000
0000
0000
0010
0000
0000
0000
1000
0000
0000
0000
0000
0000
0000
0000
1000
0000
0000
0000
0001
0000
0000
0000
0000
0000
0000
0000
0000
0001
0000
0000
0010
0000
0000
0100
0000
0000
1000
0000
0000
0000
0000
0000
,  // measure 44
0010
0000
0000
0000
0010
0000
1000
0000
0000
0000
1000
0000
0001
0000
0000
0100
0000
0000
1000
0000
0000
0000
1000
0000
,  // measure 45
0100
0000
0000
0000
0100
0000
0001
0000
0000
0000
0001
0000
1000
0000
0000
0100
0000
0000
0001
0000
0000
0001
0000
0000
,  // measure 46
0100
0000
0100
1000
0000
1000
0010
0000
0010
0100
0000
0100
,  // measure 47
0001
0000
0001
0000
1000
0000
1000
0000
1100
0000
0000
0110
0000
0000
0011
0000
,  // measure 48
1000
0000
0001
0000
0100
0000
0010
0000
1000
0000
0001
0000
0101
0000
0000
0100
,  // measure 49
0001
1000
0010
0100
0001
1000
1100
0100
,  // measure 50
1000
0010
0100
0010
0001
0010
0100
0010
,  // measure 51
1000
0000
0100
0000
0010
0000
0001
0000
1000
0000
0000
0001
0100
0001
0100
0000
,  // measure 52
1000
0100
0001
0010
1000
0010
0001
0001
,  // measure 53
1000
0010
0100
0001
1000
0100
1000
1000
,  // measure 54
0010
1000
0100
0000
1100
0000
0101
0000
,  // measure 55
0011
0000
0000
0000
1010
0000
0000
0000
1001
0000
0000
0110
0000
0000
1001
0000
,  // measure 56
1000
0100
0001
0100
1000
0100
0001
0100
,  // measure 57
1000
0100
0001
0100
1000
0100
0001
0100
,  // measure 58
1000
0010
0001
0010
1000
0010
0001
0010
,  // measure 59
1000
0000
0010
0000
0001
0000
0010
0000
1000
0000
0000
0100
0000
0000
0010
0000
,  // measure 60
0001
0100
1000
0100
0001
0100
1000
0100
,  // measure 61
0001
0010
1000
0010
0001
0010
1000
0010
,  // measure 62
0001
0010
0100
1000
0001
0100
0010
1000
,  // measure 63
0200
0000
0000
0000
0000
0000
0300
0000
0110
0000
0000
0011
0000
0000
1100
0000
,  // measure 64
1000
0000
0001
0010
0000
0001
0200
0000
0010
0000
0000
0000
2300
0000
0000
0000
,  // measure 65
3100
0000
0001
1000
0000
0100
2000
0000
0100
0000
0000
0000
0010
0000
3010
0000
,  // measure 66
0100
0000
0001
0100
0000
0010
2000
0000
0100
0000
3200
0000
0010
0000
0320
0000
,  // measure 67
0001
0000
0032
0000
0100
0000
0103
0000
0010
0000
0000
0010
1000
0001
0100
0000
,  // measure 68
1000
0000
0100
0001
0000
0100
0001
0000
1000
0000
0100
0000
0210
0000
0000
0000
,  // measure 69
0310
0000
0001
1000
0000
0001
1000
0000
0100
0000
1000
0000
2100
0000
0100
0000
,  // measure 70
3100
0000
0010
0100
0000
0010
0002
0000
0100
0000
0203
0000
1000
0000
2300
0000
,  // measure 71
0100
0000
3200
0000
0010
0000
0310
0000
1010
0000
0000
0110
0000
0000
0101
0000
,  // measure 72
0001
0000
1000
0100
0000
1000
0001
0000
1000
0000
0001
0100
0000
0001
1000
0000
,  // measure 73
0100
0000
0010
0001
0000
0010
0100
0000
1000
0000
0010
0100
0000
0001
0100
0000
,  // measure 74
0010
0000
1000
0001
0000
0100
0001
0000
0010
0000
0001
1000
0000
0100
1000
0000
,  // measure 75
0001
0000
0100
0010
0000
0100
0010
0000
1010
0000
0000
0010
1000
0001
0100
0000
,  // measure 76
0001
0000
0010
1000
0000
0010
0100
0000
1000
0000
0010
0001
0000
0010
0100
0000
,  // measure 77
0001
0000
1000
0100
0000
0010
0001
0000
1000
0000
0001
0100
0000
0010
1000
0000
,  // measure 78
0001
0000
0100
0010
0000
0100
1000
0000
0001
0000
0010
0100
0000
0010
1000
0000
,  // measure 79
0001
0000
0100
0010
0000
0100
0010
0000
1010
0000
0000
1001
0000
0000
0101
0000
;

//---------------dance-single - ----------------
#NOTES:
     dance-single:
     :
     Medium:
     6:
     0.390113,0.445147,0.062697,0.278652,0.087079,392.000000,383.000000,9.000000,40.000000,0.000000,0.000000,0.390113,0.445147,0.062697,0.278652,0.087079,392.000000,383.000000,9.000000,40.000000,0.000000,0.000000:
// measure 0
0000
0000
0000
0000
,  // measure 1
0000
0000
0000
0000
,  // measure 2
0000
0000
0000
0000
,  // measure 3
0000
0000
0000
0000
,  // measure 4
0000
0000
0000
0000
,  // measure 5
0000
0000
0000
0000
,  // measure 6
0000
0000
0000
0000
,  // measure 7
0000
0000
0000
0000
,  // measure 8
1000
0000
0000
1000
0000
0000
2000
0000
0000
0000
0000
0000
0100
0000
0000
0000
,  // measure 9
3001
0000
0000
0001
0000
0000
0002
0000
0000
0000
0000
0000
0100
0000
0000
0000
,  // measure 10
1003
0000
0000
1000
0000
0000
2000
0000
0000
0000
0000
0000
0010
0000
0000
0000
,  // measure 11
0000
0010
0000
3010
,  // measure 12
0100
0000
0000
0100
0000
0000
0200
0000
0000
0000
0000
0000
0001
0000
0000
0000
,  // measure 13
0310
0000
0000
0010
0000
0000
0020
0000
0000
0000
0000
0000
1000
0000
0000
0000
,  // measure 14
0130
0000
0000
0100
0000
0000
0200
0000
0000
0000
0000
0000
0010
0000
0000
0000
,  // measure 15
0000
0000
0000
0000
0310
0000
0000
0000
1000
0000
0000
1000
0000
0000
1000
0000
,  // measure 16
0001
0000
0000
0010
0000
0000
0200
0000
0000
0000
0000
0000
1300
0000
0000
0000
,  // measure 17
0001
0000
0000
0100
0000
0000
0020
0000
0000
0000
0000
0000
1030
0000
0000
0000
,  // measure 18
0100
0000
0000
0010
0000
0000
0002
0000
0000
0000
1000
0000
0000
0000
1000
0000
,  // measure 19
0000
0100
0000
0100
0000
0100
0000
0103
,  // measure 20
0010
0000
0000
0100
0000
0000
0002
0000
0000
0000
0000
0000
1003
0000
0000
0000
,  // measure 21
0100
0000
0000
0010
0000
0000
0002
0000
0000
0000
0000
0000
1003
0000
0000
0000
,  // measure 22
0010
0000
0000
0100
0000
0000
0020
0000
0000
0000
1000
0000
0000
0000
1000
0000
,  // measure 23
0000
1000
0000
1000
0000
1000
0000
1030
,  // measure 24
0100
0010
0001
0000
0100
0010
0001
0000
,  // measure 25
0010
1000
0010
1000
0100
1000
0100
0000
,  // measure 26
0001
0100
1000
0000
0001
0100
1000
0000
,  // measure 27
0100
0001
0100
0001
0010
0001
0010
0000
,  // measure 28
1001
0000
0001
1000
0000
0010
0000
0100
,  // measure 29
0001
1000
0100
0000
0020
0000
0031
0000
,  // measure 30
0100
0000
1000
0100
0000
0001
0000
1000
,  // measure 31
0010
0000
1000
0000
0010
0000
0000
0000
0100
0000
0000
0100
0000
0000
0100
0000
,  // measure 32
0001
0010
0001
0010
0001
0100
0010
0000
,  // measure 33
1000
0100
1000
0100
1000
0010
0100
0000
,  // measure 34
0010
1000
0010
1000
0001
0010
0100
0000
,  // measure 35
0010
0001
0010
0001
1000
0010
0100
0000
,  // measure 36
0101
0000
0001
0000
1000
0100
0010
0000
,  // measure 37
0001
0100
0010
0000
2000
0000
3001
0000
,  // measure 38
0200
0000
0310
1000
0000
1000
0000
1000
,  // measure 39
0100
0010
0001
0000
2002
0000
3003
0000
,  // measure 40
0101
0000
0001
1000
0100
0000
0100
1000
,  // measure 41
0001
0000
1000
0000
0010
0100
0010
0100
,  // measure 42
0001
0000
0010
0001
0100
0000
0100
0001
,  // measure 43
0010
0000
0100
0000
1000
0010
1000
0010
,  // measure 44
1000
0001
0100
0010
2000
0000
3001
0000
,  // measure 45
1000
0010
0100
0001
2000
0000
3001
0000
,  // measure 46
0010
0001
0010
0000
0100
1000
0100
0000
,  // measure 47
1000
0001
1000
0001
1001
0000
0110
0000
,  // measure 48
0100
0001
0100
0000
0010
1000
0010
0000
,  // measure 49
1000
0100
1000
0000
0001
0010
0001
0000
,  // measure 50
1000
0100
1000
0100
1000
0001
1000
0001
,  // measure 51
0100
0000
0100
0000
0010
1000
0100
0010
,  // measure 52
0001
0000
0100
0000
0010
1000
0010
0000
,  // measure 53
0100
0000
0001
0000
1000
0100
1000
0000
,  // measure 54
0001
0010
0001
0000
2000
0000
3020
0000
,  // measure 55
0230
0301
0202
0303
,  // measure 56
0001
0010
0100
0000
0001
0010
0100
0000
,  // measure 57
0001
1000
0010
0000
0001
1000
0010
0000
,  // measure 58
1000
0100
0010
0000
1000
0100
0010
0000
,  // measure 59
0100
0000
1000
0000
0001
0000
0000
0000
0100
0000
0000
0100
0000
0000
0100
0000
,  // measure 60
0001
0010
1000
0000
0001
0010
1000
0000
,  // measure 61
1000
0100
0001
0000
1000
0100
0001
0000
,  // measure 62
0001
0010
1000
0000
1000
0100
0001
0000
,  // measure 63
1001
0000
0000
0000
0000
0000
0000
0000
0010
0000
0000
0010
0000
0000
0010
0000
,  // measure 64
0100
0000
0000
0001
0000
0000
2000
0000
0000
0000
0000
0000
3100
0000
0000
0000
,  // measure 65
0010
0000
0000
0001
0000
0000
0200
0000
0000
0000
0000
0000
0310
0000
1000
0000
,  // measure 66
0010
0000
0000
0100
0000
0000
0002
0000
0000
0000
0023
0000
0000
0000
0230
0000
,  // measure 67
0000
2300
0000
3020
0000
0230
0000
0301
,  // measure 68
1000
0000
0000
0100
0000
0000
0020
0000
0000
0000
0000
0000
0031
0000
0000
0000
,  // measure 69
1000
0000
0000
0010
0000
0000
0200
0000
0000
0000
0000
0000
0301
0000
0000
0000
,  // measure 70
0010
0000
0000
0100
0000
0000
2000
0000
0000
0000
3002
0000
0000
0000
0023
0000
,  // measure 71
0000
0000
0230
0000
0000
0000
1300
0000
0001
0000
0000
1000
0000
0000
1000
0000
,  // measure 72
0001
1000
0100
0000
1000
0001
0100
0000
,  // measure 73
1000
0100
0001
0000
1000
0100
0001
0001
,  // measure 74
0100
1000
0010
0000
0100
0001
0010
0000
,  // measure 75
0100
0000
1000
0000
0010
0000
0000
0000
1010
0000
0000
0010
1000
0000
1000
0000
,  // measure 76
0001
0010
1000
0000
0001
0100
1000
0000
,  // measure 77
0001
0100
1000
0000
0001
0010
1000
1000
,  // measure 78
0001
0010
0100
0000
1000
0001
0100
0000
,  // measure 79
0010
0000
1000
0000
0100
0000
0000
0000
0020
0000
0000
0032
0000
0000
0103
0000
;

//---------------dance-single - ----------------
#NOTES:
     dance-single:
     :
     Easy:
     3:
     0.248797,0.278217,0.048764,0.264720,0.000000,250.000000,243.000000,7.000000,38.000000,0.000000,0.000000,0.248797,0.278217,0.048764,0.264720,0.000000,250.000000,243.000000,7.000000,38.000000,0.000000,0.000000:
// measure 0
0000
0000
0000
0000
,  // measure 1
0000
0000
0000
0000
,  // measure 2
0000
0000
0000
0000
,  // measure 3
0000
0000
0000
0000
,  // measure 4
0000
0000
0000
0000
,  // measure 5
0000
0000
0000
0000
,  // measure 6
0000
0000
0000
0000
,  // measure 7
0000
0000
0000
0000
,  // measure 8
2000
0000
0000
3000
,  // measure 9
0002
0000
0000
0003
,  // measure 10
0200
0000
0000
0010
,  // measure 11
0000
0010
0000
0310
,  // measure 12
0002
0000
0000
0003
,  // measure 13
2000
0000
0000
3000
,  // measure 14
0020
0000
0000
0100
,  // measure 15
0000
0130
0220
0330
,  // measure 16
0010
1000
0200
0300
,  // measure 17
0010
0001
0200
0300
,  // measure 18
1000
0100
0002
0000
,  // measure 19
2003
0000
3100
0100
,  // measure 20
0010
0001
0200
0300
,  // measure 21
0010
1000
0200
0300
,  // measure 22
0001
0100
2000
0000
,  // measure 23
0001
0001
0001
3001
,  // measure 24
1000
1000
0001
0000
,  // measure 25
0100
0100
0001
0000
,  // measure 26
1000
0010
0001
0010
,  // measure 27
1000
0001
1000
0000
,  // measure 28
0001
0010
0001
0010
,  // measure 29
0100
0100
0100
0000
,  // measure 30
1000
0010
1000
0010
,  // measure 31
0100
0100
0220
0330
,  // measure 32
1000
0100
0001
0000
,  // measure 33
0001
0100
1000
0000
,  // measure 34
1000
0001
1000
0001
,  // measure 35
0100
0010
1000
0000
,  // measure 36
0001
0010
0001
0100
,  // measure 37
0010
0010
0010
0000
,  // measure 38
1000
0100
1000
0010
,  // measure 39
0100
0100
0220
0330
,  // measure 40
0010
1000
0001
1000
,  // measure 41
0100
0100
0010
0010
,  // measure 42
0001
1000
0001
0010
,  // measure 43
0100
0100
0010
0010
,  // measure 44
0001
1000
0020
0030
,  // measure 45
0100
0001
2000
3000
,  // measure 46
0100
1000
0010
0100
,  // measure 47
0001
0010
0001
0001
,  // measure 48
1000
0100
0010
0010
,  // measure 49
0001
0100
0010
0010
,  // measure 50
1000
0001
1000
0001
,  // measure 51
0100
0010
0100
0010
,  // measure 52
1000
1000
0001
0100
,  // measure 53
0001
0001
1000
0100
,  // measure 54
0010
0010
0100
0100
,  // measure 55
0010
0010
0220
0330
,  // measure 56
0010
0010
0001
0001
,  // measure 57
0100
0100
1000
1000
,  // measure 58
0010
0010
1000
1000
,  // measure 59
0100
0100
0001
0001
,  // measure 60
0010
1000
0010
0001
,  // measure 61
0100
1000
0100
0001
,  // measure 62
0010
0100
1000
0001
,  // measure 63
2002
0000
0000
3003
,  // measure 64
0001
0010
0200
1300
,  // measure 65
0001
0100
0020
1030
,  // measure 66
0100
0010
0002
2003
,  // measure 67
3020
0230
0302
1003
,  // measure 68
0001
0010
0200
1300
,  // measure 69
0010
1000
0200
0310
,  // measure 70
0001
1000
0001
1000
,  // measure 71
0001
1000
2002
3003
,  // measure 72
0001
0001
1000
1000
,  // measure 73
0001
0001
1000
1000
,  // measure 74
0010
0010
0100
0100
,  // measure 75
0010
0010
0100
0100
,  // measure 76
0001
0010
0100
0010
,  // measure 77
0001
0100
1000
0100
,  // measure 78
0010
1000
0100
1000
,  // measure 79
0001
0000
0010
0000
0220
0000
0000
0330
;
