#TITLE:Gekiai Merry-Go-Round;
#SUBTITLE:;
#ARTIST:Psycho le Cemu;
#TITLETRANSLIT:;
#SUBTITLETRANSLIT:;
#ARTISTTRANSLIT:;
#GENRE:J-ROCK;
#CREDIT:;
#MENUCOLOR:;
#NEWMETERSYSTEM:NO;
#BANNER:Gekiai Merry-Go-Round.png;
#BACKGROUND:Gekiai Merry-Go-Round-bg.png;
#LYRICSPATH:;
#CDTITLE:CDTitle.png;
#MUSIC:Gekiai Merry-Go-Round.ogg;
#OFFSET:0.000;
#SAMPLESTART:86.808;
#SAMPLELENGTH:12.800;
#SELECTABLE:YES;
#LISTSORT:;
#BPMS:0.000=152.005,220.000=151.605;
#STOPS:;
#BGCHANGES:;
#ATTACKS:;

//---------------dance-single - DDRDAIKENKAI----------------
#NOTES:
     dance-single:
     DDRDAIKENKAI:
     Challenge:
     10:
     0.849,0.934,0.295,0.398,0.663:
0000
0000
0000
0000
,
0000
0000
0000
0000
,
1001
0000
0001
1000
0001
0100
0010
0000
0100
0000
0010
1000
0100
1000
0010
0000
,
0100
0000
0001
0010
0100
1000
0100
0000
0010
0000
0001
0100
0010
1000
0100
0010
,
0001
0000
0000
0001
1000
0000
0100
0000
1000
0000
0010
0100
0010
0000
1000
0000
,
0001
0000
0010
0000
0100
0000
1000
0010
1000
0000
0100
0000
0010
0000
0000
0000
,
0001
0000
0000
1000
0001
0000
0010
0000
1000
0000
0010
0001
0010
0000
0001
0000
,
0100
0000
0010
0000
1000
0000
0100
1000
0100
0000
0010
0000
0001
0000
0000
0000
,
1001
0000
0000
1000
0010
0000
0100
0000
0001
0000
1000
0100
1000
0000
0001
0000
,
0010
0000
0001
0000
0100
0000
0010
1000
0010
0000
0100
0000
0001
0000
1000
0000
,
1000
0000
0000
0100
0010
0000
0001
0000
0100
0000
0010
0000
1000
0000
0000
1000
,
0010
0000
0000
0010
0001
0000
0000
0001
0010
0000
1000
0000
0001
0000
1000
0000
,
1001
0000
0001
0000
1000
0000
0100
0000
1000
0000
0001
0000
0100
0010
0100
0010
,
1000
0000
0001
0000
1000
0000
0010
0000
0100
0000
0001
0000
0010
0100
0010
0100
,
0010
0000
0001
0000
0100
0000
0010
0000
2000
0000
0000
3001
0000
0000
0010
0000
,
0200
0000
1300
0001
0100
0010
0110
0000
,
0010
0000
1000
0000
0100
0000
1000
0000
0010
0000
0100
0000
0001
1000
0001
1000
,
0001
0000
0100
0000
0010
0000
1000
0000
0100
0000
0010
0000
0001
0100
0001
0100
,
0001
0000
0010
0000
0100
0000
1000
0000
0020
0000
0000
0032
0000
0000
0013
0000
,
1000
0001
0100
0010
1000
0001
1001
0000
,
1001
0000
0001
0000
0100
0000
0010
0000
0100
0000
0001
0000
0010
0100
0010
0100
,
0010
0000
0001
0000
0010
0000
1000
0000
0010
0000
0001
0000
0100
0001
0100
0001
,
0100
0000
0001
0000
1000
0000
0010
0000
0001
0000
0010
0000
1000
0100
1000
0100
,
1000
0000
0110
0000
0101
0000
0001
1000
,
0100
0000
0000
0000
1200
0000
0000
0000
0310
0000
0001
0100
0001
0000
0010
0000
,
0100
0000
1000
0000
0010
0000
0100
0001
0100
0000
0010
0000
1000
0000
0001
0000
,
0000
0000
1000
0000
0100
0000
1000
0000
0002
0000
0000
0103
0000
0000
0010
0000
,
1000
0000
0100
0000
0010
0000
0001
0010
0100
0000
1000
0000
0001
0000
1000
0000
,
0004
0400
0000
0000
0000
0000
0000
0000
0000
0000
0000
0000
0000
0000
0000
0003
,
0301
0000
0001
0000
0010
0000
0000
0000
0100
0010
0100
0010
0100
1000
0100
0000
,
1000
0010
0000
0010
1000
0100
1000
0010
0100
0001
0100
0001
0100
0010
1000
0000
,
0001
0100
0000
0100
0001
1000
0000
1000
0001
0000
0010
0000
1000
0000
0010
0000
,
0001
0000
1000
0100
1000
0010
1000
0100
0010
0100
1000
0100
2000
0000
3000
0000
,
1001
0000
0001
1000
0100
1000
0100
0010
0001
0010
0100
1000
0001
0100
0010
0000
,
0110
0000
0010
1000
0100
1000
0010
0100
0001
0010
0100
1000
0010
0100
0001
0000
,
1001
0000
0001
1000
0000
1000
0001
0000
1000
0100
1000
0001
0010
0001
0010
0001
,
1000
0100
1000
0010
0100
0000
0100
0001
0010
0001
1000
0000
2002
0000
3003
0000
,
2001
0000
0001
3000
0001
0100
0000
0100
0010
0000
0010
2000
0000
0000
3001
0000
,
1000
0000
0100
0000
0100
0010
0000
0010
0100
0000
0100
2000
0000
0000
3001
0000
,
0010
0000
0001
0000
0001
0100
0000
0100
0010
0000
0010
2000
0000
0000
3001
0000
,
1000
0000
0010
0000
0010
1000
0000
1000
0001
0000
0001
2000
0000
0000
3100
0000
,
0110
0000
0100
0000
1000
0010
0000
1000
0001
0000
1000
0200
0000
0000
0310
0000
,
0001
0000
0100
0000
0010
0100
0000
0001
0010
0000
0001
2000
0000
0000
3001
0000
,
0201
0000
0001
0300
0001
0010
0000
0010
0100
0000
0100
2000
0000
0000
3010
0000
,
0110
0000
0010
0000
0010
1000
0000
1000
0001
0000
0001
0100
0000
0100
0010
0000
,
0110
0000
0010
1000
0010
0100
0001
0000
0100
0001
0100
0010
1000
0000
0010
0000
,
0110
0000
0010
1000
0100
1000
0010
0000
0100
0001
0010
0001
0100
0000
0010
0000
,
0110
0000
0000
0010
1000
0000
0000
0100
1000
0000
0000
0001
0100
0001
0100
0001
,
0100
0000
0000
0010
1000
0000
0000
0100
0010
0000
0000
0001
1000
0100
1000
0100
,
1000
0101
1010
1001
,
0110
0000
1100
0000
0010
0001
0010
0100
,
1000
0000
0000
0001
0100
0010
0100
0000
0010
0000
0000
1000
0100
0000
1000
0000
,
1100
0000
1010
0000
0110
0000
0010
0010
,
2000
0000
0000
3100
0000
0010
0001
0000
0100
0000
0001
0000
0010
0100
0010
0000
,
0001
0000
1000
0000
0010
0100
0010
0000
1000
0000
0001
0000
0100
0010
0100
0000
,
0110
0000
0010
0000
1000
0000
0100
0000
2000
0000
0000
3010
0000
0000
0001
0000
,
0010
0000
0100
0000
0001
0000
0010
0000
0200
0000
0000
1300
0000
0000
0010
0000
,
1000
0100
0010
0100
0001
0100
1000
0100
,
0001
0100
0010
0001
0101
0100
0110
0010
,
1001
0000
0000
1000
0100
0000
1000
0000
0020
0000
0000
0000
0032
0000
0000
0000
,
0013
1000
0100
1000
0010
1000
0002
0000
,
1003
0001
0100
1000
0010
1000
0100
0001
,
1002
0000
0203
0000
0301
0100
1000
0100
,
0020
0000
0000
1030
0100
0000
0001
0000
0100
0000
0010
0000
0100
0000
1000
0000
,
0002
0000
0000
1003
0010
0000
0100
0000
0010
0000
0001
0000
0010
0000
0100
0000
,
0001
0000
0000
0001
1000
0000
0100
0000
0001
0000
0100
0000
0010
0000
0100
0000
,
1000
0001
0100
0100
0001
1000
0100
1000
,
0200
0000
0000
0310
0001
0000
0100
0000
0010
0000
1000
0000
0010
0000
0110
0000
,
0000
0001
1000
1100
0000
1000
0001
1001
,
0001
0010
0001
0010
0100
0010
0100
0010
0100
1000
0100
1000
0010
1000
0010
1000
,
0010
0100
0010
0100
0001
0100
0001
0100
0002
0000
0203
0000
0320
0000
2030
0000
,
3020
0000
0000
0032
0000
0000
1003
0000
0200
0000
0000
0302
0000
0000
1000
0003
,
0020
0000
0000
0032
0000
0000
0023
0000
2030
0000
0000
3002
0000
0000
0103
0000
,
0010
1000
0010
1000
0100
1000
0100
1000
0010
1000
0001
1000
0010
1000
0100
1000
,
0001
1000
0010
1000
0001
1000
0100
1000
0200
0000
0302
0000
0203
0000
0310
0000
,
0120
0000
0000
0031
0100
0000
0010
0000
1000
0000
0100
1000
0100
0000
1000
0000
,
0010
0000
1000
0000
0100
0000
0010
0001
0100
0000
0001
0000
0010
0000
0100
0000
,
2000
0000
0000
3100
0000
0000
0100
0000
0010
0000
0100
0000
1000
0000
0000
1000
,
0010
0000
0000
0010
0001
0000
0000
0001
0100
0000
1000
0000
0100
0000
0010
0000
,
0400
0000
0000
0000
,
0310
0000
0000
0000
0002
0000
0000
0000
1003
0000
0001
1000
0200
0000
0000
0000
,
0310
0000
0001
0000
0100
0000
0010
1000
0100
0000
1000
0000
0001
0000
0000
0000
,
0101
0000
0000
0000
1001
0000
0000
0000
0100
0000
1000
0001
0100
0000
0000
0000
,
2020
0000
0000
0000
,
0000
0000
3030
0000
;

//---------------dance-single - DDRDAIKENKAI----------------
#NOTES:
     dance-single:
     DDRDAIKENKAI:
     Hard:
     8:
     0.664,0.716,0.236,0.567,0.144:
0000
0000
0000
0000
,
0000
0000
0000
0000
,
1002
0000
0000
0000
0203
0000
0000
0000
0310
0000
1000
0001
0200
0000
0300
0000
,
1001
0000
0001
0000
1000
0000
0010
1000
0200
0000
1000
0000
2300
0000
3000
0000
,
1002
0000
0013
0000
1000
0010
0002
0000
,
1003
0001
0100
0001
0100
0010
1000
0010
,
1000
0000
0000
0001
0000
0000
1000
0000
0001
0000
1000
0000
0200
0000
0000
0000
,
0310
0000
0000
0001
0000
0000
0010
0000
0001
0000
0100
0000
0010
0000
0100
0000
,
0120
0000
1030
0000
0010
0100
0001
0010
,
0020
0000
0031
0100
0200
0000
0301
0010
,
0020
0000
0000
0031
0000
0000
1000
0000
0100
0000
0010
0000
0002
0000
0000
0000
,
0023
0000
0230
0000
1300
0001
0100
0010
,
1010
0000
0010
0000
1000
0000
0100
0000
0010
0000
0001
1000
0000
0000
0000
0000
,
0001
0000
0100
0000
0001
0000
0010
0000
0100
0000
1000
0001
0000
0000
0000
0000
,
1000
0000
0010
0000
0100
0000
0001
0000
0010
0000
0000
0010
0000
0000
0001
0000
,
2000
0000
3100
0001
0100
1000
1001
0000
,
1000
0000
0100
0000
1000
0000
0100
0000
1000
0000
0010
0100
0000
0000
0000
0000
,
0001
0000
0010
0000
0001
0000
0010
0000
0001
0000
0100
0010
0000
0000
0000
0000
,
1000
0000
0001
0000
1000
0000
0001
0000
2000
0000
0000
3010
0000
0000
0100
0000
,
0002
0010
0100
1003
,
0001
0010
0001
0010
0100
1000
0010
1000
,
0001
1000
0100
0010
0100
1000
0100
1000
,
0000
0000
1000
0000
0001
0000
0100
0000
0010
0000
0000
1000
0000
0000
0100
0000
,
0020
0000
0032
0000
0203
0000
0320
0100
,
0230
0000
0310
0000
0000
0010
1000
0100
,
2000
0000
3001
0000
0001
0010
0001
0010
,
0000
0000
0010
0000
0100
0000
1000
0000
0001
0000
0000
0100
0000
0000
0010
0000
,
2000
0000
0100
0000
0010
0000
3001
1000
,
2002
0000
0000
3003
,
1001
0100
0010
0000
0010
0001
0100
0001
,
0010
0100
1000
0000
1000
0001
0100
0010
,
1000
0000
0000
1000
0100
0000
0000
0100
1000
0000
0010
0000
0001
0000
0010
0000
,
1000
0000
0100
0000
0001
0000
0100
0000
1000
0001
1000
0001
0100
0000
0000
0000
,
0110
0001
1000
0010
0100
0001
1000
0000
,
1001
0001
1000
0001
0100
0010
1000
0000
,
1001
0100
1000
0010
0100
0001
0010
0100
,
1100
0000
0100
0000
0010
0000
0001
0000
1000
0001
1000
0000
2002
0000
3003
0000
,
0110
0000
0000
0000
0020
0000
0000
0000
1030
0000
0100
1000
0200
0000
0000
0000
,
0310
0000
0001
0000
0100
0000
0001
1000
0002
0000
0100
0000
0103
0000
0000
0000
,
0010
0000
0000
0000
1200
0000
0000
0000
1300
0000
0001
0010
0002
0000
0000
0000
,
0103
0000
0010
0000
1000
0000
0100
1000
0200
0000
0010
0000
0310
0000
0000
0000
,
0011
0000
0000
0000
2100
0000
0000
0000
3001
0000
0100
0010
0200
0000
0000
0000
,
0301
0000
0010
0000
0001
0000
0100
0010
0200
0000
0001
0000
0301
0000
0000
0000
,
2010
0000
0000
0000
0001
0000
0000
0000
3100
0000
0010
0001
0010
0000
0000
0000
,
0001
0000
1000
0000
0010
0000
0100
0001
0100
0000
0010
0000
1000
0000
0100
0000
,
0110
0000
0011
0100
0000
1010
0100
0000
,
1001
0000
0110
1000
0000
1001
1001
0000
,
0101
0000
0001
0000
0100
0000
0010
0000
2000
0000
0000
3001
0000
0000
1000
0000
,
0010
0000
0100
0000
0010
0000
0100
0000
0002
0000
0000
1003
0000
0000
0100
0000
,
0010
0001
0010
0001
0100
0000
0100
0010
,
0000
0010
1000
0001
0010
0001
0100
0000
,
0100
0001
0010
0100
1000
0001
0000
1000
,
0020
0000
0230
0000
0302
0000
1003
0100
,
0020
0000
0000
0001
0000
0000
0001
0000
0031
0000
0100
0000
0010
0000
1000
0000
,
0200
0000
1300
0010
2000
0100
3100
0010
,
0110
0000
0100
0000
1000
0000
0010
0000
0200
0000
0000
0301
0000
0000
0010
0000
,
1000
0000
0010
0000
0001
0000
0100
0000
0020
0000
0000
1030
0000
0000
0100
0000
,
0010
0001
0010
0001
0100
0010
0100
0010
,
1000
0100
0001
0100
2000
0001
3001
0000
,
0102
0000
0103
0000
0010
1000
0100
0000
,
1000
0100
0001
0000
0100
0001
0010
0000
,
0001
0010
1000
0000
0010
1000
0100
0000
,
2002
0000
3000
0000
1003
0100
0001
0100
,
0020
0000
0001
0000
0031
0100
0010
1000
,
0020
0000
0130
0000
0001
0010
1000
0010
,
0200
0000
1300
0000
0010
1000
0001
0100
,
0010
0100
0001
0000
0001
0010
1000
0010
,
0200
0000
1000
0000
1300
0001
0100
0010
,
0000
0010
1000
0010
0000
0010
0001
0010
,
1000
0100
1000
0100
0010
0100
1000
0100
,
0010
0100
0010
0001
0010
0100
0010
0001
,
2000
0000
0000
3001
0000
0000
0100
0000
0020
0000
0000
1030
0000
0000
0100
0000
,
0020
0000
0000
0031
0000
0000
2000
0000
3001
0000
0000
0200
0000
0000
0301
0000
,
0010
0001
0100
0001
1000
0001
0100
1000
,
0100
0001
0100
1000
0100
0001
0010
0100
,
2000
0010
0010
3010
,
0200
0000
0301
0020
0000
1030
0010
0001
,
0100
0000
0000
0010
0000
0000
1000
0000
0100
0000
0010
0000
0002
0000
0000
0000
,
2003
0000
3020
0000
0130
0001
0010
0100
,
2200
0000
0000
3300
,
1002
0000
0000
0000
0203
0000
0000
0000
0310
0000
1000
0001
0200
0000
0000
0000
,
0301
0000
1000
0000
0001
0000
0010
0001
0200
0000
0000
0000
0301
0000
0000
0000
,
1000
0000
0000
0000
0200
0000
0000
0000
0310
0000
0001
1000
0001
0000
0000
0000
,
2200
0000
0000
0000
,
0000
0000
3300
0000
;

//---------------dance-single - DDRDAIKENKAI----------------
#NOTES:
     dance-single:
     DDRDAIKENKAI:
     Medium:
     6:
     0.499,0.560,0.155,0.575,0.000: // measure 1
0000
0000
0000
0000
,  // measure 2
0000
0000
0000
0000
,  // measure 3
0000
0000
0000
0000
,  // measure 4
0000
0000
0000
0000
,  // measure 5
2000
0000
0001
0000
3001
0100
0010
0000
,  // measure 6
1000
0100
1000
1000
0001
0010
0001
0000
,  // measure 7
2000
0000
3002
0000
1003
0001
0100
0000
,  // measure 8
0020
0000
2030
0000
3100
0010
0001
0000
,  // measure 9
1002
0000
2003
0000
3002
0000
1003
0001
,  // measure 10
0200
0000
0301
1000
0200
0000
1300
0001
,  // measure 11
0200
0000
0310
0000
1000
0100
0020
0000
,  // measure 12
0032
0000
0023
0000
0130
1000
0100
1000
,  // measure 13
0001
0000
0001
0000
1000
0100
1000
0000
,  // measure 14
0010
0000
0010
0000
0100
0001
0100
0000
,  // measure 15
0010
0000
1000
1000
0100
0000
0010
0010
,  // measure 16
0002
0000
0100
0100
0200
0000
0303
0000
,  // measure 17
0010
0000
1000
0000
0001
0100
0001
0000
,  // measure 18
1000
0000
0100
0000
1000
0010
1000
0000
,  // measure 19
0010
0000
1000
0100
0010
0000
0010
0001
,  // measure 20
2000
0001
0200
3300
,  // measure 21
0001
0000
0010
0000
0100
1000
0010
0000
,  // measure 22
0100
0001
0010
0000
0100
1000
0010
0000
,  // measure 23
1000
0000
0100
0000
0010
0001
0100
0000
,  // measure 24
0020
2030
3200
0320
,  // measure 25
0230
0000
0300
0000
0000
1000
0001
1000
,  // measure 26
0002
0000
0003
0000
0001
1000
0001
0000
,  // measure 27
1000
0000
0100
0000
0010
0000
0001
0100
,  // measure 28
0020
1000
0200
0330
,  // measure 29
2002
0000
0000
3003
,  // measure 30
1001
0000
0100
0000
0010
0000
0001
0100
,  // measure 31
0010
0000
1000
0000
0100
0000
0010
0001
,  // measure 32
0100
0000
0001
0000
0010
0000
0100
1000
,  // measure 33
0010
0000
0010
1000
0001
1000
0100
0000
,  // measure 34
0110
0000
0100
1000
0001
0000
1001
0000
,  // measure 35
0101
0000
0001
0100
0010
0000
0110
0000
,  // measure 36
1001
0000
1000
0100
0001
0000
0011
0000
,  // measure 37
1010
1000
1100
0101
,  // measure 38
1001
0000
1000
0000
0100
0010
0001
0000
,  // measure 39
0100
0010
1000
0100
2000
0000
3000
0000
,  // measure 40
0010
0000
0100
0000
0001
0010
0100
0000
,  // measure 41
1000
0010
1000
0100
2000
0000
3000
0000
,  // measure 42
1001
0000
1000
0000
0001
0100
0010
0000
,  // measure 43
1000
0001
0010
0001
0200
0000
0300
0000
,  // measure 44
0110
0000
1000
0000
0001
0010
0100
0000
,  // measure 45
1000
0001
0010
0001
0200
0000
0300
0000
,  // measure 46
0010
0000
0000
1000
0000
0000
0001
0000
,  // measure 47
1000
0000
0000
0100
0000
0010
0010
0000
,  // measure 48
1001
0000
1000
0000
0100
0000
1000
0001
,  // measure 49
0100
0000
0001
0000
1000
0000
0010
1000
,  // measure 50
0001
0001
1000
1000
,  // measure 51
0010
0000
0010
0000
0100
0001
1000
0001
,  // measure 52
0100
0000
0010
0000
1000
0000
0100
0010
,  // measure 53
0002
2003
3020
0130
,  // measure 54
0020
0000
1000
0000
1030
0001
1000
0001
,  // measure 55
0200
0301
2002
3003
,  // measure 56
0001
0010
0100
0000
1000
0000
0001
0000
,  // measure 57
0100
0010
1000
0000
0100
0000
0010
0000
,  // measure 58
0001
1000
0001
0000
1000
0100
1000
0000
,  // measure 59
0010
1000
0010
1000
0002
0000
1003
0000
,  // measure 60
1100
0010
0002
2003
,  // measure 61
3020
0032
0023
2030
,  // measure 62
3002
1003
1100
0010
,  // measure 63
2002
0000
0000
3003
,  // measure 64
0002
0010
0013
0100
,  // measure 65
2000
0010
3010
1000
,  // measure 66
0200
0010
0310
0002
,  // measure 67
2003
0000
3020
0000
1030
0001
1000
0001
,  // measure 68
0200
0000
0310
0000
0000
0010
0100
0001
,  // measure 69
0000
0001
0100
0010
0000
0010
1000
1000
,  // measure 70
0002
0023
2030
3020
,  // measure 71
0230
0000
0320
0000
0130
1000
0100
1000
,  // measure 72
0020
1030
0200
0310
,  // measure 73
0002
1003
0020
1030
,  // measure 74
0001
0100
0001
0000
0001
0010
0001
0000
,  // measure 75
0001
1000
0001
0000
0001
0010
0100
1000
,  // measure 76
0020
1000
0100
0031
,  // measure 77
2000
0100
0010
3001
,  // measure 78
0200
0010
1000
0310
,  // measure 79
0002
0000
2003
0000
3100
0010
0001
2000
,  // measure 80
0002
0000
0000
3003
,  // measure 81
0001
0000
2000
0000
3001
0010
0200
0000
,  // measure 82
1300
0001
0010
0001
0200
0000
0300
0000
,  // measure 83
0010
0000
1000
0000
0100
0010
0001
0000
,  // measure 84
2002
0000
0000
0000
,  // measure 85
0000
0000
3003
0000
;

//---------------dance-single - DDRDAIKENKAI----------------
#NOTES:
     dance-single:
     DDRDAIKENKAI:
     Beginner:
     1:
     0.211,0.311,0.140,0.088,0.000:
0000
0000
0000
0000
,
0000
0000
0000
0000
,
0000
0000
0000
0000
,
0000
0000
0000
0000
,
1001
0000
0000
0000
,
0100
0000
0100
0000
,
0010
0010
0010
0000
,
0010
0010
0010
0000
,
1001
0000
0000
0000
,
0001
0000
0001
0000
,
1000
1000
1000
0000
,
0001
0001
0001
0000
,
0100
0000
0100
0000
,
0010
0000
0010
0000
,
1000
0000
1000
0000
,
0001
0001
0001
0000
,
1000
0000
1000
0000
,
0010
0000
0010
0000
,
0100
0000
0100
0000
,
0001
0001
0001
0000
,
1000
0000
0100
0000
,
0010
0000
0001
0000
,
0100
0000
0010
0000
,
1000
1000
1000
1000
,
2000
3000
0000
0001
,
0001
0000
0100
0000
,
0010
0010
0010
0010
,
0020
0000
0030
0000
,
2002
0000
3003
0000
,
0001
0000
0001
0000
,
1000
0000
1000
0000
,
0010
0000
0010
0000
,
0100
0100
0100
0000
,
0110
0000
1000
0000
,
0110
0000
0010
0000
,
1001
0000
0100
0000
,
0110
0110
0110
0110
,
0000
0100
0000
0001
,
0000
1000
0000
0100
,
0000
1000
0000
0001
,
0000
0100
0000
0010
,
0010
0000
1000
0000
,
0001
0000
0100
0000
,
0110
0000
0100
0000
,
0001
0000
1000
0000
,
2002
0000
0000
0000
,
0000
0000
0000
0000
,
3003
0000
1000
0000
,
0001
0000
0100
0000
,
0010
0000
0010
0000
,
0010
0010
0010
0000
,
0100
0000
0001
0000
,
0010
0000
0100
0000
,
1000
0000
1000
0000
,
1000
1000
1000
0000
,
0001
0001
0001
0000
,
0100
0100
0100
0000
,
0001
0000
1000
0000
,
0100
0000
0010
0000
,
1001
0000
0100
0000
,
0010
0000
0001
0000
,
1000
0000
0001
0000
,
2002
0000
3003
0000
,
0001
0000
1000
0000
,
0010
0000
0100
0000
,
0001
0000
1000
0000
,
0100
0000
0010
0000
,
1001
0000
0100
0000
,
0010
0000
0001
0000
,
1000
0000
0010
0000
,
0100
0000
0001
0000
,
1001
0000
0001
0000
,
0010
0000
0100
0000
,
1000
0000
0010
0000
,
0100
0000
0001
0000
,
1001
0000
0100
0000
,
1000
0000
0001
0000
,
0100
0000
0010
0000
,
1000
1000
1000
0000
,
2002
0000
3003
0000
,
0001
0001
0001
0000
,
0100
0100
0100
0000
,
0010
0000
1000
0000
,
2002
0000
0000
0000
,
0000
0000
0000
0000
0000
0000
0000
0000
0000
0000
0000
0000
0000
0000
0000
0000
0000
0000
0000
0000
0000
0000
0000
0000
0000
0000
0000
0000
0000
0000
0000
0000
0000
0000
0000
0000
0000
0000
0000
0000
0000
0000
0000
0000
0000
0000
0000
0000
0000
0000
0000
0000
0000
0000
0000
0000
0000
0000
0000
0000
0000
0000
0000
0000
0000
0000
0000
0000
0000
0000
0000
0000
0000
0000
0000
0000
0000
0000
0000
0000
0000
0000
0000
0000
0000
0000
0000
0000
0000
0000
0000
0000
0000
0000
0000
0000
0000
3003
0000
0000
0000
0000
0000
0000
0000
0000
0000
0000
0000
0000
0000
0000
0000
0000
0000
0000
0000
0000
0000
0000
0000
0000
0000
0000
0000
0000
0000
0000
0000
0000
0000
0000
0000
0000
0000
0000
0000
0000
0000
0000
0000
0000
0000
0000
0000
0000
0000
0000
0000
0000
0000
0000
0000
0000
0000
0000
0000
0000
0000
0000
0000
0000
0000
0000
0000
0000
0000
0000
0000
0000
0000
0000
0000
0000
0000
0000
0000
0000
0000
0000
0000
0000
0000
0000
0000
0000
0000
0000
0000
0000
0000
0000
;

//---------------dance-single - DDRDAIKENKAI----------------
#NOTES:
     dance-single:
     DDRDAIKENKAI:
     Easy:
     4:
     0.378,0.467,0.140,0.494,0.000: // measure 1
0000
0000
0000
0000
,  // measure 2
0000
0000
0000
0000
,  // measure 3
0000
0000
0000
0000
,  // measure 4
0000
0000
0000
0000
,  // measure 5
2000
0001
0000
3001
,  // measure 6
0001
1000
0001
0100
,  // measure 7
0002
1000
0000
1003
,  // measure 8
0001
1000
0100
0010
,  // measure 9
0002
1000
0000
1003
,  // measure 10
0001
0001
1000
1000
,  // measure 11
0001
0010
0100
1000
,  // measure 12
0020
2030
3200
0320
,  // measure 13
0031
0001
1000
1000
,  // measure 14
0010
0010
0100
0100
,  // measure 15
0010
1000
0100
0010
,  // measure 16
0002
0100
0200
0303
,  // measure 17
0001
0010
0001
0001
,  // measure 18
1000
0010
1000
1000
,  // measure 19
0010
1000
0001
0010
,  // measure 20
0200
0010
0020
0330
,  // measure 21
0001
1000
0100
0010
,  // measure 22
0100
1000
0100
1000
,  // measure 23
0000
1000
0001
0100
,  // measure 24
0020
2030
3200
0320
,  // measure 25
0230
0300
0000
0010
,  // measure 26
0001
0000
0100
0100
,  // measure 27
0010
1000
0100
0010
,  // measure 28
0002
0000
0000
0003
,  // measure 29
2002
0000
0000
3003
,  // measure 30
1001
0001
0001
0001
,  // measure 31
0100
0100
0100
0100
,  // measure 32
0010
0010
0010
0010
,  // measure 33
1000
1000
1000
1000
,  // measure 34
1001
0100
0010
0001
,  // measure 35
1001
0010
0100
1000
,  // measure 36
1001
0100
0010
0001
,  // measure 37
1001
1001
0110
1001
,  // measure 38
0110
0010
1000
1000
,  // measure 39
0010
0100
0001
0001
,  // measure 40
0100
0001
0010
0010
,  // measure 41
0001
1000
0100
0100
,  // measure 42
0110
0100
1000
1000
,  // measure 43
0010
0100
0001
0001
,  // measure 44
1001
0001
0100
0010
,  // measure 45
1000
0100
0010
0001
,  // measure 46
1002
0000
0000
1000
0000
0000
0100
0000
,  // measure 47
0000
0000
1000
0000
0000
0100
0103
0000
,  // measure 48
0001
1000
0001
1000
,  // measure 49
0100
0100
0010
0010
,  // measure 50
0001
1000
0001
0010
,  // measure 51
0001
0001
0100
0100
,  // measure 52
0010
0100
0010
1000
,  // measure 53
0200
0320
0032
2003
,  // measure 54
0002
3003
0000
0100
,  // measure 55
0220
0000
0330
0000
,  // measure 56
0010
1000
0100
0100
,  // measure 57
0010
0001
0100
0100
,  // measure 58
0010
0001
0010
1000
,  // measure 59
0100
0001
0100
0100
,  // measure 60
0220
0330
0020
0032
,  // measure 61
2003
3002
2003
3200
,  // measure 62
2300
3000
0020
0030
,  // measure 63
0220
0000
0000
0330
,  // measure 64
1002
0000
1003
0001
,  // measure 65
0020
0000
0031
1000
,  // measure 66
0200
0000
1300
0001
,  // measure 67
0010
0100
1000
0010
,  // measure 68
0200
0000
0000
0301
,  // measure 69
0002
0003
2000
3000
,  // measure 70
0200
2300
3002
2003
,  // measure 71
3200
0320
0032
0203
,  // measure 72
0320
1030
2000
3001
,  // measure 73
0002
0013
0020
0031
,  // measure 74
0100
0010
1000
0100
,  // measure 75
1000
0010
0100
0001
,  // measure 76
0020
0000
0000
0031
,  // measure 77
0200
0000
0310
0010
,  // measure 78
2000
0000
0100
3100
,  // measure 79
0010
0001
0100
0010
,  // measure 80
0220
0000
0000
0330
,  // measure 81
2000
0000
0100
3100
,  // measure 82
0002
0100
0200
0303
,  // measure 83
0001
1000
0001
1000
,  // measure 84
2002
0000
0000
0000
,  // measure 85
0000
0000
3003
0000
;
