#TITLE:GOTTA GET IT GROOVIN';
#SUBTITLE:(KCP MIX);
#ARTIST:E-ROTIC;
#TITLETRANSLIT:;
#SUBTITLETRANSLIT:;
#ARTISTTRANSLIT:;
#CREDIT:;
#BANNER:GOTTA GET IT GROOVIN' (KCP MIX)-bn.png;
#BACKGROUND:GOTTA GET IT GROOVIN' (KCP MIX)-bg.png;
#LYRICSPATH:;
#CDTITLE:CDTitle.png;
#MUSIC:GOTTA GET IT GROOVIN' (KCP MIX).ogg;
#OFFSET:0.005;
#SAMPLESTART:56.900;
#SAMPLELENGTH:11.300;
#SELECTABLE:YES;
#BPMS:0.000=173.000;
#STOPS:;
#BGCHANGES:;

//---------------dance-single - ----------------
#NOTES:
     dance-single:
     :
     Hard:
     9:
     0.624,0.827,0.263,0.049,0.165: // measure 1
0000
0000
0000
0000
,  // measure 2
0000
0000
0000
0000
,  // measure 3
0000
0000
0000
0000
,  // measure 4
0000
0000
0000
0000
,  // measure 5
0000
0000
0000
0000
,  // measure 6
0000
0000
0000
0000
,  // measure 7
0000
0000
0000
0000
,  // measure 8
0000
0000
0000
0000
,  // measure 9
0001
0010
0001
0100
0010
1000
0100
0000
,  // measure 10
1000
0001
1000
0001
0100
0010
1000
0000
,  // measure 11
0010
0100
0001
0000
0010
0100
1000
0000
,  // measure 12
0001
0010
0001
0010
0001
0100
0001
0000
,  // measure 13
1000
0100
1000
0100
0010
0001
0010
0001
,  // measure 14
1000
0010
0100
0001
0010
0100
1000
0010
,  // measure 15
1000
0000
0001
0100
0000
0000
0000
0000
0001
0000
1000
0000
0100
0000
0000
0000
,  // measure 16
1010
0011
0110
1001
,  // measure 17
0001
0000
0000
1000
0000
0000
0001
0010
0001
0000
0010
0000
0001
0000
0100
0000
,  // measure 18
0101
0000
0001
0000
0010
0000
0100
0000
1000
0000
0000
1000
0000
0000
1000
0000
,  // measure 19
0010
0000
0100
0000
0001
0000
1000
0000
0100
0000
0000
0100
0000
0000
0100
0000
,  // measure 20
1000
0000
0010
0000
0100
0000
0001
0000
0010
0000
0000
0010
0000
0000
0010
0000
,  // measure 21
0001
0000
1000
0000
0010
0000
0100
0000
0001
0000
0000
0001
0000
0000
0001
0000
,  // measure 22
1000
0000
0010
0000
0100
0000
0001
0000
0010
0000
0000
0010
0000
0000
0010
0000
,  // measure 23
0100
0000
1000
0000
0100
0000
0010
0000
0001
0000
0000
0001
0000
0000
0001
0000
,  // measure 24
1000
0010
0100
0000
0001
0010
0100
0000
,  // measure 25
1000
0000
0001
1000
0010
0100
0001
1000
,  // measure 26
0100
1000
0010
0100
0001
0010
0001
0100
,  // measure 27
0010
1000
0100
0001
0100
1000
0010
0100
,  // measure 28
0001
0010
0100
1000
0100
0010
0001
1000
,  // measure 29
0010
0100
0001
0010
0001
0010
0001
0100
,  // measure 30
0001
1000
0100
1000
0001
1000
0010
1000
,  // measure 31
0001
0010
0001
0100
0001
1000
0001
0000
,  // measure 32
1001
0000
1001
0000
,  // measure 33
0001
0010
0001
0100
0010
1000
0100
1000
0010
0100
0001
0010
0100
1000
0010
0100
,  // measure 34
0001
1000
0100
1000
0010
1000
0001
1000
,  // measure 35
0010
1000
0100
1000
0010
1000
1100
0000
,  // measure 36
0010
0001
0100
0001
1000
0001
0100
0001
,  // measure 37
0010
0001
0100
0001
0010
0001
0101
0000
,  // measure 38
0001
0010
0100
1000
0001
0100
0010
1000
,  // measure 39
0100
0000
0010
0000
0001
0000
1000
0000
0010
0000
0100
0001
0100
0000
0001
0010
,  // measure 40
0001
0000
0010
0001
0000
0000
0100
0000
0001
0000
0100
0010
0000
0000
1000
0000
,  // measure 41
1100
0011
1002
0103
,  // measure 42
1001
0000
0000
0000
0000
0000
1000
0100
1000
0000
0100
0000
0010
0000
0001
0000
,  // measure 43
0101
0000
0001
0000
0010
0000
0100
0000
1000
0000
0000
1000
0000
0000
1000
0000
,  // measure 44
0010
0000
1000
0000
0100
0000
0010
0000
0001
0000
0000
0001
0000
0000
0001
0000
,  // measure 45
0100
0000
0010
0000
1000
0000
0001
0000
0010
0000
0000
0010
0000
0000
0010
0000
,  // measure 46
0100
0000
1000
0000
0100
0000
0010
0000
0001
0000
0000
0001
0000
0000
0001
0000
,  // measure 47
1000
0000
0010
0000
0001
0000
0010
0000
1000
0000
0000
1000
0000
0000
1000
0000
,  // measure 48
0100
0000
0010
0000
0001
0000
0100
0000
0010
0000
0000
0010
0000
0000
0010
0000
,  // measure 49
1010
0101
1100
1010
,  // measure 50
1001
0000
0110
0000
0001
0010
0001
0100
,  // measure 51
0010
0000
1000
0000
0100
0000
0010
0000
0001
0000
0000
0001
0000
0000
0001
0000
,  // measure 52
0010
0000
0100
0000
1000
0000
0001
0000
0100
0000
0000
0100
0000
0000
0100
0000
,  // measure 53
0001
0000
0010
0000
0001
0000
0100
0000
0010
0000
0000
0010
0000
0000
0010
0000
,  // measure 54
0100
0000
0001
0000
0010
0000
0100
0000
1000
0000
0000
1000
0000
0000
1000
0000
,  // measure 55
0001
0000
0100
0000
0001
0000
1000
0000
0100
0000
0000
0100
0000
0000
0100
0000
,  // measure 56
1000
0000
0010
0000
0100
0000
0001
0000
0010
0000
0000
0010
0000
0000
0010
0000
,  // measure 57
0011
1010
1100
0101
,  // measure 58
2002
0000
3003
0010
0001
1000
0010
0100
,  // measure 59
1001
0100
0001
0010
0001
0100
0010
1000
,  // measure 60
0100
0001
0100
1000
0010
0100
0001
0010
,  // measure 61
0100
1000
0010
1000
0001
1000
0010
1000
,  // measure 62
0100
0010
0001
1000
0010
0100
0001
0010
,  // measure 63
0001
0010
0100
1000
0001
0010
0100
1000
,  // measure 64
0001
0100
0010
1000
0001
0100
0010
1000
,  // measure 65
0100
1000
0010
1000
0001
1000
0100
0010
,  // measure 66
0001
1000
0010
0100
0001
0010
0100
1000
,  // measure 67
2002
0000
0000
0000
,  // measure 68
0000
0000
0000
0000
,  // measure 69
3003
0000
0000
0000
;

//---------------dance-single - ----------------
#NOTES:
     dance-single:
     :
     Medium:
     6:
     0.402,0.529,0.233,0.039,0.024: // measure 1
0000
0000
0000
0000
,  // measure 2
0000
0000
0000
0000
,  // measure 3
0000
0000
0000
0000
,  // measure 4
0000
0000
0000
0000
,  // measure 5
0000
0000
0000
0000
,  // measure 6
0000
0000
0000
0000
,  // measure 7
0000
0000
0000
0000
,  // measure 8
0000
0000
0000
0000
,  // measure 9
0100
0000
0100
0000
1000
0001
1000
0000
,  // measure 10
0010
0000
0010
0000
1000
0010
1000
0000
,  // measure 11
0100
1000
0100
0000
0010
0001
0010
0000
,  // measure 12
0001
1000
0001
1000
0001
1000
0001
0000
,  // measure 13
0010
0001
0100
0010
,  // measure 14
1000
0000
0100
0000
1000
0001
1000
0001
,  // measure 15
0100
0001
0010
0100
,  // measure 16
1000
0010
1000
0100
,  // measure 17
0010
0000
0000
0010
0000
0000
0010
0000
0022
0000
0000
0000
0033
0000
0000
0000
,  // measure 18
1000
0100
1000
0001
,  // measure 19
1000
0000
0001
0000
1000
0000
0100
1000
,  // measure 20
0100
0010
0100
0001
,  // measure 21
0100
0000
0000
0000
0001
0000
0000
0000
0010
0000
0000
0001
0000
0000
0100
0000
,  // measure 22
0001
1000
0100
1000
,  // measure 23
0001
0000
0100
0000
0010
0000
1000
0001
,  // measure 24
1000
0010
0100
0001
,  // measure 25
0010
0000
0100
0000
1000
0001
1000
0001
,  // measure 26
1000
0100
0000
1000
0000
0001
0000
0010
,  // measure 27
0000
0001
0000
1000
0000
0010
0000
1000
,  // measure 28
0000
0001
0000
0100
0000
0010
0000
1000
,  // measure 29
0000
0001
0000
0001
0000
1000
0100
1000
,  // measure 30
0000
0010
0000
0100
0000
0001
0000
0010
,  // measure 31
0000
0001
0000
0100
0000
0010
0100
0010
,  // measure 32
0000
0110
0000
1010
0000
0011
0000
1001
,  // measure 33
0000
1100
0000
0101
0000
1000
0001
1000
,  // measure 34
0001
0010
0100
1000
,  // measure 35
0010
0000
1000
0000
0100
0000
0010
0001
,  // measure 36
0100
0001
0010
1000
,  // measure 37
0010
0000
0000
0000
0001
0000
0000
0000
0100
0000
0000
0001
0000
0000
1000
0000
,  // measure 38
0100
1000
0010
0100
,  // measure 39
0010
0000
1000
0000
0100
0000
1000
0010
,  // measure 40
0100
0001
0010
0100
,  // measure 41
1000
0001
1000
0010
,  // measure 42
1001
0000
0000
0000
,  // measure 43
0001
1000
0100
1000
,  // measure 44
0010
0000
0100
0000
0001
0000
0010
0001
,  // measure 45
0100
0001
0010
0100
,  // measure 46
1000
0000
0000
0000
0010
0000
0000
0000
1000
0000
0000
0001
0000
0000
0100
0000
,  // measure 47
0001
0010
0001
1000
,  // measure 48
0010
0000
1000
0000
0100
0000
1000
0001
,  // measure 49
1000
0100
1000
0010
,  // measure 50
0101
1100
0101
1100
,  // measure 51
0001
0010
0001
1000
,  // measure 52
0100
0000
0010
0000
0001
0000
1000
0010
,  // measure 53
1000
0010
0100
0001
,  // measure 54
0010
0000
0000
0000
0001
0000
0000
0000
0010
0000
0000
0100
0000
0000
1000
0000
,  // measure 55
0001
1000
0010
0100
,  // measure 56
0001
1000
0001
0100
,  // measure 57
0011
0001
0101
0010
,  // measure 58
1100
1010
1100
1010
,  // measure 59
1000
0100
0000
1000
0000
0010
0000
0100
,  // measure 60
0000
0001
0000
0010
0000
0001
0100
0001
,  // measure 61
0000
0010
0000
0100
0000
1000
0000
0010
,  // measure 62
0000
1000
0000
0100
0000
0010
0001
0010
,  // measure 63
0000
0100
0000
1000
0000
0010
0000
0100
,  // measure 64
0000
0001
0000
1000
0000
0010
1000
0010
,  // measure 65
0000
1010
0000
1001
0000
0011
0000
1001
,  // measure 66
0000
1100
0000
0101
0000
1000
0001
2000
,  // measure 67
0002
0000
0000
0000
,  // measure 68
0000
0000
0000
0000
,  // measure 69
3003
0000
0000
0000
;

//---------------dance-single - ----------------
#NOTES:
     dance-single:
     :
     Easy:
     5:
     0.379,0.529,0.282,0.156,0.000: // measure 1
0000
0000
0000
0000
,  // measure 2
0000
0000
0000
0000
,  // measure 3
0000
0000
0000
0000
,  // measure 4
0000
0000
0000
0000
,  // measure 5
0000
0000
0000
0000
,  // measure 6
0000
0000
0000
0000
,  // measure 7
0000
0000
0000
0000
,  // measure 8
0000
0000
0000
0000
,  // measure 9
0010
0010
1000
0001
,  // measure 10
0100
0100
0001
1000
,  // measure 11
0100
0100
0010
0010
,  // measure 12
0001
1000
0001
1001
,  // measure 13
0001
0010
0100
1000
,  // measure 14
0001
0010
0100
0010
,  // measure 15
1001
0100
1001
0100
,  // measure 16
1001
0110
1001
0110
,  // measure 17
2002
0000
3003
0000
,  // measure 18
1001
0100
0010
0001
,  // measure 19
0100
0001
0100
0010
,  // measure 20
1000
0100
0010
0001
,  // measure 21
1000
0001
0100
0010
,  // measure 22
1000
0100
0010
0100
,  // measure 23
1000
0010
0100
0001
,  // measure 24
1001
0010
1001
0100
,  // measure 25
1001
0000
0100
0000
1000
0001
1000
0000
,  // measure 26
0100
0010
0001
0100
,  // measure 27
0010
1000
0100
0010
,  // measure 28
0100
1000
0100
1000
,  // measure 29
0010
0100
0001
0010
,  // measure 30
0100
1000
0010
0001
,  // measure 31
0010
1000
0010
0100
,  // measure 32
2002
3003
2002
3003
,  // measure 33
1001
1001
1001
1001
,  // measure 34
0001
0001
1000
1000
,  // measure 35
0010
0100
0010
0000
0100
0010
0100
0000
,  // measure 36
0001
0001
1000
0100
,  // measure 37
1000
0001
1000
0000
0001
1000
0001
0000
,  // measure 38
1000
0100
0010
0001
,  // measure 39
0100
0010
1000
0001
,  // measure 40
1000
1000
0001
0001
,  // measure 41
1000
0001
1001
1001
,  // measure 42
0220
0000
0330
0000
,  // measure 43
1001
0100
1000
0001
,  // measure 44
0010
0100
1000
0001
,  // measure 45
0100
0010
1000
0100
,  // measure 46
0010
0001
0010
0100
,  // measure 47
1000
0100
0010
0100
,  // measure 48
1000
0010
1000
0010
,  // measure 49
1001
0100
1001
0010
,  // measure 50
1001
0110
1001
0110
,  // measure 51
1000
1000
0001
0001
,  // measure 52
0100
0010
0100
0001
,  // measure 53
1000
0001
1000
0100
,  // measure 54
0010
0001
0100
0001
,  // measure 55
0010
0100
1000
0010
,  // measure 56
0100
0010
0001
0010
,  // measure 57
0002
0203
0320
2030
,  // measure 58
3002
0000
2000
3003
,  // measure 59
0100
0010
0001
1000
,  // measure 60
0100
0010
0001
0100
,  // measure 61
0001
0010
0100
1000
,  // measure 62
0001
0100
0010
1000
,  // measure 63
0010
0100
0001
0010
,  // measure 64
1000
0010
0001
1000
,  // measure 65
0001
0010
0100
1000
,  // measure 66
0010
0100
0001
1000
,  // measure 67
2002
0000
0000
0000
,  // measure 68
0000
0000
0000
0000
,  // measure 69
3003
0000
0000
0000
;

//---------------dance-single - ----------------
#NOTES:
     dance-single:
     :
     Beginner:
     2:
     0.224,0.463,0.233,0.019,0.000: // measure 1
0000
0000
0000
0000
,  // measure 2
0000
0000
0000
0000
,  // measure 3
0000
0000
0000
0000
,  // measure 4
0000
0000
0000
0000
,  // measure 5
0000
0000
0000
0000
,  // measure 6
0000
0000
0000
0000
,  // measure 7
0000
0000
0000
0000
,  // measure 8
0000
0000
0000
0000
,  // measure 9
1000
0000
0001
0000
,  // measure 10
1000
0000
0001
0000
,  // measure 11
0100
0000
0010
0000
,  // measure 12
0100
0100
0100
0000
,  // measure 13
0010
0000
0100
0000
,  // measure 14
0010
0000
0100
0000
,  // measure 15
0001
0000
1000
0000
,  // measure 16
0001
0000
1000
0000
,  // measure 17
0100
0100
0100
0000
,  // measure 18
1000
0000
0001
0000
,  // measure 19
1000
0000
0001
0000
,  // measure 20
0100
0000
0010
0000
,  // measure 21
0100
0000
0010
0000
,  // measure 22
1000
0000
0010
0000
,  // measure 23
0100
0000
0001
0000
,  // measure 24
0110
0000
0110
0000
,  // measure 25
1001
0000
1001
0000
,  // measure 26
1000
1000
1000
0000
,  // measure 27
0001
0001
0001
0000
,  // measure 28
0100
0100
0100
0000
,  // measure 29
0010
0010
0010
0000
,  // measure 30
1000
0000
0001
0000
,  // measure 31
1000
0000
0001
0000
,  // measure 32
1001
0000
1001
0000
,  // measure 33
1001
0000
1001
0000
,  // measure 34
1000
1000
1000
0000
,  // measure 35
0001
0001
0001
0000
,  // measure 36
1000
0000
0001
0000
,  // measure 37
0100
0100
0100
0000
,  // measure 38
0010
0000
0100
0000
,  // measure 39
0010
0000
1000
1000
,  // measure 40
1000
0000
0001
0000
,  // measure 41
0100
0100
0100
0100
,  // measure 42
0000
0000
0000
0000
,  // measure 43
1001
0000
1000
0000
,  // measure 44
0001
0000
0100
0000
,  // measure 45
1000
0000
0001
0000
,  // measure 46
0100
0000
0010
0000
,  // measure 47
0001
0000
1000
0000
,  // measure 48
0010
0000
0100
0000
,  // measure 49
1001
0000
1001
0000
,  // measure 50
1001
0000
1001
0000
,  // measure 51
0100
0000
0100
0000
,  // measure 52
1000
0000
1000
0000
,  // measure 53
0001
0000
0001
0000
,  // measure 54
0010
0000
0010
0000
,  // measure 55
1000
0000
0100
0000
,  // measure 56
0010
0000
0001
0000
,  // measure 57
1001
0000
1001
0000
,  // measure 58
1001
0000
1001
0000
,  // measure 59
0100
0100
0100
0000
,  // measure 60
0001
0001
0001
0000
,  // measure 61
1000
1000
1000
0000
,  // measure 62
0010
0010
0010
0000
,  // measure 63
1000
1000
1000
0000
,  // measure 64
0100
0100
0100
0000
,  // measure 65
1001
0000
1001
0000
,  // measure 66
1001
1001
1001
1001
,  // measure 67
2002
0000
0000
0000
,  // measure 68
0000
0000
0000
0000
,  // measure 69
3003
0000
0000
0000
;

//---------------dance-single - NEMO----------------
#NOTES:
     dance-single:
     NEMO:
     Challenge:
     9:
     0.620,0.694,0.146,0.019,0.681: // measure 1
0000
0000
0000
0000
,  // measure 2
0000
0000
0000
0000
,  // measure 3
0000
0000
0000
0000
,  // measure 4
0000
0000
0000
0000
,  // measure 5
0000
0000
0000
0000
,  // measure 6
0000
0000
0000
0000
,  // measure 7
1001
M00M
0110
0MM0
,  // measure 8
1001
0110
0011
1100
,  // measure 9
1000
0000
0100
0000
0000
0M00
0010
0000
0000
00M0
0001
0000
0000
000M
0100
0000
,  // measure 10
0000
0M00
0010
0000
0000
00M0
1000
0000
0000
M000
0010
0000
0000
00M0
0001
0000
,  // measure 11
0000
000M
0010
0000
0000
00M0
1000
0000
0000
M000
0100
0000
0000
0M00
0001
0000
,  // measure 12
0000
000M
0100
0000
0000
0M00
1000
0000
0000
M000
0010
0000
0000
00M0
0001
0000
,  // measure 13
0010
1000
0100
0010
0001
1000
0010
0100
,  // measure 14
0010
1000
0100
0001
0100
1000
0100
0010
,  // measure 15
0100
1000
0001
0100
0001
0100
0010
0100
,  // measure 16
0001
0100
0010
1000
0001
0010
0100
1000
,  // measure 17
0001
0000
0000
0001
0000
0000
0001
1000
0001
0000
0000
M00M
0000
0000
0000
0000
,  // measure 18
0001
0000
0010
0000
0100
0000
1000
0000
0001
0000
0100
0010
0000
0100
0010
0000
,  // measure 19
1000
0000
0100
0000
0010
0000
0001
0000
1000
0000
0010
0100
0000
0010
0100
0000
,  // measure 20
0001
0000
0100
0000
1000
0000
0100
0000
0001
0000
1000
0010
0000
1000
0010
0000
,  // measure 21
1000
0000
0100
0000
0001
0000
0100
0000
1000
0000
0001
0100
0000
0001
0100
0000
,  // measure 22
0001
0000
0010
0000
1000
0000
0001
0000
0100
0000
1000
0001
0000
1000
0001
0000
,  // measure 23
1000
0000
0010
0000
0001
0000
1000
0000
0100
0000
0001
1000
0000
0001
1000
0000
,  // measure 24
0010
0100
0010
0100
0001
1000
0001
1000
,  // measure 25
0001
0010
0100
1000
0100
0010
0001
0100
,  // measure 26
0010
0000
1000
0100
000M
0000
1000
0010
0M00
0000
1000
0001
00M0
0000
1000
0010
,  // measure 27
000M
0000
1000
0001
00M0
0000
1000
0001
00M0
0000
1000
0001
00M0
0000
1000
0001
,  // measure 28
00M0
0000
0001
0010
M000
0000
0001
0100
00M0
0000
0001
1000
0M00
0000
0001
0100
,  // measure 29
M000
0000
0001
1000
00M0
0000
0001
1000
00M0
0000
0001
1000
00M0
0000
0001
1000
,  // measure 30
00M0
0000
1000
0100
000M
0000
0100
0010
M000
0000
0010
0001
0M00
0000
0001
0010
,  // measure 31
M000
0000
0010
0100
000M
0000
0010
0100
000M
0000
0010
0100
000M
0000
0010
0000
,  // measure 32
0110
M00M
1001
0MM0
,  // measure 33
1000
0010
1000
0100
0010
0001
0100
0001
0010
0100
1000
0010
1000
0001
0010
0001
,  // measure 34
1000
0000
0001
0000
0000
000M
0100
0000
0000
0M00
0010
0000
0000
00M0
1000
0000
,  // measure 35
0000
M000
0001
0000
0000
000M
0010
0000
0000
00M0
0100
0000
0000
0M00
1000
0000
,  // measure 36
0000
M000
0001
0000
0000
000M
0100
0000
0000
0M00
1000
0000
0000
M000
0100
0000
,  // measure 37
0000
0M00
0001
0000
0000
000M
0010
0000
0000
00M0
1000
0000
0000
M000
0010
0000
,  // measure 38
0001
0000
1000
0000
0000
M000
0010
0000
0000
00M0
0100
0000
0000
0M00
0001
0000
,  // measure 39
0000
000M
1000
0000
0000
M000
0100
0000
0000
0M00
0010
0000
0000
00M0
0001
0000
,  // measure 40
0000
000M
1000
0000
0000
M000
0010
0000
0000
00M0
0001
0000
0000
000M
0010
0000
,  // measure 41
0000
00M0
1000
0000
0000
M000
0100
0000
0000
0M00
0001
0000
0000
000M
0100
0000
,  // measure 42
1000
M000
M001
M000
,  // measure 43
1000
0000
0100
0000
0010
0000
0001
0000
1000
0000
0010
0100
0000
0010
0100
0000
,  // measure 44
0001
0000
0010
0000
0100
0000
1000
0000
0001
0000
0100
0010
0000
0100
0010
0000
,  // measure 45
1000
0000
0010
0000
0001
0000
0010
0000
1000
0000
0001
0100
0000
0001
0100
0000
,  // measure 46
0001
0000
0010
0000
1000
0000
0010
0000
0001
0000
1000
0010
0000
1000
0010
0000
,  // measure 47
1000
0000
0100
0000
0001
0000
1000
0000
0010
0000
0001
1000
0000
0001
1000
0000
,  // measure 48
0001
0000
0100
0000
1000
0000
0001
0000
0010
0000
1000
0001
0000
1000
0001
0000
,  // measure 49
0100
0010
0100
0010
1000
0001
1000
0001
,  // measure 50
1000
0000
0100
0000
0010
0000
0001
0000
0010
0000
0100
0000
1000
0000
0010
0100
,  // measure 51
0001
0000
0010
0000
0100
0000
1000
0000
0001
0000
0100
0010
0000
0100
0010
0000
,  // measure 52
1000
0000
0100
0000
0010
0000
0001
0000
1000
0000
0010
0100
0000
0010
0100
0000
,  // measure 53
0001
0000
0100
0000
1000
0000
0100
0000
0001
0000
1000
0010
0000
1000
0010
0000
,  // measure 54
1000
0000
0100
0000
0001
0000
0100
0000
1000
0000
0001
0100
0000
0001
0100
0000
,  // measure 55
0001
0000
0010
0000
1000
0000
0001
0000
0100
0000
1000
0001
0000
1000
0001
0000
,  // measure 56
1000
0000
0010
0000
0001
0000
1000
0000
0100
0000
0001
1000
0000
0001
1000
0000
,  // measure 57
0010
0100
0010
0100
0001
1000
0001
1000
,  // measure 58
0001
0000
0010
0000
0100
0000
1000
0000
0100
0000
0010
0000
0001
0000
1000
0001
,  // measure 59
0100
0000
0001
0010
M000
0000
0001
0100
00M0
0000
0001
1000
0M00
0000
0001
0100
,  // measure 60
M000
0000
0001
1000
0M00
0000
0001
1000
0M00
0000
0001
1000
0M00
0000
0001
1000
,  // measure 61
0M00
0000
1000
0100
000M
0000
1000
0010
0M00
0000
1000
0001
00M0
0000
1000
0010
,  // measure 62
000M
0000
1000
0001
0M00
0000
1000
0001
0M00
0000
1000
0001
0M00
0000
1000
0001
,  // measure 63
0M00
0000
0001
0010
M000
0000
0010
0100
000M
0000
0100
1000
00M0
0000
1000
0100
,  // measure 64
000M
0000
0100
0010
M000
0000
0100
0010
M000
0000
0100
0010
M000
0000
0100
0000
,  // measure 65
0110
M00M
1001
0MM0
,  // measure 66
1100
0011
1010
0101
,  // measure 67
2MM2
0000
0000
0000
,  // measure 68
0000
0000
0000
0000
,  // measure 69
3003
0000
0000
0000
;
