#TITLE:Flying High;
#SUBTITLE:(D-Tune Remix);
#ARTIST:DCX;
#TITLETRANSLIT:;
#SUBTITLETRANSLIT:;
#ARTISTTRANSLIT:;
#GENRE:;
#CREDIT:;
#BANNER:Flying High (D-Tune Remix).png;
#BACKGROUND:Flying High (D-Tune Remix)-bg.png;
#LYRICSPATH:;
#CDTITLE:cdtitle.png;
#MUSIC:Flying High (D-Tune Remix).ogg;
#OFFSET:-0.260000;
#SAMPLESTART:43.040001;
#SAMPLELENGTH:13.800000;
#SELECTABLE:YES;
#BPMS:0.000000=140.000000
;
#STOPS:
;
#BGCHANGES:;
#KEYSOUNDS:;
#ATTACKS:;

//---------------dance-single - DDRDAIKENKAI----------------
#NOTES:
     dance-single:
     DDRDAIKENKAI:
     Hard:
     10:
     0.657300,0.730038,0.175359,0.517728,0.605408,551.000000,530.000000,21.000000,62.000000,2.000000,0.000000,0.657300,0.730038,0.175359,0.517728,0.605408,551.000000,530.000000,21.000000,62.000000,2.000000,0.000000:
0000
0000
0000
0000
,
0000
0000
0000
0000
,
0000
0000
0000
0000
,
0000
0000
0000
0000
,
0000
0000
0000
0000
,
0000
0000
0000
0000
,
0000
0000
0000
0000
,
0000
0000
0000
0000
,
0000
0000
0000
0000
,
1001
0000
1000
0000
0001
0000
1000
0100
0000
0100
1000
0000
0010
0000
0100
0000
,
0001
0000
0010
0000
0001
0000
0100
0010
0000
0010
0100
0000
0001
0000
1000
0000
,
0100
0000
1000
0000
0001
0000
1000
0001
0000
0001
1000
0000
0100
0000
1000
0000
,
0010
0000
0010
0000
1000
0000
1000
0001
0000
0001
1000
0000
0100
0000
0010
0000
,
0011
0000
0001
0000
0100
0000
0001
1000
0000
0001
1000
0000
0100
0000
1000
0000
,
0010
0000
1000
0000
0100
0000
1000
0001
0000
1000
0001
0000
1000
0000
0010
0000
,
0110
0000
0100
0000
0001
0000
0100
0010
0000
0100
0001
0000
0010
0000
1000
0000
,
0010
0000
0001
0000
1000
0000
1000
0000
0001
1000
0001
0100
0001
1000
0001
0100
,
0001
0002
1003
2000
3100
0200
1300
0010
,
0100
0200
0310
0020
1030
2000
3001
0010
,
0002
0000
1003
0100
2000
0000
3200
0000
,
0320
0000
0030
0000
0001
0010
0001
0100
,
0010
0000
1000
0100
1000
0000
0001
0100
0001
0000
1000
0100
1000
0100
1000
0100
,
00M0
0000
0010
0100
0010
0000
0001
0010
0001
0000
1000
0001
1000
0001
1000
0001
,
M000
0000
1000
0100
1000
0000
0010
1000
0010
0000
0100
0010
0100
0010
0100
0010
,
0100
0000
0100
0000
0010
0000
0010
0000
1000
0100
1000
0010
1000
0001
1000
0100
,
1000
0000
0001
0000
0010
0000
0001
0000
0100
0000
0000
0000
0110
0000
0000
1010
,
0000
0000
0000
0000
0001
0000
1000
0100
1000
0000
0001
0000
0010
0001
0000
0000
,
0011
0000
0000
0000
0101
0000
0001
0000
1000
0000
0000
0000
1100
0000
0000
1010
,
0000
0000
0000
0000
0110
0000
0010
1000
0010
0000
1000
0000
0001
1000
0000
0000
,
1001
0000
0001
0010
0001
0000
1000
0100
1000
0000
0000
0000
0110
0000
0000
0101
,
0000
0000
0000
0000
1000
0000
0100
0010
0100
0000
0001
0000
0100
1000
0000
0000
,
1010
0000
0000
0000
0101
0000
0001
0000
0100
0000
0000
0000
1001
0000
0000
0010
,
0000
0000
0000
0000
1001
0000
0001
0010
0001
0000
1000
0000
0001
0100
0001
0100
,
0001
0000
0010
0100
0010
0000
0100
1000
0100
0000
0010
0001
0010
0000
0001
1000
,
0000
0000
0100
0000
1000
0000
0010
0100
0010
0000
1000
0000
0001
1000
0000
0000
,
1100
0000
0100
1000
0010
0000
1000
0010
0100
0000
0010
0100
0001
0000
0010
0001
,
0000
0000
1000
0000
0100
0000
1000
0001
1000
0000
0100
0000
2000
0000
0000
0000
,
3001
0000
0010
0100
0010
0000
0100
1000
0100
0000
0010
0001
0010
0000
0100
1000
,
0000
0000
0001
0000
0010
0000
0001
0100
0001
0000
1000
0000
0200
0000
0000
0000
,
1300
0000
0010
0100
0010
0000
1000
0010
1000
0000
0001
0100
0001
0000
1000
0100
,
0000
0000
1000
0000
0001
0000
0010
0001
0010
0000
0001
0000
0100
0000
0010
0000
,
1000
0000
0100
0000
0010
0000
0001
0000
1000
0100
1000
0010
1000
0100
1000
0001
,
2000
0000
0000
0000
0000
0000
0000
0000
0000
0000
0000
0000
0000
0000
0000
0000
3002
0003
0000
0000
0000
0000
0000
0000
0200
0300
0000
0000
0000
0000
0000
0000
0000
0000
0000
0000
0000
0000
0000
0000
0000
0000
0000
0000
0000
0000
0000
0000
0000
0000
0000
0000
0000
0000
0000
0000
0000
0000
0000
0000
0000
0000
0000
0000
,
0020
0030
0000
0000
0000
0000
0000
0000
0000
0000
0000
0000
0000
0000
0000
0000
0020
0030
0000
0000
0000
0000
0000
0000
0200
0300
0000
0000
0000
0000
0000
0000
0000
0000
0000
0000
0000
0000
0000
0000
0100
0000
0000
0000
0000
0000
0000
0000
0001
0000
0000
0000
0010
0000
0000
0000
0002
0000
0000
0000
0000
0000
0000
0000
,
2000
3000
0000
0000
0000
0000
0000
0000
0003
0000
0000
0000
0000
0000
0000
0000
2000
3000
0000
0000
0000
0000
0000
0000
0200
0300
0000
0000
0000
0000
0000
0000
0000
0000
0000
0000
0000
0000
0000
0000
0000
0000
0000
0000
0000
0000
0000
0000
0000
0000
0000
0000
0000
0000
0000
0000
0000
0000
0000
0000
0000
0000
0000
0000
,
2000
3000
0000
0000
0000
0000
0000
0000
0000
0000
0000
0000
0000
0000
0000
0000
2000
3000
0000
0000
0000
0000
0000
0000
0002
0003
0000
0000
0000
0000
0000
0000
0000
0000
0000
0000
0000
0000
0000
0000
0001
0000
0000
0000
0000
0000
0000
0000
0010
0000
0000
0000
0001
0000
0000
0000
0100
0000
0000
0000
0000
0000
0000
0000
,
0220
0030
0000
0000
0000
0000
0000
0000
0000
0000
0000
0000
0000
0000
0000
0000
0320
0030
0000
0000
0000
0000
0000
0000
0200
0300
0000
0000
0000
0000
0000
0000
0000
0000
0000
0000
0000
0000
0000
0000
0100
0000
0000
0000
0000
0000
0000
0000
0000
0000
0000
0000
0000
0000
0000
0000
0100
0000
0000
0000
0000
0000
0000
0000
,
0002
0003
0000
0000
0000
0000
0000
0000
1000
0000
0000
0000
0000
0000
0000
0000
0020
0030
0000
0000
0000
0000
0000
0000
0002
0003
0000
0000
0000
0000
0000
0000
0010
0000
0000
0000
0000
0000
0000
0000
1000
0000
0000
0000
0000
0000
0000
0000
0100
0000
0000
0000
1000
0000
0000
0000
0001
0000
0000
0000
0000
0000
0000
0000
,
0202
0303
0000
0000
0000
0000
0000
0000
0001
0000
0000
0000
0000
0000
0000
0000
2000
3000
0000
0000
0000
0000
0000
0000
2000
3000
0000
0000
0000
0000
0000
0000
0100
0000
0000
0000
0000
0000
0000
0000
0100
0000
0000
0000
0000
0000
0000
0000
0010
0000
0000
0000
0000
0000
0000
0000
0010
0000
0000
0000
0000
0000
0000
0000
,
0002
0000
0000
0003
0000
0000
0000
0000
0000
0000
0000
0000
0010
0000
0000
0000
0000
0000
0000
0000
0000
0000
0000
0000
0001
0000
0000
0000
0000
0000
0000
0000
0000
0000
0000
0000
0010
0000
0000
0000
0000
0000
0000
0000
0000
0000
0000
0000
0200
0000
0000
0300
0000
0000
0000
0000
0000
0000
0000
0000
1000
0000
0000
0000
0000
0000
0000
0000
0000
0000
0000
0000
0200
0000
0000
0300
0000
0000
0000
0000
0000
0000
0000
0000
1000
0000
0000
0000
0000
0000
0000
0000
0000
0000
0000
0000
0004
0000
0000
0000
0000
0000
0000
0000
4000
0000
0000
0000
0000
0000
0000
0000
0000
0000
0000
0000
0000
0000
0000
0000
0000
0000
0000
0000
0000
0000
0000
0000
0000
0000
0000
0000
0000
0000
0000
0000
0000
0000
0000
0000
0000
0000
0000
0000
0000
0000
0000
0000
0000
0000
0000
0000
0000
0000
0000
0000
0000
0000
0000
0000
0000
0000
0000
0000
0000
0000
0000
0000
0000
0000
0000
0000
0000
0000
0000
0000
0000
0000
0000
0000
0000
0000
0000
0000
3000
0000
0000
0000
0000
0000
0000
0000
,
0023
0030
0000
0000
0000
0000
0000
0000
0000
0000
0000
0000
0000
0000
0000
0000
0020
0000
0000
0000
0030
0000
0000
0000
0020
0000
0000
0000
0030
0000
0000
0000
1000
0000
0000
0000
0100
0000
0000
0000
1000
0000
0000
0000
0000
0000
0000
0000
0100
0000
0000
0000
1000
0000
0000
0000
0001
0000
0000
0000
0000
0000
0000
0000
,
0011
0000
0001
0100
0000
0010
0000
0010
1000
0000
1000
0001
0000
0001
1000
0100
,
1000
0000
1000
0000
0001
0010
0001
0000
2000
3000
1000
0000
0010
0100
0002
0000
,
0103
0000
0020
0000
0130
0000
2000
0000
3100
0000
0010
1000
0000
1000
0100
1000
,
0010
0000
0010
0000
1000
0001
1000
0000
0020
0030
0100
0000
0001
0010
0002
0000
,
1003
0000
0100
1000
0000
0010
0000
0010
0100
0000
0100
0001
0000
0001
0010
0001
,
0100
0000
0100
0000
0010
1000
0010
0000
2000
3000
0001
0000
1000
0100
2000
0000
,
3001
0000
0002
0000
0013
0000
0020
0000
0130
0000
0100
1000
0000
1000
0001
0010
,
0001
0000
0001
0000
1000
0100
1000
0000
0010
1000
0001
1000
0100
1000
0010
1000
,
0001
0000
0100
0010
0000
1000
0000
1000
0100
0000
0100
1000
0000
1000
0001
0010
,
0001
0000
0001
0000
1000
0100
1000
0000
0002
0003
0001
0000
0100
0010
0200
0000
,
0301
0000
0020
0000
1030
0000
0020
0000
0031
0000
0010
0100
0000
0100
1000
0010
,
1000
0000
1000
0000
0001
0100
0001
0000
2000
3000
0001
0000
0010
0001
0010
0000
,
0001
0000
0100
0010
0000
0100
0000
0100
0001
0000
0001
1000
0000
1000
0100
1000
,
0001
0000
0001
0000
1000
0010
1000
0000
0002
0003
1000
0000
0100
1000
0002
0000
,
0103
0000
2000
0000
3010
0000
0002
0000
0013
0000
1000
0100
0000
0001
1000
0100
,
1000
0000
1000
0000
0001
0010
0001
0000
1000
0001
0100
0001
0010
0001
0100
0010
,
2000
3000
0000
0000
;

//---------------dance-single - DDRDAIKENKAI----------------
#NOTES:
     dance-single:
     DDRDAIKENKAI:
     Medium:
     6:
     0.407979,0.505450,0.300616,0.292266,0.000000,342.000000,306.000000,36.000000,35.000000,0.000000,0.000000,0.407979,0.505450,0.300616,0.292266,0.000000,342.000000,306.000000,36.000000,35.000000,0.000000,0.000000:
0000
0000
0000
0000
,
0000
0000
0000
0000
,
0000
0000
0000
0000
,
0000
0000
0000
0000
,
0000
0000
0000
0000
,
0000
0000
0000
0000
,
0000
0000
0000
0000
,
0000
0000
0000
0000
,
0000
0000
0000
0000
,
1000
0000
1000
0000
0001
0010
0001
0000
,
1000
0000
1000
0000
0001
0100
0001
0000
,
0100
0000
0100
0000
0010
1000
0010
0000
,
1000
0100
1000
0000
0001
0100
0001
0000
,
1000
0100
1000
0000
0010
1000
0010
0000
,
0100
0010
0100
0000
0001
0100
0001
0000
,
0010
0001
0100
0010
,
1000
0100
1000
0100
1000
0100
1000
0000
,
0001
0100
0001
0000
0100
0010
0100
0000
,
0010
1000
0010
0000
1000
0100
1000
0000
,
0002
1003
2000
3001
,
2002
0000
3003
0000
0001
1000
0001
1000
,
1000
0100
1000
0000
0010
0100
0010
0000
,
1000
0001
1000
0000
0100
0010
0100
0000
,
0020
0031
0002
1003
,
2002
0000
0000
3003
,
1020
0000
0130
0000
0001
0010
0100
0000
,
2000
3010
0002
0013
,
2200
0000
3300
0000
1000
0010
0100
0000
,
0001
0100
0010
0000
0110
0000
1010
0000
,
2002
0000
3003
0000
0001
1000
0100
0000
,
1000
0001
0100
0000
0120
0000
1030
0000
,
2001
0000
3001
0010
0001
0000
1000
0010
,
1000
1010
0110
0101
,
2001
0000
3001
1000
0100
0010
0001
0000
,
2010
3001
0012
1003
,
2001
0000
3001
0010
0100
0000
1100
0000
,
1010
0110
0101
1001
,
0110
0000
0010
1000
0100
1000
0001
0000
,
0201
0310
1200
0301
,
1002
0000
1003
0010
0100
0000
1010
0000
,
1001
0000
0001
0010
0200
0000
1300
0000
,
2002
0000
0000
3003
,
1001
0000
0001
0100
0000
0010
0000
0010
,
0000
1000
0000
1000
0000
0001
0000
0001
,
0100
0000
0100
0010
0000
1000
0000
1000
,
0000
0100
0000
0100
0000
0010
0000
0001
,
1000
0100
1000
0000
0100
1000
0100
0000
,
0010
0100
0010
0000
0100
0010
0100
0000
,
0020
0032
2003
3020
,
0130
0001
0100
0001
0100
0001
0200
0000
,
0310
1000
0010
1000
0010
1000
0020
0000
,
1030
0001
1000
0000
0010
0100
0010
0000
,
1000
1100
0001
0101
,
1000
0010
1000
0000
0001
0100
0001
0000
,
0010
1100
0010
0101
,
1000
0001
1000
0000
0010
0100
0010
0000
,
1000
0011
0100
1010
,
0001
1000
0001
0000
1000
0010
1000
0000
,
0010
0100
0010
0000
0100
0001
0100
0000
,
0001
0010
0100
0000
1000
0010
0100
0000
,
0001
1000
0001
0001
1000
0001
1000
0000
,
0001
1000
0100
0000
1000
0001
0100
0000
,
0010
0100
0010
0010
0100
0010
0100
0000
,
0010
0100
0001
0000
0100
0010
1000
0000
,
0001
0010
0001
0001
0010
0001
1000
1000
,
0100
0010
0100
0010
0100
0010
0100
0010
,
0001
1000
0001
1000
0001
1000
0001
1000
,
2002
0000
0000
0000
0000
0000
0000
0000
0000
0000
0000
0000
0000
0000
0000
0000
0000
0000
0000
0000
0000
0000
0000
0000
0000
0000
0000
0000
0000
0000
0000
0000
0000
0000
0000
0000
0000
0000
0000
0000
0000
0000
0000
0000
0000
0000
0000
0000
0000
3003
0000
0000
0000
0000
0000
0000
0000
0000
0000
0000
0000
0000
0000
0000
0000
0000
0000
0000
0000
0000
0000
0000
0000
0000
0000
0000
0000
0000
0000
0000
0000
0000
0000
0000
0000
0000
0000
0000
0000
0000
0000
0000
0000
0000
0000
0000
0000
0000
0000
0000
0000
0000
0000
0000
0000
0000
0000
0000
0000
0000
0000
0000
0000
0000
0000
0000
0000
0000
0000
0000
0000
0000
0000
0000
0000
0000
0000
0000
0000
0000
0000
0000
0000
0000
0000
0000
0000
0000
0000
0000
0000
0000
0000
0000
0000
0000
0000
0000
0000
0000
0000
0000
0000
0000
0000
0000
0000
0000
0000
0000
0000
0000
0000
0000
0000
0000
0000
0000
0000
0000
0000
0000
0000
0000
0000
0000
0000
0000
0000
0000
0000
0000
0000
0000
0000
0000
0000
0000
0000
0000
0000
0000
;

//---------------dance-single - DDRDAIKENKAI----------------
#NOTES:
     dance-single:
     DDRDAIKENKAI:
     Easy:
     4:
     0.244549,0.393128,0.167009,0.392471,0.000000,205.000000,185.000000,20.000000,47.000000,0.000000,0.000000,0.244549,0.393128,0.167009,0.392471,0.000000,205.000000,185.000000,20.000000,47.000000,0.000000,0.000000:
0000
0000
0000
0000
,
0000
0000
0000
0000
,
0000
0000
0000
0000
,
0000
0000
0000
0000
,
0000
0000
0000
0000
,
0000
0000
0000
0000
,
0000
0000
0000
0000
,
0000
0000
0000
0000
,
0000
0000
0000
0000
,
0010
0000
1000
0100
,
0001
0000
0010
0001
,
0100
0000
1000
0010
,
0001
0000
0010
1000
,
0100
0100
1000
1000
,
0001
0001
0100
0100
,
0010
1000
0010
1000
,
0001
1000
0001
1000
,
0002
0010
0020
0033
,
2000
0100
0200
3300
,
2000
3000
0002
0003
,
2002
0000
3003
0000
,
0020
0001
0002
0033
,
0200
0010
0020
0330
,
2000
3000
0002
0003
,
2002
0000
3003
0000
,
0200
0300
0010
1000
,
0020
0000
2030
0000
,
0002
3003
0001
0010
,
1000
0010
0001
1000
,
2200
3300
1000
0010
,
0200
0000
0320
0000
,
2000
3030
1000
0100
,
1000
0010
0100
0001
,
2002
3003
0001
0010
,
0002
0003
0200
0300
,
0220
0330
0010
1000
,
0100
1000
0010
0100
,
0202
0303
1000
0100
,
2000
3000
0002
0003
,
2002
3003
1000
0001
,
0100
0010
1000
0010
,
0220
0000
0000
0330
,
1000
0000
2000
3000
0000
0000
0000
0000
,
0001
0000
0002
0003
0000
0000
0000
0000
,
0100
0000
0200
0300
0000
0000
0000
0000
,
0010
0000
0020
0030
0000
0000
0000
0000
,
1000
1000
0001
0001
,
1000
1000
0001
0001
,
1000
0001
1000
0001
,
1000
0010
0100
0001
,
2002
0000
0000
3003
,
0001
0001
1000
1000
,
0010
0010
0100
0100
,
0010
1001
0100
1001
,
1000
1100
0110
1001
,
0001
0001
0100
0100
,
0010
0010
1000
1000
,
0001
1001
1000
1001
,
0010
1001
0110
1001
,
1000
0100
0001
0100
,
1000
0010
0001
0010
,
1000
0100
0010
0001
,
0100
0010
1000
0001
,
0010
1000
0010
0001
,
0100
1000
0100
0001
,
0010
0010
0010
0010
,
0001
0100
0010
1000
,
2002
0000
0000
0000
0000
0000
0000
0000
0000
0000
0000
0000
0000
0000
0000
0000
0000
0000
0000
0000
0000
0000
0000
0000
0000
0000
0000
0000
0000
0000
0000
0000
0000
0000
0000
0000
0000
0000
0000
0000
0000
0000
0000
0000
0000
0000
0000
0000
0000
3003
0000
0000
0000
0000
0000
0000
0000
0000
0000
0000
0000
0000
0000
0000
0000
0000
0000
0000
0000
0000
0000
0000
0000
0000
0000
0000
0000
0000
0000
0000
0000
0000
0000
0000
0000
0000
0000
0000
0000
0000
0000
0000
0000
0000
0000
0000
0000
0000
0000
0000
0000
0000
0000
0000
0000
0000
0000
0000
0000
0000
0000
0000
0000
0000
0000
0000
0000
0000
0000
0000
0000
0000
0000
0000
0000
0000
0000
0000
0000
0000
0000
0000
0000
0000
0000
0000
0000
0000
0000
0000
0000
0000
0000
0000
0000
0000
0000
0000
0000
0000
0000
0000
0000
0000
0000
0000
0000
0000
0000
0000
0000
0000
0000
0000
0000
0000
0000
0000
0000
0000
0000
0000
0000
0000
0000
0000
0000
0000
0000
0000
0000
0000
0000
0000
0000
0000
0000
0000
0000
0000
0000
0000
;
