#TITLE:FEVER & MUSIC;
#SUBTITLE:;
#ARTIST:ERIKA;
#TITLETRANSLIT:FEVER AND MUSIC;
#SUBTITLETRANSLIT:;
#ARTISTTRANSLIT:;
#GENRE:SUPER EUROBEAT;
#CREDIT:;
#MENUCOLOR:;
#NEWMETERSYSTEM:NO;
#BANNER:FEVER AND MUSIC.png;
#BACKGROUND:FEVER AND MUSIC-bg.png;
#LYRICSPATH:;
#CDTITLE:;
#MUSIC:FEVER AND MUSIC.mp3;
#OFFSET:-1.041;
#SAMPLESTART:62.480;
#SAMPLELENGTH:12.400;
#SELECTABLE:YES;
#LISTSORT:;
#BPMS:0.000=156.070;
#STOPS:;
#BGCHANGES:;
#ATTACKS:;

//---------------dance-single - DDRDAIKENKAI----------------
#NOTES:
     dance-single:
     DDRDAIKENKAI:
     Beginner:
     1:
     0.186,0.212,0.101,0.081,0.000:
0000
0000
0000
0000
,
0000
0000
0000
0000
,
0000
0000
0000
0000
,
0000
0000
0000
0000
,
0000
0000
0000
0000
,
0000
0000
0000
0000
,
0000
0000
0000
0000
,
0000
0000
0000
0000
,
1000
0000
0001
0000
,
0000
0100
0100
0000
,
0010
0000
0100
0000
,
0001
0001
0001
0000
,
0100
0000
0010
0000
,
0000
0100
0100
0000
,
0220
0000
0000
0000
0000
0000
0000
0330
,
0000
0000
0000
0000
,
1001
0000
0001
0000
,
1000
1000
1000
0000
,
0001
0001
0001
0000
,
0100
0000
0010
0000
,
0100
0000
0001
0000
,
1000
1000
1000
0000
,
0001
0001
0001
0000
,
0100
0000
0100
0000
,
0010
0010
0010
0000
,
1000
1000
1000
0000
,
0001
0000
1000
0000
,
0001
0000
1000
0000
,
0001
0001
0001
0000
,
0100
0100
0100
0000
,
0010
0000
1000
0000
,
1001
0000
0000
0000
,
1000
0000
1000
0000
,
0001
0000
0001
0000
,
0100
0000
0100
0000
,
0010
0000
0010
0000
,
2000
0000
3000
0000
,
0002
0000
0003
0000
,
0100
0000
0010
0000
,
0220
0000
0330
0000
,
0100
0000
0010
0000
,
0100
0100
0100
0000
,
0001
0000
1000
0000
,
0001
0001
0001
0000
,
1000
0000
0001
0000
,
1000
1000
1000
0000
,
0010
0000
0100
0000
,
0010
0010
0010
0000
,
0110
0000
1001
0000
,
0000
1000
1000
0000
,
0001
0000
0010
0000
,
0100
0000
1000
0000
,
1001
0000
0110
0000
,
0000
0010
0010
0000
,
0100
0000
0001
0000
,
2002
0000
0000
0000
0000
3003
0000
0000
,
1000
0000
0001
0000
,
0100
0000
0001
0000
,
0010
0000
0100
0000
,
1000
1000
1000
0000
,
1001
0000
0000
0000
;

//---------------dance-single - DDRDAIKENKAI----------------
#NOTES:
     dance-single:
     DDRDAIKENKAI:
     Hard:
     7:
     0.521,0.615,0.111,0.272,0.040:
0000
0000
0000
0000
,
0000
0000
0000
0000
,
0000
0000
0000
0000
,
0000
0000
0000
0000
,
0000
0000
0000
0000
,
0000
0000
0000
0000
,
0000
0000
0000
0000
,
0000
0000
0000
0110
,
1001
0001
0000
0100
0001
1000
0100
0000
,
0110
0100
0010
0001
0010
0100
1000
0001
,
0100
0001
0000
1000
0100
1000
0010
0010
,
0000
0100
0000
0002
0000
1000
1003
0000
,
0001
0010
0000
0001
1000
0001
0000
0000
,
0000
1000
0100
1000
0010
0100
0001
1000
,
0002
0000
0000
0000
0000
0000
0000
0003
,
0000
0000
0000
0000
,
0010
1000
0100
1000
0010
0010
0100
0000
,
0001
0010
1000
0010
0001
0001
0100
0000
,
0010
1000
0001
0000
0100
0001
1000
0000
,
0010
1000
0100
0010
0001
0001
1000
1000
,
0001
0010
0001
0100
0010
0010
1000
0000
,
0100
1000
0010
0100
0001
0001
0010
0000
,
0100
1000
0100
0000
0010
0001
1000
0000
,
0010
0001
0000
0010
0000
1000
0001
0000
0010
0100
0010
0000
0100
0000
1000
0000
,
0010
1000
0100
1000
0001
1000
0100
1000
,
0001
0010
0100
0010
0000
0010
0100
1000
,
0000
0001
0100
0000
0010
1000
0100
0010
,
0000
0010
0001
0100
0000
0100
0001
0000
,
1000
0010
0100
0010
1000
0010
0100
0010
,
1000
0001
0010
0001
0000
0001
1000
0100
,
1000
0000
1000
0000
0100
1000
0001
0200
,
0000
0001
0000
0001
0000
0302
0000
0000
,
1003
0100
1000
0100
1000
1000
0001
0000
,
0001
0010
0001
0010
0001
0001
1000
1000
,
0001
0100
0000
0010
1000
0100
0000
2000
,
0000
3020
0000
0032
0000
0203
0000
1300
,
0001
0100
0001
0000
1000
0010
1000
0001
,
0010
0001
0000
1000
0100
1000
0000
0010
,
0100
0000
0001
0000
0010
0100
1000
0010
,
0110
2002
0000
3003
,
1000
0100
0001
0100
1000
0100
0001
0000
,
0101
0000
0100
1000
0010
0100
0001
0010
,
0100
1000
0000
0010
0100
0001
1000
0020
,
0000
2030
0000
0002
0000
3003
0000
0000
,
0001
0010
1000
0010
0001
0010
1000
0000
,
1010
0000
0010
0001
0100
0010
1000
0100
,
0010
0000
0102
0000
0013
0100
1000
0020
,
0000
0032
0000
0203
0000
1300
1002
0000
,
1003
0010
0001
0010
1000
0100
0001
0100
,
1000
0001
0010
0100
1000
0100
0010
0001
,
1000
0100
0000
0010
0001
0100
0010
2000
,
0000
3002
0000
0020
0000
0033
0000
0000
,
0001
0100
1000
0100
0001
0010
1000
0010
,
0001
1000
0100
0010
0001
0010
0100
1000
,
0001
0000
2100
0000
3010
1000
0100
2000
,
0000
3020
0000
0200
0000
0330
0000
0000
,
0010
1000
0010
1000
0001
0100
0001
0100
,
0001
0010
0001
0010
0100
1000
0100
1000
,
0001
0100
1000
0100
0001
0010
1000
0010
,
0001
0100
0000
0010
0000
1000
0100
0000
0010
0100
0010
0000
0001
0000
1000
0000
,
2002
0000
0000
0000
,
3003
0000
0000
0000
;

//---------------dance-single - DDRDAIKENKAI----------------
#NOTES:
     dance-single:
     DDRDAIKENKAI:
     Medium:
     5:
     0.376,0.400,0.040,0.202,0.000: // measure 1
0000
0000
0000
0000
,  // measure 2
0000
0000
0000
0000
,  // measure 3
0000
0000
0000
0000
,  // measure 4
0000
0000
0000
0000
,  // measure 5
0000
0000
0000
0000
,  // measure 6
0000
0000
0000
0000
,  // measure 7
0000
0000
0000
0000
,  // measure 8
0000
0000
0000
0000
,  // measure 9
1000
0001
0000
0000
0100
0010
0000
0000
,  // measure 10
1000
0001
0010
0100
,  // measure 11
1000
0001
0000
0000
0100
0010
0000
1000
,  // measure 12
0000
0010
0000
0100
0000
0000
0001
0000
,  // measure 13
1000
0001
0000
0000
1000
0100
0000
0000
,  // measure 14
0000
0010
0001
0100
,  // measure 15
0220
0000
0000
0000
0000
0000
0000
0330
,  // measure 16
0000
0000
0000
0000
,  // measure 17
0001
0000
0010
0000
0100
1000
0100
0000
,  // measure 18
1000
0001
1000
0000
0001
0000
0010
0000
,  // measure 19
0001
0100
0001
0000
1000
0000
0010
0000
,  // measure 20
0100
0001
0100
0000
0001
1000
0001
0000
,  // measure 21
1000
0000
0100
0000
0010
0001
0010
0000
,  // measure 22
0100
0000
1000
0000
0001
0100
0001
0000
,  // measure 23
1000
0010
1000
0000
0001
0000
0100
0000
,  // measure 24
0020
0000
0000
0000
1030
0001
1000
0001
,  // measure 25
1000
0000
0001
0000
1000
0100
1000
0000
,  // measure 26
0001
0000
1000
0000
0001
0010
0001
0000
,  // measure 27
0100
0010
0100
0000
0001
1000
0001
0000
,  // measure 28
1000
0100
0010
0001
,  // measure 29
1000
0010
1000
0000
0001
0100
0001
0000
,  // measure 30
1000
0100
1000
0000
0001
0010
0001
0000
,  // measure 31
0100
0010
1000
0001
,  // measure 32
2000
0001
0000
0001
0000
0001
0000
3000
,  // measure 33
0002
0000
0000
0020
0000
0000
0033
0000
,  // measure 34
2000
0000
0000
3200
0000
0000
0310
0001
,  // measure 35
1000
0010
0000
1000
0000
0001
0000
1000
,  // measure 36
0000
0001
0000
0100
0000
0010
0000
2000
,  // measure 37
0000
0000
0100
3100
,  // measure 38
0020
0000
0001
0031
,  // measure 39
0100
0010
0100
0001
,  // measure 40
1002
0000
1000
2000
0000
0000
3003
0000
,  // measure 41
0010
1000
0100
0000
0010
0001
0100
0000
,  // measure 42
0001
0000
1000
0000
0010
0100
0001
1000
,  // measure 43
0100
0000
0010
0001
0010
0000
0100
1000
,  // measure 44
0100
0000
1000
0000
0001
1000
0001
0000
,  // measure 45
1000
0001
0100
0000
0001
1000
0100
0000
,  // measure 46
0010
0000
0100
0000
1000
0010
0100
0001
,  // measure 47
1000
0000
0010
0000
1000
0001
1000
0000
,  // measure 48
0020
1000
2000
3030
,  // measure 49
1000
0100
0010
0000
0001
0100
0010
0000
,  // measure 50
1000
0000
0001
0000
0100
0010
1000
0001
,  // measure 51
0100
0000
0001
1000
0100
0010
0000
0001
,  // measure 52
0000
1000
0000
2002
0000
0000
3003
0000
,  // measure 53
1000
0100
0001
0000
0001
0100
1000
0000
,  // measure 54
0001
0000
0100
0010
0100
0001
1000
0000
,  // measure 55
0100
0000
0100
0000
1000
0010
0100
0002
,  // measure 56
0000
0100
0000
0200
0000
0303
0000
0000
,  // measure 57
0010
0000
0010
0000
1000
0001
1000
0000
,  // measure 58
0010
0000
0100
0000
0001
1000
0001
0000
,  // measure 59
0010
0100
1000
0000
0010
0000
1000
0000
,  // measure 60
0100
0010
0001
0000
0100
0001
1000
0000
,  // measure 61
2002
0000
0000
0000
,  // measure 62
3003
0000
0000
0000
;

//---------------dance-single - DDRDAIKENKAI----------------
#NOTES:
     dance-single:
     DDRDAIKENKAI:
     Easy:
     3:
     0.268,0.400,0.111,0.262,0.000: // measure 1
0000
0000
0000
0000
,  // measure 2
0000
0000
0000
0000
,  // measure 3
0000
0000
0000
0000
,  // measure 4
0000
0000
0000
0000
,  // measure 5
0000
0000
0000
0000
,  // measure 6
0000
0000
0000
0000
,  // measure 7
0000
0000
0000
0000
,  // measure 8
0000
0000
0000
0000
,  // measure 9
1000
0000
0001
0000
,  // measure 10
0100
0100
0100
0100
,  // measure 11
0010
0000
1000
0000
,  // measure 12
0100
0100
0100
0000
,  // measure 13
1000
0000
0001
0000
,  // measure 14
0000
0100
0100
0010
,  // measure 15
0020
0000
0000
0000
0000
0000
0000
0030
,  // measure 16
0000
0000
0000
0000
,  // measure 17
1001
0000
0001
0001
,  // measure 18
1000
0000
0100
0000
,  // measure 19
0010
0000
0001
0000
,  // measure 20
1000
1000
0001
0001
,  // measure 21
1000
0000
0010
0000
,  // measure 22
0100
0100
0001
0000
,  // measure 23
1000
0000
0001
0000
,  // measure 24
0200
0000
0020
0330
,  // measure 25
1000
0001
1000
1000
,  // measure 26
0001
1000
0001
0001
,  // measure 27
0200
0300
0001
0001
,  // measure 28
2000
3000
0010
0010
,  // measure 29
1000
0100
1000
1000
,  // measure 30
0001
0010
0001
0001
,  // measure 31
0200
0300
0002
0003
,  // measure 32
2002
0000
0000
0000
0000
3003
0000
0000
,  // measure 33
1000
0100
2000
3000
,  // measure 34
0001
0010
0002
0003
,  // measure 35
0100
0010
0100
0010
,  // measure 36
1000
0001
1000
0001
,  // measure 37
0010
0100
0010
0000
,  // measure 38
0100
1000
0100
0000
,  // measure 39
1000
0001
1000
0001
,  // measure 40
2000
0002
0000
3003
,  // measure 41
2002
3003
0220
0330
,  // measure 42
0100
0001
1000
0010
,  // measure 43
0100
0000
0001
0000
,  // measure 44
1000
0100
0010
0000
,  // measure 45
0220
0330
2002
3003
,  // measure 46
0001
0010
0100
1000
,  // measure 47
0001
0000
1000
0000
,  // measure 48
0010
0010
0010
0000
,  // measure 49
1000
1000
0001
0001
,  // measure 50
1001
1000
0001
0001
,  // measure 51
0100
0100
0010
0010
,  // measure 52
0100
0001
2000
3000
,  // measure 53
0001
0001
1000
1000
,  // measure 54
1001
1000
0010
0010
,  // measure 55
0100
0000
0010
0100
,  // measure 56
0220
0000
0000
0000
0000
0330
0000
0000
,  // measure 57
1001
0000
0001
0001
,  // measure 58
1000
0000
0100
0000
,  // measure 59
0010
0000
0001
0000
,  // measure 60
1000
1000
0001
0001
,  // measure 61
2002
0000
0000
0000
,  // measure 62
3003
0000
0000
0000
;
