#TITLE:Everybody;
#SUBTITLE:;
#ARTIST:SHINee;
#TITLETRANSLIT:;
#SUBTITLETRANSLIT:;
#ARTISTTRANSLIT:;
#GENRE:K-POP;
#CREDIT:;
#MENUCOLOR:;
#NEWMETERSYSTEM:NO;
#BANNER:Everybody.png;
#BACKGROUND:Everybody-bg.png;
#LYRICSPATH:;
#CDTITLE:CDtitle.png;
#MUSIC:Everybody;
#OFFSET:-1.905;
#SAMPLESTART:17.100;
#SAMPLELENGTH:16.200;
#SELECTABLE:YES;
#LISTSORT:;
#BPMS:0.000=125.994,187.000=251.988,195.000=62.997,197.000=125.994;
#STOPS:183.000=0.238
,186.500=0.238
;
#BGCHANGES:0.000=Everybody.avi=1.000=0=0=1,
99999=-nosongbg-=1.000=0=0=0 // don't automatically add -songbackground-
;
#ATTACKS:;

//---------------dance-single - DDRDAIKENKAI----------------
#NOTES:
     dance-single:
     DDRDAIKENKAI:
     Challenge:
     10:
     0.658,0.744,0.376,0.276,0.648:
0000
0000
0000
0000
,
0000
0000
0000
0000
,
0000
0000
0000
0000
,
0000
0000
0000
0000
,
0000
0000
0000
0000
,
0000
0000
0000
0000
,
0000
0000
0000
0000
,
0000
0000
0000
0000
,
0001
0100
0001
0000
0101
0000
0001
0000
1000
0010
1000
0000
1010
0000
0100
0000
,
1002
0000
0000
0000
1003
0001
0100
0010
2000
0000
0000
0000
3001
1000
0010
0100
,
0001
1000
0100
0000
1100
0000
0100
0000
0010
0001
0100
0000
0110
0000
0010
1000
,
0001
0000
0011
0000
1000
0000
1100
0000
0100
0010
0100
0000
1001
0000
0001
0000
,
1000
0000
0010
1000
0001
0000
0010
0000
1000
0010
0001
1000
0100
0000
0010
0001
,
0010
0000
0100
1000
0001
0000
0100
0000
1000
0100
0001
1000
0100
0000
1000
0000
,
0001
0010
0001
0000
0100
0010
0100
0000
0010
1000
0010
0000
1000
0001
0010
0000
,
0012
0000
0010
0000
0010
0000
0010
0000
0013
0001
0100
0010
1000
0000
0010
0000
,
0110
0000
0010
0000
0001
0000
0010
0000
0100
0000
0010
0000
1000
0100
1000
0000
,
0010
0001
0000
0010
0000
1000
0000
0200
0000
0000
0310
0000
0002
0000
0000
0013
,
0000
0000
0010
0001
0000
1000
0000
0100
0000
0010
0001
0000
1000
0010
0100
0001
,
0010
0001
0010
0001
0100
0010
1000
0001
1000
0100
1000
0100
0010
0001
0100
0001
,
0101
0000
0001
0000
0011
0000
0100
1000
0001
1000
0001
0000
1001
0000
0001
0000
,
0100
0000
0010
0000
1010
0000
0100
0001
0010
0001
0010
0000
0011
0000
0001
0000
,
0100
0000
0010
0000
0110
0000
0010
1000
0001
1000
0010
0000
0100
0001
0010
0000
,
1000
0000
0000
0000
0010
0000
0000
0000
1000
0000
0000
0000
0010
0000
0000
0000
1000
0000
0000
0000
0010
0000
0000
0000
0001
0000
0000
0000
0000
0000
0100
0000
0000
0010
0000
0000
0000
0000
0000
0010
0000
0000
0100
0000
0000
0000
0000
0000
,
0001
0010
0000
0100
0000
0000
1000
0001
2000
0001
0000
0001
0000
3001
0000
0000
,
0100
0010
0000
0100
0000
0000
0010
1000
0020
1000
0000
1000
0000
1030
0000
0000
,
0100
0010
0000
0100
0000
0000
1000
0001
1000
0000
1200
0000
0000
0000
0000
0000
,
0310
0001
0000
1000
0000
0000
0100
1000
0001
1000
0001
0000
0100
0010
1000
0000
,
0100
0000
1000
0000
0100
0000
1000
0000
0001
0100
0001
0100
0010
0100
0010
0000
,
1000
0000
0100
0000
0010
0000
0001
0000
1000
0100
1000
0100
0010
0100
0010
0000
,
0001
0000
1000
0000
0001
0000
0000
1000
0100
1000
0000
0100
0000
0010
0000
0002
,
0000
0023
0100
0230
1000
2300
0001
3002
,
1003
0000
0001
0100
0000
1000
0100
0000
0001
0000
4000
0000
3010
0000
0000
0000
,
1001
0000
0M00
0000
0010
0000
M000
0000
1000
0000
000M
0010
0000
0000
0M00
0001
,
1000
0000
001M
0000
0000
0000
0M00
1000
0001
0000
M010
0000
0000
0000
00M0
0000
,
0001
0000
MM00
0000
0100
0000
M00M
0000
1000
0000
00MM
0100
0000
0000
M0M0
0001
,
1000
0000
01MM
0000
0000
0000
0M0M
1000
0001
0000
M10M
0000
0010
0000
0MM0
0000
,
1MM1
0000
0000
0000
M001
0000
0010
0000
100M
0000
0000
0M10
0000
0000
0000
00M1
,
1000
0000
01M0
0000
0001
0000
0000
01M0
1000
0000
00M1
0000
0100
0000
0000
0000
,
M010
0000
0000
0000
100M
0000
0010
0000
0M01
0000
0000
M010
0000
0000
0000
100M
,
0010
0000
0001
0M00
1000
0000
0100
00M0
0001
0000
M000
0000
0101
0000
0000
0000
,
1100
1001
0011
0110
,
2002
3003
0000
2002
3003
0000
2002
3003
0000
2002
3003
0000
,
1001
1000
0010
0100
0002
0000
1003
0000
,
1001
1000
1001
0001
1001
1000
1001
0001
,
0011
0000
0011
0000
0011
0000
0011
0000
0011
0000
0011
0000
1001
0000
0010
1000
,
0010
0000
0000
1000
0000
0000
0010
0000
0000
1000
0000
0000
0010
0000
0000
1000
0000
0000
0010
0000
0000
1000
0000
0000
0010
0000
0000
1000
0000
0000
1001
0000
0000
0000
0000
0000
0004
0000
0000
0000
0040
0000
0000
0000
0000
0000
0000
0000
,
0000
0000
0000
0000
,
0000
0000
0000
0000
0000
0000
0000
0000
0000
0000
0000
0000
0000
0000
0000
0000
0000
0000
0000
0000
0000
0000
0000
0000
0000
0000
0000
0000
0003
0000
0000
0000
0030
0000
0000
0000
2000
0000
0000
0010
0000
0000
0010
0000
0000
3010
0000
0000
,
0001
0100
0000
0010
1000
0000
0020
0000
1000
0000
0000
0000
0000
0000
0000
0000
0100
0000
0000
0000
0000
0000
0000
0000
0001
0000
0000
0000
0000
0000
0000
0000
,
0130
0000
0001
0000
0012
0000
0000
0000
0013
0001
0100
0010
2000
0000
0000
0000
,
3100
1000
0010
0100
0001
0000
0010
0000
1000
0000
0010
0000
0002
0000
0000
0000
,
1003
0000
0010
0000
0100
0000
0101
0000
1000
0000
1100
0000
0001
1000
0001
0000
,
1001
0000
0100
0000
0110
0000
0010
1000
0100
0000
1000
0010
0100
0000
0001
0010
,
0001
0000
0100
0000
0010
0000
1000
0100
0010
0000
0100
1000
0001
0000
0010
0001
,
0200
0000
0010
0000
0310
0001
0010
0000
1000
0100
1000
0000
0100
0001
0100
0000
,
0010
0001
1000
0000
1002
0000
1000
0000
1000
0000
1000
0000
1003
0000
0001
0000
,
0100
0000
0010
0000
1001
0000
0100
0000
0010
0000
0100
1000
0000
0001
0100
0010
,
1000
0000
0001
0010
0000
0000
0001
1000
0100
1000
0200
0000
0310
0001
1000
0001
,
0200
0000
0301
1000
0000
0000
0010
0000
0001
0000
0010
1000
0000
0100
0010
0100
,
1000
0000
0010
0000
1000
0001
0000
1000
0001
0000
0100
0000
0001
0010
0100
1000
,
0010
1000
0100
0010
0001
0000
1000
0000
0100
0000
1000
0001
0000
0100
0010
0100
,
0010
0000
1000
0100
0000
1000
0010
0000
0100
0000
0001
0010
0000
0000
0100
0000
,
1000
0000
0001
0100
0010
0000
0010
1000
0100
0000
0100
0010
0001
1000
0001
1000
,
0001
0100
0001
0100
0010
1000
0100
0010
0001
0010
0100
1000
0010
0100
0010
0100
,
0220
0000
0000
0000
M330
0000
0000
0000
0M00
0000
0000
0000
00M0
0000
0000
000M
,
0000
0000
0000
M000
0000
0000
000M
0000
0000
0000
0000
M000
0000
0000
000M
0000
;

//---------------dance-single - DDRDAIKENKAI----------------
#NOTES:
     dance-single:
     DDRDAIKENKAI:
     Hard:
     8:
     0.513,0.600,0.176,0.422,0.199: // measure 1
0000
0000
0000
0000
,  // measure 2
0000
0000
0000
0000
,  // measure 3
0000
0000
0000
0000
,  // measure 4
0000
0000
0000
0000
,  // measure 5
0000
0000
0000
0000
,  // measure 6
0000
0000
0000
0000
,  // measure 7
0000
0000
0000
0000
,  // measure 8
0000
0000
0000
0000
,  // measure 9
0001
1000
1100
0000
0020
0000
0031
0100
,  // measure 10
0102
0000
0000
0000
1003
0010
1000
0010
0200
0000
0000
0000
0310
1000
0010
1000
,  // measure 11
0100
0001
0100
1000
0020
0000
0130
0001
,  // measure 12
0010
0000
1000
0000
0010
0000
0001
0000
1000
0000
0000
1000
0000
0000
1000
0000
,  // measure 13
0001
0000
0101
0000
0010
1000
0100
0000
,  // measure 14
0001
0000
0101
0000
0010
1000
0100
0000
,  // measure 15
1000
0100
1000
0010
0002
0000
0013
0000
,  // measure 16
2000
0001
0001
0001
3001
0010
0100
1000
,  // measure 17
0001
0100
0001
0100
0010
1000
0010
1000
,  // measure 18
0100
0001
0100
1000
0002
0000
1003
0000
,  // measure 19
0100
0010
0100
0010
0001
1000
0001
1000
,  // measure 20
0010
0001
0010
1000
0200
0000
2300
0000
,  // measure 21
3001
0010
0001
0010
1000
0010
1000
0010
,  // measure 22
0001
0100
0010
1000
0200
0000
0310
0000
,  // measure 23
0001
0100
0001
0100
1000
0100
1000
0100
,  // measure 24
0001
0000
1000
0000
0001
0000
1000
0000
0001
0000
1000
0000
0100
0000
0000
0010
0000
0000
0100
0000
0000
0010
0000
0000
,  // measure 25
0210
0000
0000
0310
0001
0100
0010
1000
,  // measure 26
1200
0000
0000
0310
0010
0001
0010
0100
,  // measure 27
2100
0000
0000
0000
0000
0000
3000
0000
0001
0000
0100
1000
0000
0000
0000
0000
,  // measure 28
1000
0000
0100
0001
0000
0000
0000
0000
0001
0000
0010
1000
0000
0010
0000
0000
,  // measure 29
0001
1000
0001
1000
0010
0100
0010
0100
,  // measure 30
1000
0100
1000
0100
0001
0100
0001
0100
,  // measure 31
1000
0010
1000
0010
0001
0010
0001
0010
,  // measure 32
1000
0100
0001
0010
1000
0100
0002
2000
,  // measure 33
0000
0000
0000
3003
,  // measure 34
2001
0000
0000
0000
3200
0000
0000
0000
0320
0000
0000
0031
0000
0000
0000
0200
,  // measure 35
0000
0000
0310
0000
0000
0000
0000
2000
0000
0000
3001
0000
0000
0000
0010
0000
,  // measure 36
0200
0000
0000
0000
2300
0000
0000
0000
3002
0000
0000
0103
0000
0000
0000
0020
,  // measure 37
0000
0000
1030
0000
0000
0000
0000
0200
0000
0000
0310
0000
0001
0000
0000
0000
,  // measure 38
1001
0000
0000
0000
0100
0000
2000
0000
3002
0000
0000
0203
0000
0000
0320
0000
,  // measure 39
0130
0000
0000
0000
0100
0000
0002
0000
0023
0000
0000
0230
0000
0000
2300
0000
,  // measure 40
3100
0000
0100
0010
0001
0000
0001
0100
,  // measure 41
0020
0000
0130
0001
1000
0000
1001
0000
,  // measure 42
1010
0110
0101
1001
,  // measure 43
0220
0330
0000
0220
0330
0000
0220
0330
0000
0220
0330
0000
,  // measure 44
1000
0001
0100
0010
2000
0000
3001
0000
,  // measure 45
1000
0001
1000
0001
1000
0001
1000
0001
,  // measure 46
1000
0000
1000
0000
1000
0000
1000
0000
1000
0000
1000
0000
1100
0000
0010
0001
,  // measure 47
0010
0001
0010
0001
0010
0001
0010
0001
0010
0001
0100
0000
0020
0000
0000
0000
,  // measure 48
0000
0000
0000
0000
,  // measure 49
0000
0000
0000
0000
0000
0000
0000
0000
0000
0000
0000
0000
0030
1000
0100
0001
,  // measure 50
0100
1000
0010
0200
1000
0000
0000
0000
0010
0000
0000
0000
0001
0000
0000
0000
,  // measure 51
0310
0000
0000
0000
0210
0000
0000
0000
0310
1000
0010
1000
0200
0000
0000
0000
,  // measure 52
0310
0001
0010
0001
0100
0000
1000
0000
0100
0000
0001
0000
0020
0000
0000
0000
,  // measure 53
0130
0000
1000
0000
0010
0000
0001
0000
0010
0000
1000
0000
0100
0000
0000
0100
,  // measure 54
0000
0100
0010
0001
0101
0000
0001
0100
,  // measure 55
1000
0100
0001
1000
1010
0000
0010
1000
,  // measure 56
0100
0010
0001
1000
0001
1000
0200
0000
,  // measure 57
0310
0000
0210
0010
0010
0310
0001
1000
,  // measure 58
0001
0000
1000
0000
0100
0000
0001
0000
0100
0000
1000
0001
0000
0001
0100
0000
,  // measure 59
1000
0100
0001
0010
0100
1000
0010
1000
,  // measure 60
0100
0000
0010
0000
0001
0000
1000
0000
0001
0000
0100
0001
0000
0001
1000
0000
,  // measure 61
0001
0000
0100
0000
0020
0000
2030
0000
3200
0000
2300
0000
3010
0100
0010
0000
,  // measure 62
1000
0001
1000
0000
0100
0000
1000
0000
0001
0000
0100
0010
0000
0010
0100
0000
,  // measure 63
0001
0000
1000
0100
0000
0000
1000
0000
0001
0000
1000
0100
0000
0000
1000
0000
,  // measure 64
0001
0100
0001
0010
1000
0010
0001
0001
,  // measure 65
1000
0000
1000
0000
0100
1000
0100
1000
0001
0100
0001
0100
0010
0100
0010
0100
,  // measure 66
0020
0030
0000
0000
;

//---------------dance-single - DDRDAIKENKAI----------------
#NOTES:
     dance-single:
     DDRDAIKENKAI:
     Medium:
     6:
     0.383,0.450,0.123,0.291,0.008:
0000
0000
0000
0000
,
0000
0000
0000
0000
,
0000
0000
0000
0000
,
0000
0000
0000
0000
,
0000
0000
0000
0000
,
0000
0000
0000
0000
,
0000
0000
0000
0000
,
0000
0000
0000
0000
,
2000
3200
0320
0031
,
1002
0000
1003
0001
0200
0000
0310
1000
,
0100
1000
0100
1000
0002
0000
1003
0000
,
0010
0000
0100
0000
0000
0000
0100
0000
0001
0000
0000
0001
0000
0000
0001
0000
,
2000
0000
3200
0000
0310
0001
0100
0000
,
0002
0000
0023
0000
0130
1000
0001
0000
,
0100
0010
0100
0010
2000
0000
3001
0000
,
2002
0000
0000
3003
,
0001
0000
1000
0000
0100
0010
0100
0000
,
1000
0001
1000
0001
0200
0000
0310
0000
,
0100
0000
0001
0000
0010
0100
0010
0000
,
0100
1000
0100
1000
0020
0000
0230
0000
,
0301
0000
0101
0000
0010
1000
0100
0000
,
0001
0000
0101
0000
0010
1000
0100
0000
,
1000
0010
1000
0000
0100
0001
0100
0000
,
1000
0001
1000
0001
1000
0001
1000
0000
,
1002
0000
0000
0000
0100
0100
0103
0000
,
2001
0000
0000
0000
0100
0100
3100
0000
,
0210
0000
0000
0000
1000
1000
1300
0000
,
0010
0100
0010
0000
1000
0001
1000
0000
,
0001
0000
0100
0000
1000
0100
0001
0100
,
1000
0000
0100
0000
0001
0010
1000
0010
,
0001
0000
0010
0000
0100
1000
0010
0000
,
0100
0001
0100
0001
1000
0100
1000
0200
,
0020
0000
0000
0330
,
0001
1000
0000
0100
0000
1000
0000
0001
,
0100
1000
0000
0100
0000
0001
0000
1000
,
0100
0001
0000
0100
0000
1000
0000
0001
,
0010
1000
0000
1000
0010
0001
1000
0000
,
1001
0000
1000
0000
0100
0000
0010
0001
,
0100
0000
0010
0000
1000
0000
0100
0010
,
0001
0000
0100
0010
1000
0000
0001
1000
,
0002
0000
0000
0100
0103
0000
0120
0000
,
1030
0100
0001
0010
,
1000
1000
1000
1000
,
1000
0100
0001
0010
1000
0000
1000
0000
,
1000
0100
1000
0100
1000
0100
1000
0100
,
1000
0001
1000
0001
1000
0001
1001
0010
,
0100
0010
0100
0010
0100
0110
0200
0000
,
0000
0000
0000
0000
,
0000
0000
0000
0002
,
0000
0303
0002
0000
0023
0000
0230
0000
,
1300
0000
2001
0000
3100
1000
0020
0000
,
0130
0001
0010
0100
0010
0100
2000
0000
,
3001
0000
0000
0000
0100
0000
0010
0000
0000
0000
0010
0000
1000
0000
0000
1000
,
0000
1000
0001
0000
0101
0000
0010
1000
,
0100
0000
0001
0000
0101
0000
0010
1000
,
0100
0000
0001
1000
0001
1000
0200
0000
,
0310
2002
0000
0000
,
3003
0000
0100
0010
0001
0000
0100
0010
,
1000
0000
0100
0010
0100
0010
0001
1000
,
0001
0000
1000
0001
0100
0000
0001
1000
,
0100
0000
0010
0001
0010
0001
1000
0100
,
1000
0000
0001
0100
0010
0000
1000
0100
,
0010
0000
0001
1000
0001
0000
0100
0010
,
0100
0000
0020
0000
2030
0000
3100
0010
,
0001
0000
0100
0010
0100
0010
1000
1000
,
2002
3003
0000
0000
;

//---------------dance-single - DDRDAIKENKAI----------------
#NOTES:
     dance-single:
     DDRDAIKENKAI:
     Beginner:
     1:
     0.162,0.174,0.038,0.222,0.000:
0000
0000
0000
0000
,
0000
0000
0000
0000
,
0000
0000
0000
0000
,
0000
0000
0000
0000
,
0000
0000
0000
0000
,
0000
0000
0000
0000
,
0000
0000
0000
0000
,
0000
0000
0000
0000
,
1000
1000
1000
1000
,
2000
0000
3000
0000
,
0001
0001
0001
0001
,
0002
0000
0003
0000
,
0100
0100
0100
0000
,
0010
0010
0010
0000
,
1000
0000
0001
0000
,
2002
0000
0000
3003
,
0000
1000
1000
0000
,
0001
0001
0001
0000
,
1000
0000
0100
0000
,
0010
0010
0010
0010
,
0010
0000
0001
0000
,
0100
0100
0100
0000
,
0010
0000
1000
0000
,
0100
0100
0100
0100
,
0200
0000
0300
0000
,
0020
0000
0030
0000
,
0002
0000
0003
0000
,
2000
0000
3000
0000
,
0001
0001
0001
0000
,
1000
1000
1000
0000
,
0010
0000
0100
0000
,
0020
0000
0030
0000
,
0220
0000
0000
0330
,
0000
0002
0000
0000
,
0003
0000
0000
0000
,
2000
0000
3000
0000
,
0020
0000
0030
0000
,
0220
0000
0330
0000
,
2000
0000
3000
0000
,
0002
0000
0003
0000
,
0200
0000
0300
0000
,
0010
0010
0010
0000
,
1000
1000
1000
0000
,
0001
0001
0001
0000
,
1000
1000
1000
0000
,
0020
0000
0000
0000
0000
0000
0030
0200
,
0000
0000
0000
0000
0000
0300
0002
0000
,
0000
0000
0000
0000
,
0000
0000
0000
0003
,
0000
1000
1000
1000
,
0000
2002
0000
3003
,
0000
0001
0001
0001
,
0000
0200
0000
0300
,
0000
0010
0010
0010
,
0000
1000
1000
1000
,
0000
0001
0001
0001
,
0000
2002
0000
3003
,
0000
0001
0001
0000
,
1000
0000
0001
0000
,
1000
0000
1000
0000
,
0001
0002
0000
0003
,
0000
1000
0000
0100
,
0000
0010
0010
0010
,
0000
0001
0001
0001
,
0000
1000
1000
2000
,
3000
0000
0000
0000
;

//---------------dance-single - DDRDAIKENKAI----------------
#NOTES:
     dance-single:
     DDRDAIKENKAI:
     Easy:
     3:
     0.259,0.350,0.115,0.299,0.000:
0000
0000
0000
0000
,
0000
0000
0000
0000
,
0000
0000
0000
0000
,
0000
0000
0000
0000
,
0000
0000
0000
0000
,
0000
0000
0000
0000
,
0000
0000
0000
0000
,
0000
0000
0000
0000
,
1000
0001
0100
0010
,
0220
0000
0330
0000
,
0010
0100
0001
1000
,
2001
0000
0001
3001
,
1000
0100
0010
0001
,
0001
0100
0010
1000
,
1000
0001
1000
0001
,
2002
0000
0000
3003
,
0001
0001
0001
0100
,
1000
1000
1000
0100
,
0010
0010
0010
1000
,
0100
0010
0100
0010
,
0001
0001
0001
0010
,
1000
1000
1000
0010
,
0100
0100
0100
1000
,
0010
0100
0010
0100
,
0220
0330
1000
0001
,
2002
3003
0100
0010
,
0220
0330
2000
3000
,
0002
0003
0200
0300
,
0001
0100
0001
0100
,
0010
1000
0010
1000
,
0100
1000
0100
1000
,
0010
0001
0100
2000
,
0002
0000
0000
3003
,
0120
0000
0000
0000
,
2030
0000
0000
0000
,
3200
0000
0000
0000
,
0320
0000
0000
0030
,
1002
0000
1003
0100
,
0020
0030
0001
0100
,
2000
0000
3200
0000
,
0302
0000
1003
1001
,
0001
0010
0100
1000
,
0001
0001
0001
0001
,
0001
0010
0100
1000
,
0001
0001
0001
0001
,
1000
0000
1000
0000
1000
0000
1001
0001
,
0000
0001
0000
0001
0000
1001
0220
0000
,
0000
0000
0000
0000
,
0000
0000
0000
0330
,
0000
1000
0100
0010
,
0001
2002
3003
0200
,
0300
0010
0100
0001
,
1000
0200
0000
0010
,
0310
0001
0100
0010
,
1000
0002
0203
0320
,
2030
3001
0001
0001
,
0100
0220
0000
0000
,
0330
1000
0100
1000
,
0010
0100
0001
0010
,
0100
1000
0010
0100
,
0001
1000
0100
0010
,
0001
1000
0010
0001
,
1000
0001
0010
1000
,
0001
1000
0100
0001
,
1000
0001
0100
1000
,
2002
3003
0000
0000
;
