#TITLE:Espada;
#SUBTITLE:(Alonso Montero Remix);
#ARTIST:Javiera Mena;
#TITLETRANSLIT:;
#SUBTITLETRANSLIT:;
#ARTISTTRANSLIT:;
#GENRE:;
#CREDIT:;
#MENUCOLOR:;
#NEWMETERSYSTEM:NO;
#BANNER:Espada (Alonso Montero Remix).png;
#BACKGROUND:Espada (Alonso Montero Remix)-bg.png;
#LYRICSPATH:Espada (Alonso Montero Remix).lrc;
#CDTITLE:CDTitle.png;
#MUSIC:Espada (Alonso Montero Remix).ogg;
#OFFSET:-0.020;
#SAMPLESTART:58.795;
#SAMPLELENGTH:14.960;
#SELECTABLE:YES;
#LISTSORT:;
#BPMS:0.000=127.995;
#STOPS:;
#BGCHANGES:0.000=Espada (Alonso Montero Remix).avi=1.000=0=0=0,
271.500=Espada (Alonso Montero Remix)-bg.png=1.000=1=0=0,
99999=-nosongbg-=1.000=0=0=0 // don't automatically add -songbackground-
;
#ATTACKS:;

//---------------dance-single - DDRDAIKENKAI----------------
#NOTES:
     dance-single:
     DDRDAIKENKAI:
     Hard:
     7:
     0.529,0.473,0.333,0.278,0.066: // measure 1
0000
0000
0000
0000
,  // measure 2
0000
0000
0000
0000
,  // measure 3
0000
0000
0000
0000
,  // measure 4
0000
0000
0000
0000
,  // measure 5
1001
0000
1000
0010
0000
1000
0100
0000
,  // measure 6
0010
0000
0001
0100
0000
0001
0010
0000
,  // measure 7
0001
0000
0100
0010
0000
0100
0001
1000
,  // measure 8
0000
0100
0000
0010
0000
0001
1002
0000
,  // measure 9
1003
1000
0001
0100
0010
1000
0001
0000
,  // measure 10
1001
0000
1100
0000
0010
0001
0100
0000
,  // measure 11
0001
0001
1000
0010
0100
0001
1000
1000
,  // measure 12
0200
0000
0310
0002
1000
0003
1001
0000
,  // measure 13
0001
0010
0100
1000
0010
0100
0001
1000
,  // measure 14
0200
0000
0320
0000
0031
1000
1100
0000
,  // measure 15
1000
0010
0100
0001
0010
0100
1000
0001
,  // measure 16
0200
0000
0302
0000
1003
0010
0110
0000
,  // measure 17
2001
0000
0000
0010
0000
0010
0000
3010
,  // measure 18
1000
0100
1000
0010
0000
0010
1000
0100
,  // measure 19
0000
0100
0010
0001
0000
0001
0100
0010
,  // measure 20
0000
0010
1000
0001
0000
1001
0001
0101
,  // measure 21
0000
0100
0010
0001
0000
0001
0010
1000
,  // measure 22
0000
1000
0100
0010
0000
0010
0100
1000
,  // measure 23
0000
1000
0010
0100
0000
0100
0001
0010
,  // measure 24
0002
0000
2003
0000
3010
0100
0120
0000
,  // measure 25
0130
0001
0010
0100
1000
0010
0001
0010
,  // measure 26
1000
0100
0010
0001
0100
1000
0100
0001
,  // measure 27
0010
0010
0100
0100
1000
0010
0001
0001
,  // measure 28
0010
1000
0001
0100
0010
1000
1001
0000
,  // measure 29
0001
1000
0100
0010
0001
0100
0010
1000
,  // measure 30
0001
0010
0100
1000
0010
0100
0001
1000
,  // measure 31
0100
0100
1000
1000
0001
0001
1000
1000
,  // measure 32
0010
0010
0010
1000
0001
0100
0010
0000
,  // measure 33
1001
0000
0101
0000
1000
0100
0010
0000
,  // measure 34
1001
0000
1100
0000
0010
0001
0100
0000
,  // measure 35
0010
1000
0010
0100
0001
0010
0100
1000
,  // measure 36
0010
0100
0001
1000
0100
0010
1001
0000
,  // measure 37
1100
0000
0101
0000
0010
0100
1000
0000
,  // measure 38
1010
0000
0011
0000
0100
0010
1000
0000
,  // measure 39
0100
1000
0010
0100
0001
0010
0100
0010
,  // measure 40
0002
0000
1003
1000
0010
0100
0110
0000
,  // measure 41
0010
0000
0000
0010
0000
0000
1000
0000
0000
0001
0000
0000
1000
0000
0000
0000
,  // measure 42
0001
0000
0000
0001
0000
0000
1000
0000
0000
0010
0000
0000
0100
0000
0000
0000
,  // measure 43
0010
0000
0000
0010
0000
0000
1000
0000
0000
0100
0000
0000
0010
0000
0000
0000
,  // measure 44
0100
0000
0000
0100
0000
0000
1000
0000
0001
0000
0100
0000
0010
0000
1000
0000
,  // measure 45
0001
1001
1100
0101
,  // measure 46
1020
0000
0000
0000
0230
0000
0000
0000
0302
0000
0000
0000
0013
0000
0100
1000
,  // measure 47
0010
1010
1001
0101
,  // measure 48
0021
0000
0000
0000
0230
0000
0000
0000
2300
0000
0000
0000
3100
0000
0010
0001
,  // measure 49
0100
0001
0100
0100
0010
1000
0010
0010
,  // measure 50
0100
0010
0100
0010
1000
0001
1000
1000
,  // measure 51
0001
0001
1000
1000
0010
0010
0001
0001
,  // measure 52
0100
1000
0100
0001
0010
1000
0001
0000
,  // measure 53
1002
0000
1003
0010
1000
0100
0010
0000
,  // measure 54
0012
0000
1003
0001
0100
0010
1000
0000
,  // measure 55
1001
0001
0100
1000
0000
1000
0100
0001
,  // measure 56
0000
0001
0010
0001
0100
0010
1000
0000
,  // measure 57
0120
0000
1030
0100
0001
0100
1000
0000
,  // measure 58
0012
0000
1003
0010
0001
0010
2000
0000
,  // measure 59
3100
0010
0001
0100
1000
0100
0001
0010
,  // measure 60
0200
0000
0310
0010
0001
1000
1001
0000
,  // measure 61
2010
3100
0012
0103
,  // measure 62
1020
0032
0023
2030
,  // measure 63
3001
1000
0100
0010
0001
0100
0010
0100
,  // measure 64
0001
0010
1000
0010
0001
0100
0110
0000
,  // measure 65
1002
0103
0012
1003
,  // measure 66
0120
0032
0203
2300
,  // measure 67
3010
0000
1000
0100
0000
0000
1000
0010
0000
0000
1000
0100
0000
0000
1000
0010
,  // measure 68
0000
0000
0100
0001
0000
0000
0100
0001
0000
0000
0100
0001
0000
0000
1000
0001
;

//---------------dance-single - DDRDAIKENKAI----------------
#NOTES:
     dance-single:
     DDRDAIKENKAI:
     Medium:
     5:
     0.415,0.446,0.093,0.464,0.000: // measure 1
0000
0000
0000
0000
,  // measure 2
0000
0000
0000
0000
,  // measure 3
0000
0000
0000
0000
,  // measure 4
0000
0000
0000
0000
,  // measure 5
1000
0001
0100
0010
,  // measure 6
1000
0010
0100
0001
,  // measure 7
1000
0100
0010
0001
,  // measure 8
1000
1000
0001
0001
,  // measure 9
1000
0100
1000
0100
0000
0010
0001
0000
,  // measure 10
2000
0000
3002
0000
0203
0000
0310
1000
,  // measure 11
0010
0000
1000
0100
0000
0010
0001
1000
,  // measure 12
0001
0000
0000
2002
0000
0000
3003
0000
,  // measure 13
0001
0000
0010
0001
0000
0001
0100
0001
,  // measure 14
0100
0010
1000
0100
,  // measure 15
0010
0000
0010
0100
0000
0100
1000
0100
,  // measure 16
1000
0010
0100
0001
,  // measure 17
1001
0000
0000
0001
0000
0001
0000
0001
,  // measure 18
0000
1000
0010
1000
0000
0001
0000
1000
,  // measure 19
0000
0010
0100
0010
0000
1000
0000
0001
,  // measure 20
0000
0010
0100
0010
0000
0001
1000
0001
,  // measure 21
0000
0100
0010
0100
0000
0010
0000
1000
,  // measure 22
0000
0100
0010
0100
0000
1000
0000
0001
,  // measure 23
0000
0100
0010
0100
0000
0001
1000
0001
,  // measure 24
0002
1000
0200
0303
,  // measure 25
0010
0000
1000
0000
0100
0010
0001
0000
,  // measure 26
0100
0000
0010
0000
1000
0010
0100
0000
,  // measure 27
0001
0010
0001
0000
1000
0100
1000
0000
,  // measure 28
0010
0100
0010
0000
0220
0000
0330
0000
,  // measure 29
0010
0000
1000
0000
0001
0010
0001
0001
,  // measure 30
1000
0000
0100
0000
1000
0010
1000
1000
,  // measure 31
0001
0010
0100
1000
,  // measure 32
0010
0100
0010
0100
0010
0100
0001
0000
,  // measure 33
1002
0000
1000
0000
0100
0100
0103
0000
,  // measure 34
2001
0000
0001
0000
0100
0100
3200
0000
,  // measure 35
0310
0001
0010
0000
0100
1000
0100
0000
,  // measure 36
0010
0001
0100
0000
0010
1000
0100
0000
,  // measure 37
0120
0000
0001
0000
0100
0100
0130
0000
,  // measure 38
0210
0000
1000
0000
0010
0010
0310
0000
,  // measure 39
0010
0001
0010
0000
0100
1000
0001
0000
,  // measure 40
1001
0000
0000
1000
0010
0010
0020
0000
,  // measure 41
2030
0000
0000
0000
0000
0000
3000
0001
,  // measure 42
0002
0000
0000
0000
0000
0000
0003
0100
,  // measure 43
0200
0000
0000
0300
,  // measure 44
0020
0000
0000
1030
0010
1000
0010
0000
,  // measure 45
1000
0100
0010
0001
,  // measure 46
0020
0000
0230
0000
2300
0000
3001
0001
,  // measure 47
0100
0010
1000
0001
,  // measure 48
2000
0000
3020
0000
0230
0000
0301
0001
,  // measure 49
0010
1000
0100
0001
,  // measure 50
0020
0000
0032
0000
0203
0000
1300
1000
,  // measure 51
0100
0001
1000
0001
,  // measure 52
0100
0010
0100
0010
0100
0010
1000
0000
,  // measure 53
1002
0000
0103
0000
0010
1000
0010
0000
,  // measure 54
0120
0000
1030
0000
0100
0010
0002
0000
,  // measure 55
1003
0100
1000
0000
0010
0100
0010
0000
,  // measure 56
0100
0001
0100
0000
0001
0010
0001
0000
,  // measure 57
0012
0000
1003
0000
0100
1000
0001
0000
,  // measure 58
0012
0000
0103
0000
0010
1000
0200
0000
,  // measure 59
2300
3020
0230
0302
,  // measure 60
2003
0000
0000
0010
0010
0010
3010
0000
,  // measure 61
0200
0302
0023
0230
,  // measure 62
0320
0032
2003
3200
,  // measure 63
0320
0000
0001
0000
0031
0100
0001
0100
,  // measure 64
0020
2030
3200
1300
,  // measure 65
0020
0230
0302
0203
,  // measure 66
0320
2030
3002
0023
,  // measure 67
0032
1000
0000
1000
0000
0100
0000
0100
,  // measure 68
0000
0010
0000
0010
0000
0010
0000
0013
;

//---------------dance-single - DDRDAIKENKAI----------------
#NOTES:
     dance-single:
     DDRDAIKENKAI:
     Easy:
     3:
     0.254,0.289,0.101,0.278,0.000: // measure 1
0000
0000
0000
0000
,  // measure 2
0000
0000
0000
0000
,  // measure 3
0000
0000
0000
0000
,  // measure 4
0000
0000
0000
0000
,  // measure 5
1001
0000
0001
0001
,  // measure 6
0100
0000
0010
0010
,  // measure 7
1000
0000
0100
0000
,  // measure 8
0010
0000
0001
0000
,  // measure 9
1001
1000
0001
1000
,  // measure 10
0200
0000
0300
0000
,  // measure 11
0010
0010
0001
1000
,  // measure 12
0002
0000
2000
3003
,  // measure 13
0010
0010
0100
0010
,  // measure 14
2000
0000
3200
0000
,  // measure 15
0310
0010
0001
1000
,  // measure 16
0002
0000
2000
3003
,  // measure 17
0220
0000
0000
0330
,  // measure 18
1001
0000
0001
0000
,  // measure 19
1000
0000
0100
0000
,  // measure 20
0010
0010
0001
0000
,  // measure 21
0100
0100
0010
0000
,  // measure 22
1000
1000
0001
0000
,  // measure 23
0010
0000
0001
0000
,  // measure 24
2002
0000
3003
0000
,  // measure 25
0001
1000
0100
0100
,  // measure 26
1000
0001
0100
0100
,  // measure 27
0010
0010
1000
1000
,  // measure 28
0001
1000
2002
3003
,  // measure 29
0001
0010
0100
0100
,  // measure 30
0010
0001
0100
0100
,  // measure 31
0010
1000
0100
0010
,  // measure 32
0001
0001
0001
0001
,  // measure 33
2002
0000
0000
3003
,  // measure 34
2000
0000
0000
3010
,  // measure 35
0010
0100
0001
0100
,  // measure 36
0010
1000
0100
0010
,  // measure 37
0220
0000
0000
0330
,  // measure 38
2001
0000
0000
3001
,  // measure 39
0001
1000
0010
0100
,  // measure 40
0002
0000
2000
3003
,  // measure 41
0200
0000
0000
0300
,  // measure 42
0020
0000
0000
0030
,  // measure 43
0002
0000
0000
0003
,  // measure 44
2000
0000
0000
3000
,  // measure 45
0010
0010
0010
0010
,  // measure 46
1000
0001
1000
0001
,  // measure 47
0100
0100
0100
0100
,  // measure 48
0001
1000
0001
1000
,  // measure 49
0001
0001
0001
0001
,  // measure 50
0100
0010
0100
0010
,  // measure 51
1000
1000
1000
1000
,  // measure 52
0010
0010
0010
0100
,  // measure 53
0220
0000
0000
0330
,  // measure 54
1002
0000
0000
1000
,  // measure 55
1003
0100
1000
0010
,  // measure 56
0100
0001
0010
0001
,  // measure 57
2002
0000
0000
3003
,  // measure 58
0210
0000
0000
0010
,  // measure 59
0310
1000
0001
0100
,  // measure 60
0020
0000
0200
0330
,  // measure 61
0010
1000
0001
1000
,  // measure 62
0001
0010
0100
1000
,  // measure 63
0002
0000
0000
1003
,  // measure 64
0001
1000
0010
0100
,  // measure 65
0001
0100
0010
0100
,  // measure 66
0001
0010
0001
0100
,  // measure 67
0020
0000
0000
0000
,  // measure 68
2000
0000
0000
0000
0000
0000
0000
0000
0000
0000
0000
0000
0000
0000
0000
0000
0000
0000
0000
0000
0000
0000
0000
0000
0000
0000
0000
0000
0000
0000
0000
0000
0000
0000
0000
0000
0000
0000
0000
0000
0000
0000
0000
0000
0000
0000
0000
0000
0000
0000
0000
0000
0000
0000
0000
0000
0000
0000
0000
0000
0000
0000
0000
0000
0000
0000
0000
0000
0000
0000
0000
0000
0000
0000
0000
0000
0000
0000
0000
0000
0000
0000
0000
0000
0000
0000
0000
0000
0000
0000
0000
0000
0000
0000
0000
0000
0000
0000
0000
0000
0000
0000
0000
0000
0000
0000
0000
0000
0000
0000
0000
0000
0000
0000
0000
0000
0000
0000
0000
0000
0000
0000
0000
0000
0000
0000
0000
0000
0000
0000
0000
0000
0000
0000
0000
0000
0000
0000
0000
0000
0000
0000
0000
0000
0000
0000
0000
0000
0000
0000
0000
0000
0000
0000
0000
0000
0000
0000
0000
0000
0000
0000
0000
0000
0000
0000
0000
0000
0000
3030
0000
0000
0000
0000
0000
0000
0000
0000
0000
0000
0000
0000
0000
0000
0000
0000
0000
0000
0000
0000
0000
0000
;
