#TITLE:DYNAMITE;
#SUBTITLE:;
#ARTIST:E-ROTIC;
#TITLETRANSLIT:;
#SUBTITLETRANSLIT:;
#ARTISTTRANSLIT:;
#GENRE:;
#CREDIT:;
#MENUCOLOR:;
#NEWMETERSYSTEM:NO;
#BANNER:DYNAMITE.png;
#BACKGROUND:DYNAMITE-bg.png;
#LYRICSPATH:;
#CDTITLE:CDTitle.png;
#MUSIC:DYNAMITE.ogg;
#OFFSET:-2.303;
#SAMPLESTART:53.525;
#SAMPLELENGTH:12.540;
#SELECTABLE:YES;
#LISTSORT:;
#BPMS:0.000=152.460;
#STOPS:128.000=0.787
,238.000=0.787
;
#BGCHANGES:;
#ATTACKS:;

//---------------dance-single - DDRDAIKENKAI----------------
#NOTES:
     dance-single:
     DDRDAIKENKAI:
     Hard:
     7:
     0.559,0.553,0.055,0.403,0.014: // measure 1
0000
0000
0000
0000
,  // measure 2
0000
0000
0000
0000
,  // measure 3
0000
0000
0000
0000
,  // measure 4
0000
0000
0000
0000
,  // measure 5
0000
0000
0000
0000
,  // measure 6
0000
0000
0000
0000
,  // measure 7
0000
0000
0000
0000
,  // measure 8
0000
0000
0000
0000
,  // measure 9
1001
0000
0001
0100
0000
0100
0010
1000
,  // measure 10
0010
0000
0010
0100
0000
0100
0010
0100
,  // measure 11
0001
0000
0001
0100
0000
0100
0001
0010
,  // measure 12
0001
0000
0001
1000
0000
1000
0100
0010
,  // measure 13
0001
0000
0001
0100
0000
0100
0010
0100
,  // measure 14
0010
0000
0010
0100
0000
0100
0010
0100
,  // measure 15
0001
0000
0001
0100
0000
0100
0010
0100
,  // measure 16
0110
0000
0010
1000
0000
1000
0100
0010
,  // measure 17
0001
0010
0100
1000
0000
1000
0100
1000
,  // measure 18
0010
0100
0001
1000
0000
1000
0001
0100
,  // measure 19
0010
1000
0100
1000
0000
1000
0001
0010
,  // measure 20
0100
0000
0100
1000
0000
1000
0001
0100
,  // measure 21
0010
1000
0100
1000
0000
1000
0010
0100
,  // measure 22
0001
0010
0100
1000
0000
1000
0001
0010
,  // measure 23
0001
0100
0010
0100
0000
0100
0010
0100
,  // measure 24
0001
0000
0001
1000
0000
1000
0100
1000
,  // measure 25
0001
0000
1000
0001
0100
0010
1000
0000
,  // measure 26
0010
0100
0010
0100
0001
1000
0100
0000
,  // measure 27
0010
0001
0010
0001
0100
0010
1000
0000
,  // measure 28
0100
0010
0100
0010
0100
1000
0001
0000
,  // measure 29
0200
0000
0310
1000
0001
0100
0010
0000
,  // measure 30
1000
0100
1000
0100
0010
0001
0100
0000
,  // measure 31
0010
1000
0100
1000
0001
0100
0001
0000
,  // measure 32
0102
0000
0013
0100
1000
0001
0100
0000
,  // measure 33
0110
0010
1000
0020
0000
1030
0100
1000
,  // measure 34
0002
0000
0003
2001
0000
3001
0100
0010
,  // measure 35
2000
0000
3001
0100
0000
0010
0000
2000
,  // measure 36
0000
3100
0010
0001
0010
0100
0010
0100
,  // measure 37
2000
0000
3001
0020
0000
0130
0000
0020
,  // measure 38
0000
0130
1000
0100
1000
0010
0100
0001
,  // measure 39
2000
0000
3001
0200
0000
0301
0010
0200
,  // measure 40
0000
0310
0001
0100
0010
1000
0100
1000
,  // measure 41
0002
0000
0013
0002
0000
0103
0000
0020
,  // measure 42
0000
0130
0000
0010
1000
0100
1000
0010
,  // measure 43
0000
0100
0000
0001
0010
1000
0010
0001
,  // measure 44
0000
0000
1000
0000
0000
0000
0001
0100
0001
0000
0100
0000
0010
0000
1000
0000
,  // measure 45
0000
0100
0000
0010
0200
0000
2300
0000
,  // measure 46
3020
0000
0032
0000
0013
0100
0010
2000
,  // measure 47
0000
3010
0000
0010
1000
0100
1000
0020
,  // measure 48
0000
0000
0130
0000
0000
0000
0001
0010
0001
0000
0010
0000
0100
0000
0020
0000
,  // measure 49
0000
0031
0200
0000
0320
0000
2030
0000
,  // measure 50
3200
0000
0302
0000
0103
1000
0100
1000
,  // measure 51
0100
1000
0100
1000
0200
0000
2300
0000
,  // measure 52
3020
0000
0230
0000
0301
0000
0010
0100
,  // measure 53
0010
0001
0100
0000
0010
1000
0100
1000
,  // measure 54
0010
0100
0001
0000
0010
0100
1000
0001
,  // measure 55
0100
0010
1000
0000
0100
0010
0001
1000
,  // measure 56
0010
0100
0001
0000
1001
0000
0001
0100
,  // measure 57
0010
1000
0100
0010
0001
0100
0001
0100
,  // measure 58
1000
0100
0001
0010
0100
1000
0100
1000
,  // measure 59
0001
0100
0010
1000
0002
0000
1003
0010
,  // measure 60
0100
0001
1000
0000
1001
0001
0010
0002
,  // measure 61
0000
0013
0100
1000
0001
0000
0000
2001
,  // measure 62
0000
3001
0100
0010
2000
0000
3010
0200
,  // measure 63
0000
0301
0000
0020
0000
0130
0010
0001
,  // measure 64
0010
0100
0010
0100
2000
0000
3001
0020
,  // measure 65
0000
0130
0000
0020
0000
0130
0010
0100
,  // measure 66
1000
0100
0010
0001
2000
0000
3001
0200
,  // measure 67
0000
0301
1000
0020
0000
1030
0100
1000
,  // measure 68
0010
0100
1000
0100
0002
0000
0013
0002
,  // measure 69
0000
0103
0000
0020
0000
1030
0000
0001
,  // measure 70
1000
0100
1000
0010
0000
0100
0000
0001
,  // measure 71
0010
0000
1000
0000
0010
0000
0001
0000
0000
0000
1000
0000
0000
0000
0010
0100
,  // measure 72
0010
1000
0100
1000
0000
0010
0000
0100
,  // measure 73
0002
0023
0230
2300
,  // measure 74
3001
0100
0001
2000
0000
3001
0000
0100
,  // measure 75
0010
0000
1000
0000
0100
0000
0020
0000
0000
0000
0130
0000
0000
0000
1000
0001
,  // measure 76
1000
0001
0100
0010
0000
1000
0200
0000
,  // measure 77
2300
3020
0032
0023
,  // measure 78
1030
0100
1000
0010
0000
0100
0001
0010
,  // measure 79
0100
1000
0001
0100
0000
0010
1000
0100
,  // measure 80
0010
0001
1000
0100
0000
1000
0001
0100
,  // measure 81
0001
0000
0001
0010
0000
0010
0100
1000
,  // measure 82
0010
1000
0100
0001
0000
0100
1000
0001
,  // measure 83
0100
0010
1000
0100
0000
1000
0010
0100
,  // measure 84
0001
0010
0100
0010
0000
0001
0010
0100
,  // measure 85
1000
0000
1000
0001
0000
0001
0100
0010
,  // measure 86
1000
0000
1000
0100
0000
0100
1000
0100
,  // measure 87
0010
0000
0010
0100
0000
0100
0010
0100
,  // measure 88
0010
0000
0010
0001
0000
0001
0010
0100
,  // measure 89
0010
0000
0010
0001
0000
0001
0010
0100
,  // measure 90
2000
0000
0000
0000
,  // measure 91
3000
0000
0000
0000
;

//---------------dance-single - DDRDAIKENKAI----------------
#NOTES:
     dance-single:
     DDRDAIKENKAI:
     Medium:
     6:
     0.447,0.492,0.164,0.123,0.000: // measure 1
0000
0000
0000
0000
,  // measure 2
0000
0000
0000
0000
,  // measure 3
0000
0000
0000
0000
,  // measure 4
0000
0000
0000
0000
,  // measure 5
0000
0000
0000
0000
,  // measure 6
0000
0000
0000
0000
,  // measure 7
0000
0000
0000
0000
,  // measure 8
0000
0000
0000
0000
,  // measure 9
1000
0000
0000
0001
0000
0000
0100
0000
,  // measure 10
1000
0000
0000
0100
0000
0000
0010
0000
,  // measure 11
1000
0000
0000
0001
0000
0000
0100
0000
,  // measure 12
0001
0000
0000
1000
0000
0000
0100
0000
,  // measure 13
0010
0000
0010
0000
0001
1000
0001
0000
,  // measure 14
0100
0000
0100
0000
0001
1000
0001
0010
,  // measure 15
0010
0000
0100
0000
1000
0001
1000
0000
,  // measure 16
1100
0000
0010
0200
0000
0010
0310
0000
,  // measure 17
0110
0000
1000
0100
0000
0001
0100
0000
,  // measure 18
1000
0000
0001
0010
0000
1000
0010
0000
,  // measure 19
0001
0000
0100
0010
0000
1000
0010
0000
,  // measure 20
0100
0000
0100
0001
0000
0001
1000
0100
,  // measure 21
1000
0000
0100
0010
0000
0001
0100
0000
,  // measure 22
0010
0000
1000
0010
0000
0100
0001
0000
,  // measure 23
0010
0000
0001
1000
0000
0100
1000
0000
,  // measure 24
1001
1100
1001
0101
,  // measure 25
0110
0000
0110
0000
0001
1000
0100
0000
,  // measure 26
0110
0000
0110
0000
1000
0001
0100
0000
,  // measure 27
0010
1000
0010
0000
0100
0001
0100
0000
,  // measure 28
1001
0000
0001
0010
0001
0010
0001
0000
,  // measure 29
1001
0000
1100
0000
0010
0001
0100
0000
,  // measure 30
0010
1000
0010
0000
1000
0001
0100
0000
,  // measure 31
0010
1000
0100
0000
0010
0001
0100
0000
,  // measure 32
0220
0000
0330
0000
1000
1000
0001
0000
,  // measure 33
1001
0001
0100
0001
0000
0010
0010
0100
,  // measure 34
1000
0000
0000
0010
0000
0010
0100
0000
,  // measure 35
0001
0000
0001
0010
0000
0100
0000
0001
,  // measure 36
0000
0100
1000
0000
1000
0010
1000
0010
,  // measure 37
1000
0000
1000
0010
0000
0100
0000
0010
,  // measure 38
0000
0100
0001
0001
1000
0000
1000
0100
,  // measure 39
1000
0000
1000
0100
0000
0100
0010
0001
,  // measure 40
0000
0001
0100
0000
0010
1000
0010
1000
,  // measure 41
0001
0000
0001
0010
0000
0100
0000
0010
,  // measure 42
0000
0100
0000
0100
0010
0000
0010
0001
,  // measure 43
0000
0100
0000
0100
0010
0100
0010
1000
,  // measure 44
0000
0100
0000
0100
0010
0100
0010
0001
,  // measure 45
0000
0100
0000
0100
0002
0000
0023
0000
,  // measure 46
0032
0000
0103
0000
0010
0000
1000
0001
,  // measure 47
0000
0100
0000
0100
0001
0000
0001
0010
,  // measure 48
0000
0100
0000
0100
1000
0000
1000
0010
,  // measure 49
0000
0010
1000
0000
0002
0000
0203
0000
,  // measure 50
0320
2030
3002
0000
,  // measure 51
0000
0000
0003
0010
,  // measure 52
0010
0000
0010
0000
1001
0000
0001
1000
,  // measure 53
0100
1000
0100
0000
0010
0000
0001
0010
,  // measure 54
0100
0010
0100
0000
1000
0000
0001
0100
,  // measure 55
0001
0100
1000
0000
0100
0000
0001
0010
,  // measure 56
0001
0010
0100
0000
0110
0000
0100
1000
,  // measure 57
0001
0010
0001
0000
1000
0000
1000
0100
,  // measure 58
0001
0100
1000
0000
0010
0000
1000
0100
,  // measure 59
1000
0010
1000
0000
1001
0000
0100
1000
,  // measure 60
0010
0100
0001
0000
1001
1000
0010
1000
,  // measure 61
0000
0100
0100
0010
0001
0000
0000
0100
,  // measure 62
0000
0100
0010
0000
1000
0000
1000
0100
,  // measure 63
0000
0010
0000
1000
0000
0010
0001
0000
,  // measure 64
0001
0100
0001
0100
0001
0000
0001
0100
,  // measure 65
0000
0010
0000
0100
0000
0010
1000
1000
,  // measure 66
0001
0000
0001
0010
0001
0000
0001
0010
,  // measure 67
0000
0010
0100
1000
0000
1000
0010
0000
,  // measure 68
0100
0001
0100
0001
1000
0000
1000
0100
,  // measure 69
0000
0010
0000
0100
0000
0010
0000
0010
,  // measure 70
0100
0000
0100
1000
0000
0010
0000
0010
,  // measure 71
0100
0010
0100
0001
0000
0010
0000
0010
,  // measure 72
0100
0010
0100
1000
0000
0010
0000
0010
,  // measure 73
2000
3200
2300
3010
,  // measure 74
0100
0000
0001
1000
0000
0010
0000
0010
,  // measure 75
1000
0000
1000
0100
0000
0010
0000
0010
,  // measure 76
0001
0000
0001
0100
0000
0100
0001
0000
,  // measure 77
2000
3020
0230
0301
,  // measure 78
1000
0000
1000
0001
0000
0001
0010
0000
,  // measure 79
0100
0000
0100
0010
0000
0010
0001
0000
,  // measure 80
1000
0000
1000
0010
0000
0010
0100
0000
,  // measure 81
0010
0000
0010
1000
0000
1000
0001
0000
,  // measure 82
1000
0000
0001
0010
0000
0001
0100
0000
,  // measure 83
0010
0000
1000
0100
0000
1000
0010
0000
,  // measure 84
0001
0000
0010
1000
0000
0001
0100
0000
,  // measure 85
0110
1010
1001
0011
,  // measure 86
1001
0000
1000
0010
0000
0100
0010
0100
,  // measure 87
0010
0000
0010
0100
0000
0100
0001
0100
,  // measure 88
0010
0000
0010
0100
0000
0100
0010
0100
,  // measure 89
0001
0000
0001
1000
0000
1000
0010
0100
,  // measure 90
0002
0000
0000
0000
,  // measure 91
0003
0000
0000
0000
;

//---------------dance-single - DDRDAIKENKAI----------------
#NOTES:
     dance-single:
     DDRDAIKENKAI:
     Easy:
     4:
     0.333,0.430,0.164,0.219,0.000: // measure 1
0000
0000
0000
0000
,  // measure 2
0000
0000
0000
0000
,  // measure 3
0000
0000
0000
0000
,  // measure 4
0000
0000
0000
0000
,  // measure 5
0000
0000
0000
0000
,  // measure 6
0000
0000
0000
0000
,  // measure 7
0000
0000
0000
0000
,  // measure 8
0000
0000
0000
0000
,  // measure 9
2000
0000
0000
0000
,  // measure 10
3200
0000
0320
0000
,  // measure 11
0032
0000
0000
0000
,  // measure 12
0203
0000
0320
0000
,  // measure 13
1030
1000
1000
1000
,  // measure 14
0001
0001
0001
0001
,  // measure 15
0100
0100
0100
0100
,  // measure 16
0110
0000
0000
1001
,  // measure 17
1001
1000
0001
0001
,  // measure 18
1000
0010
0100
0100
,  // measure 19
0010
1000
0100
0100
,  // measure 20
0010
0001
0100
0010
,  // measure 21
1000
0001
0100
0100
,  // measure 22
0001
1000
0100
0100
,  // measure 23
1000
0001
0010
0010
,  // measure 24
0110
0110
0110
0110
,  // measure 25
1001
0000
1000
1000
,  // measure 26
0001
0100
0010
0010
,  // measure 27
1000
0001
1000
1000
,  // measure 28
0001
1000
0001
0001
,  // measure 29
0100
0001
0010
0010
,  // measure 30
0100
1000
0010
0010
,  // measure 31
1000
0100
0010
0001
,  // measure 32
1001
0000
0001
1000
,  // measure 33
1001
0000
0110
0000
,  // measure 34
0000
0100
0000
0000
0001
0000
0010
0000
,  // measure 35
0100
1000
0000
0010
,  // measure 36
1000
0100
0010
0001
,  // measure 37
0100
0010
0000
0100
,  // measure 38
0001
1000
0100
0010
,  // measure 39
0100
1000
0000
1000
,  // measure 40
0001
0010
0001
0100
,  // measure 41
0010
1000
0000
0001
,  // measure 42
0001
0001
1001
0001
,  // measure 43
1000
1000
0001
1000
,  // measure 44
0001
0001
0100
0010
,  // measure 45
0100
0100
0020
2030
,  // measure 46
3200
0320
0031
1000
,  // measure 47
0001
0001
1000
0001
,  // measure 48
1000
1000
0010
0100
,  // measure 49
0010
0010
0200
0302
,  // measure 50
0023
0230
2000
0000
,  // measure 51
0000
0000
3300
0010
,  // measure 52
0010
0010
0110
0100
,  // measure 53
0001
0001
0010
0100
,  // measure 54
1000
1000
0100
0010
,  // measure 55
0001
0001
0100
0010
,  // measure 56
1000
1000
1001
0000
,  // measure 57
0001
0001
1000
0010
,  // measure 58
0100
0001
0010
0010
,  // measure 59
0100
0100
0220
0330
,  // measure 60
0010
0100
0110
0000
,  // measure 61
1001
0000
0000
0000
0000
1000
0000
0000
,  // measure 62
1001
0001
0100
0001
,  // measure 63
0001
1000
0100
0100
,  // measure 64
0010
0001
0100
0100
,  // measure 65
0010
0100
0010
0100
,  // measure 66
0010
1000
0001
1000
,  // measure 67
1000
0100
0010
0001
,  // measure 68
0100
0010
1000
0001
,  // measure 69
0010
0100
0010
0100
,  // measure 70
0110
0100
1000
1000
,  // measure 71
0100
0010
0001
0001
,  // measure 72
0100
0010
1000
1000
,  // measure 73
0200
2300
3020
0230
,  // measure 74
0301
0010
1000
1000
,  // measure 75
0010
0001
0100
0100
,  // measure 76
1000
0100
0001
0001
,  // measure 77
0020
0230
2300
3002
,  // measure 78
0103
0010
0010
0100
,  // measure 79
0001
1000
1000
0001
,  // measure 80
0100
0001
0001
0100
,  // measure 81
0010
1000
1000
0010
,  // measure 82
1000
0100
1000
0010
,  // measure 83
0100
0001
0010
0100
,  // measure 84
1000
0010
1000
0001
,  // measure 85
1001
1001
1001
1001
,  // measure 86
1002
0000
0000
0000
,  // measure 87
0203
0000
0320
0000
,  // measure 88
2030
0000
0000
0000
,  // measure 89
3200
0000
0320
0000
,  // measure 90
0032
0000
0000
0000
,  // measure 91
0003
0000
0000
0000
;

//---------------dance-single - DDRDAIKENKAI----------------
#NOTES:
     dance-single:
     DDRDAIKENKAI:
     Challenge:
     10:
     0.702,0.799,0.068,0.246,0.567: // measure 1
0000
0000
0000
0000
,  // measure 2
0000
0000
0000
0000
,  // measure 3
0000
0000
0000
0000
,  // measure 4
0000
0000
0000
0000
,  // measure 5
0000
0000
0000
0000
,  // measure 6
0000
0000
0000
0000
,  // measure 7
0000
0000
0000
0000
,  // measure 8
0000
0000
0000
0000
0000
0000
0000
0000
0000
0000
0000
0000
0000
0000
0010
0100
,  // measure 9
M01M
0000
0010
0100
0000
0100
0010
0100
,  // measure 10
0001
0000
0001
0100
0000
0100
0010
0100
,  // measure 11
0001
0000
0001
1000
0000
1000
0010
0100
,  // measure 12
0001
0000
0001
0010
0000
0010
0100
0010
,  // measure 13
MM01
0000
0000
0001
1000
0000
0001
0000
1000
0100
1000
0000
0001
0000
0001
0000
,  // measure 14
0100
0000
0000
0000
0000
0000
0000
0000
0000
0100
0000
0000
0010
0000
0000
0000
0000
0000
1000
0000
0000
0000
0000
0000
0001
0000
0000
0100
0000
0000
0001
0000
0000
0000
0000
0000
0010
0000
0000
0000
0000
0000
0M01
0000
0M00
1000
0M00
0000
,  // measure 15
0M01
0000
0000
0001
0010
0000
0100
0000
1000
0001
1000
0000
0010
0000
0100
0000
,  // measure 16
M11M
0000
0000
0000
0010
0000
1000
0000
0000
0000
M001
0100
M001
0000
M100
0010
,  // measure 17
M100
0001
M010
010M
1000
001M
100M
0100
,  // measure 18
M010
0001
M100
001M
1000
01M0
M001
0100
,  // measure 19
100M
0010
M100
M001
0010
M100
001M
0M01
,  // measure 20
10M0
0000
100M
0M10
0000
M010
010M
00M1
,  // measure 21
1M00
0100
M001
01M0
1000
0M10
100M
010M
,  // measure 22
M010
0001
01M0
100M
0100
M001
M010
010M
,  // measure 23
M010
0001
1M00
001M
0100
001M
10M0
010M
,  // measure 24
11MM
0000
0000
1000
01MM
0000
0000
0100
10MM
0100
0000
0100
10MM
0000
0001
0100
,  // measure 25
00M1
1000
0001
0000
1000
0010
1000
0000
0001
1000
0001
0100
0000
0100
0001
0000
,  // measure 26
1M00
0001
1000
0000
0100
1000
0100
0000
1000
0010
1000
0001
0000
0001
0100
0000
,  // measure 27
M010
0100
0010
0000
0100
0001
0100
0000
0001
1000
0001
1000
0000
1000
0100
0000
,  // measure 28
001M
0100
0010
0000
0001
0010
0001
0000
1000
0100
1000
0001
0000
1000
0001
0000
,  // measure 29
MM10
0001
0010
0000
0100
0010
0100
0000
1000
0001
1000
0001
0000
0001
0100
0000
,  // measure 30
M01M
0100
0010
0000
1000
0001
1000
0000
0010
0100
0010
0100
0000
0100
0001
0000
,  // measure 31
MM01
0010
0001
0000
1000
0100
1000
0000
0001
0100
0001
1000
0000
1000
0001
0000
,  // measure 32
M10M
0010
0100
0000
0001
0010
0001
0000
0100
0010
0100
0010
0000
0100
0001
0000
,  // measure 33
1MM1
1000
0001
0020
MM0M
0031
1000
0100
,  // measure 34
1000
0000
0010
0000
0000
0000
1000
0001
1MM0
0000
0010
0000
M100
0000
0001
0000
,  // measure 35
0010
0000
0100
0000
0010
0M00
0001
0000
0MM0
0000
1000
0000
0010
000M
0100
0000
,  // measure 36
1000
00M0
0100
0000
0001
M000
0010
0000
0100
0000
M010
0000
0001
0M00
0010
0000
,  // measure 37
1000
0000
0010
0000
0001
0000
1000
0000
00MM
0000
1000
0000
0001
M000
0100
0000
,  // measure 38
0010
0000
0100
0000
0001
0M00
0010
0000
0100
0000
1000
000M
0010
0000
0100
0000
,  // measure 39
0001
0000
0010
M000
0001
0000
1000
0000
0MM0
0000
1000
0000
0100
000M
1000
0000
,  // measure 40
0010
0000
0100
0000
10M0
0000
0100
0000
0001
M000
0010
0000
0100
0000
0010
0000
,  // measure 41
M001
0000
0100
0000
0010
0000
1000
0000
0M0M
0000
1000
0000
0100
000M
0010
0000
,  // measure 42
0001
0M00
1000
0000
0010
000M
0100
0000
M110
0000
0010
0000
1M00
0000
0001
0000
,  // measure 43
M100
0010
010M
0010
10M0
0100
100M
0010
,  // measure 44
M100
0000
0001
0000
0M10
0000
0001
0100
M001
0000
0100
0000
001M
0000
0100
0000
,  // measure 45
M001
0010
010M
1000
1M2M
0000
MM32
0000
,  // measure 46
M2M3
0000
23MM
0000
301M
0100
M010
1000
,  // measure 47
01M0
1000
0M10
0100
M001
0010
010M
0010
,  // measure 48
0M01
0000
0100
0000
001M
0000
1000
0100
10M0
0000
0001
0000
0M10
0000
1000
0000
,  // measure 49
001M
0001
0M10
0100
0020
0000
0032
0000
,  // measure 50
2003
0000
3020
0000
2M3M
3MM2
2MM3
3MM2
,  // measure 51
2MM3
3MM2
2MM3
3MM2
2MM3
0MMM
3002
0000
,  // measure 52
0203
0000
0000
0000
0320
0000
0000
0000
103M
0100
1000
0000
0100
0001
0100
0000
,  // measure 53
1000
0010
1000
0001
0000
0001
1000
0000
M001
0010
0001
0000
0100
0001
0100
0000
,  // measure 54
0001
0010
0001
1000
0000
1000
0001
0000
M010
0100
0010
0000
1000
0010
1000
0000
,  // measure 55
0010
0001
0010
0001
0000
0001
0100
0000
001M
0100
0010
0000
0001
0010
0001
0000
,  // measure 56
0010
1000
0010
1000
0000
1000
0100
0000
10M0
0100
0010
0000
0001
0010
0100
0000
,  // measure 57
1000
0100
1000
0001
0000
0001
0100
0000
0M10
1000
0100
0000
1000
0010
0100
0000
,  // measure 58
0010
1000
0100
1000
0000
1000
0001
0000
100M
0100
0010
0000
0010
0001
0100
0000
,  // measure 59
0100
0010
1000
0010
0000
0010
1000
0000
M100
0010
0001
0000
0001
1000
0010
0000
,  // measure 60
0010
0000
0000
0000
0100
0000
0000
0000
0010
0000
0000
0000
1000
0000
0000
0000
0000
0000
0000
0000
1000
0000
0000
0000
0001
0000
0000
0000
0000
0000
0000
0000
2MM2
3003
0000
0000
0000
0000
0000
0000
0001
0000
0000
0000
0000
0000
0000
0000
1000
0000
0000
0000
0000
0000
0000
0000
0200
0000
0000
0000
0000
0000
0000
0000
,  // measure 61
M0MM
0000
1300
0000
0001
0000
0100
0000
0010
0000
1000
0000
0000
0000
0001
0010
,  // measure 62
MM01
0000
0010
0000
010M
0000
0010
0000
1000
0M00
0010
0000
0001
0000
0100
0000
,  // measure 63
0M0M
0000
0010
000M
1000
0000
0100
00M0
0001
0000
0100
M000
0010
0000
010M
0000
,  // measure 64
1000
00M0
0100
0000
0010
M000
0100
00M0
0001
0000
0100
000M
1000
0000
0100
0000
,  // measure 65
M00M
0000
1000
0M00
0010
0000
1000
00M0
0001
0000
1000
000M
0010
0M00
1000
0000
,  // measure 66
0100
00M0
1000
0000
0010
M000
0100
0000
0001
0M00
0010
0000
0100
000M
1000
0000
,  // measure 67
MM00
0000
0001
0M00
0010
0000
0001
00M0
1000
0M00
0001
0000
0100
0000
M001
0000
,  // measure 68
0010
0000
0M01
0000
0100
0000
00M1
0000
1000
000M
0100
0000
0010
M000
0001
0000
,  // measure 69
0MM0
0000
1000
000M
0010
0000
0100
0000
10M0
0000
0100
0000
M001
0000
1000
0000
,  // measure 70
1MM1
0001
M010
0100
100M
0010
M100
0001
,  // measure 71
10M0
0000
0100
0000
M010
0000
0001
0000
01M0
0000
0010
0000
1M00
0000
0001
0010
,  // measure 72
M001
1000
010M
1000
00M1
0100
001M
1000
,  // measure 73
02MM
M3M2
MM23
2M3M
,  // measure 74
3M1M
0001
01M0
1000
010M
0010
1M00
0010
,  // measure 75
M001
0000
0100
0000
001M
0000
0001
0000
M010
0000
1000
0000
01M0
0000
1000
0001
,  // measure 76
1M00
0010
M001
0010
1M00
0100
M010
0001
,  // measure 77
1MM2
2MM3
3M2M
M23M
,  // measure 78
13MM
0100
0001
0010
0100
1000
0010
1000
,  // measure 79
0001
0100
1000
0100
0010
1000
0010
0001
,  // measure 80
0010
0100
0001
1000
0100
0010
0100
1000
,  // measure 81
0010
0000
1000
0100
0000
1000
0001
1000
,  // measure 82
01M0
M001
01M0
0010
M001
0100
001M
1M00
,  // measure 83
010M
1000
0010
010M
10M0
0100
0M01
100M
,  // measure 84
0010
M001
0010
01M0
M001
0010
010M
1000
,  // measure 85
12MM
0000
13MM
0002
MMM0
0013
M1MM
1000
,  // measure 86
1M2M
0000
0000
0M00
1030
000M
0100
00M0
M000
000M
1M00
0000
0M10
000M
1000
0M00
,  // measure 87
M010
000M
M000
0M00
0010
M00M
0100
00M0
M000
00M0
M100
000M
0M10
M000
010M
0000
,  // measure 88
0MM1
M000
0M00
M000
00M1
M000
010M
00M0
0M00
M000
010M
0000
M010
000M
M100
00M0
,  // measure 89
0M01
M000
00M0
0M00
00M1
0M00
100M
0M00
M000
000M
1M00
00M0
M001
00M0
010M
0000
,  // measure 90
2MMM
0000
0000
0000
,  // measure 91
3000
0000
0000
0000
;

//---------------dance-single - DDRDAIKENKAI----------------
#NOTES:
     dance-single:
     DDRDAIKENKAI:
     Beginner:
     1:
     0.202,0.400,0.143,0.061,0.000: // measure 1
0000
0000
0000
0000
,  // measure 2
0000
0000
0000
0000
,  // measure 3
0000
0000
0000
0000
,  // measure 4
0000
0000
0000
0000
,  // measure 5
0000
0000
0000
0000
,  // measure 6
0000
0000
0000
0000
,  // measure 7
0000
0000
0000
0000
,  // measure 8
0000
0000
0000
0000
,  // measure 9
1001
0000
0000
0000
,  // measure 10
0100
0000
0000
0000
,  // measure 11
0010
0000
0000
0000
,  // measure 12
0100
0000
0000
0000
,  // measure 13
1001
0000
0100
0000
,  // measure 14
0010
0000
0100
0000
,  // measure 15
1001
0000
0100
0000
,  // measure 16
0110
0000
0000
0110
,  // measure 17
0110
0000
1000
0000
,  // measure 18
0001
0000
1000
0000
,  // measure 19
0100
0000
0010
0000
,  // measure 20
0001
0000
0100
0000
,  // measure 21
0010
0000
1000
0000
,  // measure 22
0001
0000
0100
0000
,  // measure 23
0001
0000
1000
0000
,  // measure 24
1001
1001
1001
1001
,  // measure 25
1001
0000
0100
0100
,  // measure 26
0100
0000
0010
0010
,  // measure 27
0010
0000
1000
1000
,  // measure 28
1000
0000
0001
0001
,  // measure 29
0001
0000
1000
0000
,  // measure 30
0100
0100
0100
0000
,  // measure 31
0010
0010
0010
0000
,  // measure 32
0001
0000
1000
0000
,  // measure 33
1001
0000
0000
0000
,  // measure 34
0000
0000
1000
1000
,  // measure 35
1000
0000
0100
0000
,  // measure 36
0010
0000
0001
0001
,  // measure 37
0001
0000
0010
0000
,  // measure 38
0010
0000
0100
0100
,  // measure 39
0100
0000
1000
0000
,  // measure 40
0001
0000
0100
0100
,  // measure 41
0100
0000
0010
0000
,  // measure 42
0010
0000
0100
0100
,  // measure 43
0100
0000
0001
0001
,  // measure 44
0001
0000
1000
0000
,  // measure 45
0001
0000
0010
0010
,  // measure 46
0010
0010
0020
0000
,  // measure 47
0000
0000
0030
0000
,  // measure 48
0000
0000
0001
0000
,  // measure 49
0100
0000
0010
0010
,  // measure 50
0010
0010
0020
0000
,  // measure 51
0000
0000
0030
0000
,  // measure 52
0000
0000
1000
1000
,  // measure 53
1000
0000
0001
0001
,  // measure 54
0001
0000
0100
0100
,  // measure 55
0100
0000
0010
0010
,  // measure 56
0010
0000
1000
0000
,  // measure 57
0100
0000
0001
0001
,  // measure 58
0001
0000
0100
0000
,  // measure 59
0010
0000
0001
0000
,  // measure 60
1000
0000
1001
0000
,  // measure 61
0000
0000
0000
0000
,  // measure 62
1001
0000
0001
0000
,  // measure 63
1000
0000
0010
0000
,  // measure 64
0100
0100
0100
0000
,  // measure 65
0010
0000
0100
0000
,  // measure 66
0010
0010
0010
0000
,  // measure 67
1000
0000
0001
0000
,  // measure 68
1000
1000
1000
0000
,  // measure 69
0001
0000
0001
0000
,  // measure 70
1001
0000
0001
0000
,  // measure 71
0100
0000
0100
0000
,  // measure 72
0010
0000
0010
0000
,  // measure 73
1000
1000
1000
1000
,  // measure 74
1000
0000
0001
0000
,  // measure 75
1000
0000
0100
0000
,  // measure 76
0010
0000
0010
0000
,  // measure 77
0001
0001
0001
0001
,  // measure 78
0001
0000
1000
0000
,  // measure 79
0001
0000
1000
0000
,  // measure 80
0010
0000
0100
0000
,  // measure 81
0010
0000
0100
0000
,  // measure 82
0001
0000
0010
0000
,  // measure 83
0100
0000
1000
0000
,  // measure 84
0010
0000
0100
0000
,  // measure 85
0110
0110
0110
0110
,  // measure 86
0220
0000
0330
0000
,  // measure 87
2000
0000
3000
0000
,  // measure 88
0002
0000
0003
0000
,  // measure 89
2000
0000
3000
0000
,  // measure 90
2002
0000
0000
0000
,  // measure 91
3003
0000
0000
0000
;
