#TITLE:DOMINO;
#SUBTITLE:;
#ARTIST:Alvin;
#TITLETRANSLIT:;
#SUBTITLETRANSLIT:;
#ARTISTTRANSLIT:;
#GENRE:SUPER EUROBEAT;
#CREDIT:;
#MENUCOLOR:;
#NEWMETERSYSTEM:NO;
#BANNER:DOMINO.png;
#BACKGROUND:DOMINO-bg.png;
#LYRICSPATH:;
#CDTITLE:CDTitle.png;
#MUSIC:DOMINO.ogg;
#OFFSET:0.000;
#SAMPLESTART:38.480;
#SAMPLELENGTH:11.800;
#SELECTABLE:YES;
#LISTSORT:;
#BPMS:0.000=162.000;
#STOPS:;
#BGCHANGES:;
#ATTACKS:;

//---------------dance-single - DDRDAIKENKAI----------------
#NOTES:
     dance-single:
     DDRDAIKENKAI:
     Challenge:
     11:
     1.000,1.000,0.753,0.390,0.935:
0000
0000
0000
0000
,
0000
0000
0000
0000
0000
0000
0000
0000
0000
0000
0000
0000
0000
0000
0100
0001
,
0010
0001
0010
0001
0100
0010
1000
0100
0010
0001
0010
0001
0100
0010
1000
0100
,
1000
0010
0100
0001
1000
0100
0010
0001
1000
0001
0010
0100
1000
0100
0010
0001
,
1000
0010
1000
0010
0100
1000
0100
0010
1000
0100
1000
0100
0010
0100
1000
0001
,
0010
0001
0100
0010
0100
0001
0100
1000
0100
0010
0100
0001
1000
0010
0100
0001
,
0010
0001
0010
0001
0100
0010
1000
0100
0010
0001
0010
0001
0100
0010
1000
0010
,
0100
0001
0100
0010
0100
0001
0010
0001
1000
0010
0100
0001
0100
0010
1000
0001
,
0010
0100
1000
0100
0001
0100
1000
0010
0100
0010
1000
0001
0100
0001
0010
0100
,
1000
0000
0000
0100
0000
0000
0010
0000
0000
0001
0000
0000
0100
0000
0000
0010
0000
0000
1000
0000
0000
0100
0000
0000
4000
0000
0004
0000
0000
0000
0000
0000
0000
0000
0000
0000
0000
0000
0000
0000
0000
0000
3000
0000
0000
0000
0000
0000
,
1003
0001
0100
0010
2000
0001
3001
0011
,
0001
0100
0010
0100
0002
1000
1003
1001
,
0001
0100
1000
0100
0002
1000
1003
2100
,
0100
0001
0001
0002
3000
0100
0103
0110
,
1010
1000
1001
0001
0200
0001
0301
1001
,
1000
0001
0100
0001
2000
0001
3001
1001
,
0001
0100
0010
0001
0010
1010
0000
1001
,
0001
0100
0010
1000
0001
1000
0100
0010
0001
1000
0100
1000
0010
0100
0001
0010
,
0002
1000
2003
0001
3001
0010
0100
0010
,
2000
0010
3020
1000
1030
0010
0001
1000
,
0100
0001
0100
1000
0010
0001
0100
0001
,
0010
0000
1000
0000
0100
0000
0001
0000
0101
0000
0000
1100
0000
0000
1001
0000
,
0101
0001
0010
0001
1000
1001
0001
1000
,
0100
1000
0010
0100
0010
0110
0010
1000
,
1100
0100
0010
0001
0011
0001
0100
0010
,
0110
0000
0010
1000
0100
0000
0100
1000
0001
0000
2002
3003
2002
3003
0000
0000
,
0011
0001
0100
0120
0000
1030
0100
1200
,
0000
1300
0001
0100
1000
0100
0102
0000
,
0013
1000
0001
0100
1000
0001
0100
0010
,
1010
0000
0000
0000
1200
0000
0000
0000
1300
0010
1000
0100
0010
0100
1000
0001
,
1000
0001
0010
0012
0000
1003
0010
0120
,
0000
1030
0100
1000
0001
1000
1001
0000
,
0101
0001
0010
0100
1100
1000
0010
0100
,
0110
0000
0010
0000
1010
0000
0000
0000
1002
0000
0000
1003
0100
0000
0010
0000
,
1001
1100
0010
0000
1001
0101
1000
0000
,
1001
0000
1100
0000
1000
0000
1001
0000
0001
0000
0101
0000
0220
0330
0000
0000
,
0011
0001
0100
0010
1000
0001
0010
0001
,
0101
0000
0000
0000
1010
0000
0000
0000
0100
0001
0010
0100
1000
0100
0010
0001
,
1000
0001
0100
0210
0000
0310
1000
1200
,
0000
0301
0100
1000
0010
0100
0110
0000
,
1001
0001
1000
0100
1100
0100
0010
0001
,
1001
0000
1100
0000
1001
0000
0011
0000
0000
0000
1001
0000
0110
0000
0010
1000
,
0010
0100
0001
0100
1000
0100
0001
1000
0010
0100
0010
0001
0010
0100
0010
1000
,
0100
1000
0010
0100
0001
0010
0100
1000
0001
1000
0100
0010
0100
1000
0100
0010
,
0001
0010
0001
0100
1000
0100
0001
0010
0001
0100
0010
1000
0001
1000
0100
1000
,
0100
1000
0001
0010
0001
1000
0001
0100
0001
1000
0010
0100
0010
1000
0100
1000
,
0010
1000
0010
1000
0100
1000
0001
0100
0010
1000
0010
0100
0001
1000
0100
1000
,
0001
1000
0001
0100
0010
1000
0100
0010
0001
0010
0100
1000
0010
0100
0001
0010
,
0001
0100
0010
1000
0100
1000
0001
0010
0001
1000
0001
0010
0100
1000
0100
0010
,
0001
0000
0000
0100
0000
0000
0010
0000
0000
1000
0000
0000
0100
0000
0000
1000
0000
0000
0010
0000
0000
0100
0000
0000
0004
0000
4000
0000
0000
0000
0000
0000
0000
0000
0000
0000
0000
0000
0000
0000
0000
0000
0000
0000
0000
0000
0000
0000
,
3003
0000
0000
0000
;

//---------------dance-single - DDRDAIKENKAI----------------
#NOTES:
     dance-single:
     DDRDAIKENKAI:
     Hard:
     8:
     0.714,0.649,0.195,0.442,0.026: // measure 1
0000
0000
0000
0000
,  // measure 2
0000
0000
0000
0000
0000
0000
0000
0000
0000
0000
0000
0000
0000
0000
1000
0001
,  // measure 3
1000
0001
0100
0001
1000
0010
0100
0010
,  // measure 4
1000
0100
0010
0100
0001
0100
1000
0001
,  // measure 5
0010
0001
0100
0010
1000
0010
0100
0001
,  // measure 6
0010
0001
0100
0010
1000
0100
0010
0100
,  // measure 7
1000
0010
0100
1000
0100
0010
1000
0001
,  // measure 8
1000
0100
0001
1000
0010
0100
0001
0100
,  // measure 9
0010
0001
0010
0100
1000
0001
0100
0001
,  // measure 10
1000
0010
0100
0001
2000
0000
0000
0000
,  // measure 11
3001
1000
0001
0100
0020
0000
1030
0002
,  // measure 12
0000
0013
0100
0010
0002
0000
1003
0020
,  // measure 13
0000
1030
0100
1000
0002
0000
1003
0200
,  // measure 14
0000
1000
1000
2300
0000
0010
3010
0200
,  // measure 15
0000
0301
0010
0001
0200
0000
0310
2000
,  // measure 16
0000
3001
1000
0001
2000
0000
3001
0002
,  // measure 17
0000
1003
0100
1000
0001
0020
0000
0031
,  // measure 18
1000
0100
1000
0100
0010
0001
0100
1000
,  // measure 19
0100
0001
0010
0002
0000
1003
0010
0100
,  // measure 20
1000
0100
0001
2000
0000
3001
0100
0001
,  // measure 21
0010
0100
0001
0100
1000
0010
1000
0100
,  // measure 22
0001
0000
0000
0000
0100
0000
0010
0000
0001
0000
0000
1001
0000
0000
0001
0000
,  // measure 23
1000
0100
1000
0010
0000
0010
0100
0001
,  // measure 24
0010
0001
1000
0001
0000
0001
0010
0001
,  // measure 25
1000
0010
0100
0001
1000
0100
0001
0100
,  // measure 26
1000
0001
0100
0010
1000
1001
1001
0000
,  // measure 27
0101
0001
0010
0002
0000
0013
0001
0200
,  // measure 28
0000
0310
1000
0001
0100
0010
0110
0000
,  // measure 29
0010
1000
0100
1000
0010
0100
1000
0100
,  // measure 30
0002
0023
0230
0000
,  // measure 31
0310
0100
1000
0020
0000
0130
1000
0200
,  // measure 32
0000
0301
0010
0001
0100
0010
0110
0000
,  // measure 33
1010
1000
0100
1000
0001
0010
0001
1000
,  // measure 34
0002
0000
0000
0000
0203
0000
0000
0000
0320
0000
0000
1030
0001
0000
1000
0000
,  // measure 35
1001
0100
0010
0000
1001
0100
0010
0000
,  // measure 36
1001
0100
1000
0001
0100
0010
1001
0000
,  // measure 37
0011
0001
0010
0001
0100
1000
0100
0001
,  // measure 38
2000
3020
0032
0000
,  // measure 39
0013
1000
0100
0020
0000
0031
0010
1000
,  // measure 40
0000
1000
0010
0001
1000
0100
2100
0000
,  // measure 41
3010
1000
0100
1000
0010
0100
0001
0010
,  // measure 42
0001
0000
1000
0000
0001
0000
1002
0000
0000
0000
1000
0000
1003
0000
0010
0100
,  // measure 43
0010
1000
0010
0100
0001
0010
0001
0100
,  // measure 44
1000
0100
0001
0010
0100
1000
0010
1000
,  // measure 45
0100
1000
0010
0100
1000
0100
0001
0010
,  // measure 46
0100
0010
0001
0010
0100
1000
0010
0100
,  // measure 47
0001
0010
1000
0010
0001
0100
1000
0100
,  // measure 48
0010
1000
0100
0001
0100
0010
0001
0100
,  // measure 49
0001
0010
0100
0001
0100
1000
0100
0010
,  // measure 50
0001
0100
0010
1000
2200
0000
0000
0000
,  // measure 51
3300
0000
0000
0000
;

//---------------dance-single - DDRDAIKENKAI----------------
#NOTES:
     dance-single:
     DDRDAIKENKAI:
     Medium:
     6:
     0.494,0.455,0.104,0.182,0.000:
0000
0000
0000
0000
,
0000
0000
0000
0000
0000
0000
0000
0010
,
0100
0000
0100
0001
0100
0000
0010
1000
,
0010
0000
1000
0100
1000
0000
0001
0010
,
0001
0000
0100
0001
0100
0000
0010
0100
,
0010
0000
1000
0100
1000
0000
0001
0010
,
0001
0000
1000
0001
1000
0000
0010
0100
,
0010
0000
1000
0100
1000
0000
0001
0010
,
0001
0000
0100
0010
0100
0000
0001
1000
,
0001
1000
2002
3003
,
0001
0000
1000
0100
1000
0000
0001
0000
,
0100
0000
0010
1000
0010
0000
0100
0000
,
0001
0000
0010
0100
0010
0000
0001
0000
,
0200
0000
0300
0000
,
0010
0000
1000
0100
1000
0000
0001
0000
,
1000
0000
0001
0010
0001
0000
0100
0000
,
0010
0000
1000
0001
1000
0000
0010
0000
,
0200
0000
0000
0000
0300
0000
0001
0010
,
0001
0000
0100
0000
0010
0000
1000
0100
,
1000
0000
0010
0000
0100
0000
0001
1000
,
0001
0000
0010
0000
0100
0000
1000
0001
,
2000
0000
0001
0000
3001
0000
1000
0100
,
1000
0000
0001
0000
0010
0000
0001
0100
,
0001
0000
0010
0000
0001
0000
0100
0010
,
0100
0000
0001
1000
0001
0000
0010
0100
,
0010
0000
0001
0000
1000
0001
1000
0000
,
0001
0010
0001
0000
0100
0010
0100
0000
,
0001
0000
0010
0100
2000
0000
3001
0000
,
1000
0100
1000
0000
0001
0010
0001
0000
,
0100
0010
2000
3000
,
0001
0010
0001
0000
1000
0010
1000
0000
,
0001
0000
1000
0100
0020
0000
0031
0000
,
0100
0010
0100
0000
0001
0000
0010
0100
,
0010
0002
2000
3003
,
1001
0100
1001
0010
,
0001
0100
0010
0000
0010
0000
1001
0000
,
1000
0100
1000
0000
0010
0100
0010
0000
,
1000
0001
2000
3000
,
0001
0010
0001
0000
0100
0010
0100
0000
,
0001
0000
0010
0100
0020
0000
0030
0000
,
0001
0100
0001
0000
1000
0100
1000
0000
,
1001
0000
0110
0000
1001
0000
0000
1000
,
0001
0000
1000
0100
1000
0000
0010
0100
,
0010
0000
1000
0001
1000
0000
0001
0010
,
0001
0000
0100
0010
0100
0000
0001
0010
,
0001
0000
1000
0100
1000
0000
0010
0100
,
0010
0000
1000
0100
1000
0000
0001
1000
,
0001
0000
0100
0001
0100
0000
0010
0100
,
0010
0000
1000
0001
1000
0000
0001
0010
,
0001
1000
2002
0000
,
3003
0000
0000
0000
;

//---------------dance-single - DDRDAIKENKAI----------------
#NOTES:
     dance-single:
     DDRDAIKENKAI:
     Beginner:
     1:
     0.247,0.357,0.130,0.039,0.000:
0000
0000
0000
0000
,
0000
0000
0000
0000
,
1000
1000
1000
0000
,
0001
0001
0001
0000
,
1000
0000
0001
0000
,
0100
0000
0010
0000
,
0100
0100
0100
0000
,
0010
0010
0010
0000
,
0100
0000
0010
0000
,
1000
0000
0001
0000
,
1000
1000
1000
0000
,
0001
0001
0001
0000
,
0100
0100
0100
0000
,
0020
0000
0030
0000
,
0100
0100
0100
0000
,
0001
0001
0001
0000
,
1000
1000
1000
0000
,
0020
0000
0030
0000
,
1000
1000
0000
0001
,
0000
0100
0000
0010
,
0000
1000
0000
0100
,
0000
0010
0010
0010
,
0000
0001
0000
1000
,
0000
0001
0000
0100
,
0100
0000
0010
0000
,
1000
0000
0000
1001
,
1001
0000
1000
0000
,
0001
0001
0001
0000
,
0100
0100
0100
0000
,
0010
0010
0010
0000
,
1000
1000
1000
0000
,
0001
0001
0001
0000
,
0100
0100
0100
0000
,
0010
0010
0010
0000
,
1001
0000
1001
0000
,
0110
0110
0110
0000
,
0100
0100
0100
0000
,
0010
0010
0010
0000
,
1000
0000
0001
0000
,
1000
1000
1000
0000
,
0001
0001
0001
0000
,
1001
1001
1001
0000
,
1000
0000
0001
0000
,
1000
0000
0100
0000
,
0010
0000
0001
0000
,
0100
0000
0010
0000
,
1000
0000
1000
0000
,
0001
0000
0001
0000
,
1000
0000
0001
0000
,
0100
0100
0200
0000
,
0300
0000
0000
0000
;

//---------------dance-single - DDRDAIKENKAI----------------
#NOTES:
     dance-single:
     DDRDAIKENKAI:
     Easy:
     4:
     0.386,0.422,0.208,0.091,0.000:
0000
0000
0000
0000
,
0000
0000
0000
0000
,
1001
0001
1000
0010
,
0100
0001
0010
0001
,
1000
0100
0010
0001
,
0100
0010
1000
0001
,
0010
0001
1000
0010
,
0100
0001
0010
0001
,
0100
0010
1000
0001
,
1000
0010
0200
0000
,
0301
1000
0100
1000
,
0001
0010
0001
0100
,
0010
1000
0100
0010
,
0002
1000
1003
0000
,
0001
1000
0010
0100
,
0001
0010
0001
0100
,
0010
1000
0100
1000
,
0002
1000
1003
0000
,
0001
0010
1000
0010
,
0001
0100
1000
0100
,
0001
0010
0100
1000
,
0001
0000
0000
1000
,
1000
0001
0100
0010
,
1000
0100
1000
0010
,
0100
0100
0001
0001
,
0010
0100
1000
1001
,
0001
0001
1000
1000
,
0001
0100
0010
0110
,
0010
1000
0100
1000
,
0010
0100
0001
1001
,
1000
0001
0010
0100
,
1000
0001
0100
0110
,
0010
1000
0100
1000
,
0010
0100
0001
1001
,
1001
0010
1001
0100
,
1000
0001
0100
0110
,
1001
0010
0100
0001
,
0010
0100
1000
1001
,
0001
0100
0010
0100
,
0010
1000
0100
0110
,
0010
0001
0010
0001
,
1001
0110
2002
3003
,
0001
0001
1000
1000
,
0001
0100
0010
1000
,
0001
0010
0100
1000
,
0100
0010
0001
0100
,
0010
1000
0100
1000
,
0010
0100
0001
0010
,
1000
0010
0001
0100
,
0010
1000
2002
0000
,
3003
0000
0000
0000
;
