#TITLE:DISCOTHEQUE;
#SUBTITLE:;
#ARTIST:水樹 奈々;
#TITLETRANSLIT:;
#SUBTITLETRANSLIT:;
#ARTISTTRANSLIT:Nana Mizuki;
#GENRE:DANCE POP;
#CREDIT:;
#BANNER:DISCOTHEQUE.png;
#BACKGROUND:DISCOTHEQUE-bg.png;
#LYRICSPATH:;
#CDTITLE:CDTitle.png;
#MUSIC:DISCOTHEQUE.ogg;
#OFFSET:-0.652000;
#SAMPLESTART:63.820000;
#SAMPLELENGTH:19.900000;
#SELECTABLE:YES;
#BPMS:0.000000=143.000000
;
#STOPS:
;
#BGCHANGES:-1.434=DISCOTHEQUE.avi=1.000=0=0=1=====,
215.000=DISCOTHEQUE-bg.png=1.000=1=0=1===CrossFade==,
99999=-nosongbg-=1.000=0=0=0 // don't automatically add -songbackground-
;
#KEYSOUNDS:;
#ATTACKS:;

//---------------dance-single - DDRDAIKENKAI----------------
#NOTES:
     dance-single:
     DDRDAIKENKAI:
     Hard:
     8:
     0.552995,0.640188,0.559140,0.516129,0.139785,360.000000,308.000000,52.000000,48.000000,0.000000,0.000000,0.552995,0.640188,0.559140,0.516129,0.139785,360.000000,308.000000,52.000000,48.000000,0.000000,0.000000:
// measure 0
0000
0000
0000
0000
,  // measure 1
0000
0000
0000
0000
,  // measure 2
0000
0000
0000
0000
,  // measure 3
0000
0000
0000
0000
,  // measure 4
0000
0000
0000
0000
,  // measure 5
0000
0000
0000
0000
,  // measure 6
2001
0000
0000
3001
0000
0100
0010
0000
2000
0000
0000
0000
3000
0000
0000
0000
,  // measure 7
1002
0000
0000
1003
0000
0010
0100
0000
0002
0000
0000
0000
0003
0000
0000
0000
,  // measure 8
1001
0100
0001
0100
0010
0001
0100
0001
,  // measure 9
0010
0100
0010
0100
1000
0001
1000
0001
,  // measure 10
1001
0000
1100
0000
0012
0000
0103
0010
,  // measure 11
0100
0000
0001
0000
0010
0000
0100
0000
2000
0000
0000
3010
0000
0000
0000
0000
,  // measure 12
2010
3001
0012
0103
,  // measure 13
0010
1000
0001
1002
0000
1003
0100
1000
,  // measure 14
0010
1000
0100
0010
0001
0010
0100
1000
,  // measure 15
0010
0100
0001
0010
0001
0000
0001
1000
,  // measure 16
0020
0000
0000
0000
1000
0000
1000
0000
1030
0000
0000
0100
0000
0000
0010
0000
,  // measure 17
0120
0000
0000
0230
0000
0000
0320
0000
0031
0000
0000
1000
0000
0000
0100
0000
,  // measure 18
1000
0001
0000
0000
0000
0000
0001
1000
0000
0000
0000
0000
1000
0000
0001
0000
,  // measure 19
0101
0000
0000
0110
0000
0000
2010
0000
0000
0000
0100
0000
3100
0000
0000
0000
,  // measure 20
0001
0010
0001
0100
0010
0000
1000
0000
,  // measure 21
0100
0010
0100
1000
0001
0000
0001
1000
,  // measure 22
0010
0000
0010
0100
0001
0000
0001
1000
,  // measure 23
0100
0001
0100
1000
0020
0000
0130
0000
,  // measure 24
0001
0010
0001
0010
0100
0000
1000
0000
,  // measure 25
0010
0100
0010
0100
0001
0000
0001
0100
,  // measure 26
1000
0000
1000
0100
0010
0000
0010
1000
,  // measure 27
0100
0001
0100
0000
0010
0001
0100
1000
,  // measure 28
1100
0000
0000
0000
0100
0000
0001
2000
0000
0000
0100
0000
3100
0000
0010
0000
,  // measure 29
0001
0000
0100
0000
0010
0000
1000
0002
0000
0000
1000
0000
1003
0000
0010
0000
,  // measure 30
0010
0000
0001
0000
0010
0000
1000
0002
0000
0000
1000
0000
1003
0000
0001
0000
,  // measure 31
1000
1010
0010
0110
0100
0101
0001
1001
,  // measure 32
0012
0000
0000
0000
0013
0000
0001
2000
0000
0000
0100
0000
3100
0000
0010
0000
,  // measure 33
0001
0000
0010
0000
0100
0000
1000
0001
0000
0000
0101
0000
0100
0000
1002
0000
,  // measure 34
0000
1003
0010
0120
0000
0130
0001
0021
,  // measure 35
0000
0031
0100
0110
0010
1000
0001
1002
,  // measure 36
0000
1003
2000
0010
3020
0100
0230
0001
,  // measure 37
0301
1000
0001
1000
1100
0001
0202
0303
,  // measure 38
1002
0000
0013
0000
2001
0000
3100
0010
,  // measure 39
0001
0000
0100
0000
0010
0000
1000
0000
0002
0000
0000
0103
0000
0000
0000
0000
,  // measure 40
1020
0130
0012
1003
,  // measure 41
0010
0100
0001
0102
0000
1003
0100
1000
,  // measure 42
0001
0010
0001
0100
0010
1000
0100
1000
,  // measure 43
0010
0001
0010
1000
0100
0001
0100
1000
,  // measure 44
1010
0000
1000
0001
0101
0000
0100
0001
,  // measure 45
0011
0000
0010
0100
1100
0000
1000
0010
,  // measure 46
0110
0000
0000
0000
1001
0000
0000
0000
1000
0000
0100
0000
0010
0001
0010
0001
,  // measure 47
0020
0000
0000
0032
0000
0000
0203
0000
0310
0000
0000
2000
0000
0000
3100
0000
,  // measure 48
0210
0000
0000
1300
0000
0000
2010
0000
0000
0000
3001
0000
0100
0000
0001
0010
,  // measure 49
0002
0000
0000
0103
0000
0000
0120
0000
0000
0000
1030
0000
0001
0000
0000
0000
,  // measure 50
0201
0000
0000
1300
0000
0000
0200
0000
0000
0000
0301
0000
1000
0000
0100
0000
,  // measure 51
1001
0000
0000
0110
0000
0000
1002
0000
0000
0000
0103
0000
0010
0000
1001
0000
,  // measure 52
0000
0010
0100
1001
0000
1000
0001
0110
,  // measure 53
0000
1001
1001
0110
0000
0000
2002
0000
,  // measure 54
0000
3003
0000
0000
0000
0000
0000
0000
;

//---------------dance-single - DDRDAIKENKAI----------------
#NOTES:
     dance-single:
     DDRDAIKENKAI:
     Medium:
     5:
     0.359447,0.436534,0.301075,0.548387,0.021505,234.000000,206.000000,28.000000,51.000000,0.000000,0.000000,0.359447,0.436534,0.301075,0.548387,0.021505,234.000000,206.000000,28.000000,51.000000,0.000000,0.000000:
0000
0000
0000
0000
,
0000
0000
0000
0000
,
0000
0000
0000
0000
,
0000
0000
0000
0000
,
0000
0000
0000
0000
,
0000
0000
0000
0000
,
2002
0000
3003
0000
,
2002
0000
3003
0000
,
2002
3003
0220
0330
,
2100
3200
0320
0031
,
1002
1003
2001
3001
,
0100
0010
0100
0010
2000
0000
3000
0000
,
0020
1030
0002
0103
,
0001
0010
0001
2000
0000
0001
3001
0000
,
0010
0100
1000
0000
0020
0000
0130
0000
,
0001
0000
1000
0100
0010
0000
0100
1000
,
0002
1000
0100
1003
,
2002
0000
3003
0000
,
0110
0000
0000
0110
0000
0000
0100
0001
,
1000
0000
0000
0001
0000
0000
2000
0000
0000
0000
0100
0000
3100
0000
0000
0000
,
0010
0001
0100
0001
,
0010
0000
0100
0000
1000
0000
0010
0100
,
0010
0000
1000
0001
1000
0000
0001
0010
,
0001
1000
0200
0310
,
0100
1000
0010
0100
,
0001
0000
0010
0000
0100
0000
0010
0001
,
0010
0000
0001
0100
0001
0000
1000
0100
,
1000
0100
1000
0000
0010
1000
0010
1000
,
0010
0010
0000
0000
1000
1000
0000
0000
,
0001
0001
0000
0000
0200
0000
0302
0000
,
1003
1000
0000
0000
0100
0100
0000
0000
,
1000
0001
0000
0010
0000
0100
0000
1000
,
1001
0000
0000
0000
0001
0001
0000
0000
,
0100
0100
0000
0000
0010
1000
0000
1001
,
0000
1000
0000
0101
0000
0010
0000
1100
,
0000
0001
0000
1010
0000
0100
0000
0011
,
0000
1001
1100
0101
,
0100
0010
0100
0010
0220
0000
0330
0000
,
1002
0103
2001
3100
,
0010
0001
0010
0001
0200
0000
0310
0000
,
2000
3100
0002
0103
,
1000
0010
1000
0002
0000
1000
1003
0000
,
0001
0010
0001
0000
0100
0000
0010
0000
,
1000
0000
0100
0010
0001
0000
0010
0100
,
2000
0000
3000
0001
0200
0000
0300
0010
,
2000
0000
3000
0100
0020
0000
0030
0001
,
2000
0100
0010
3001
,
2002
0000
0000
3003
,
0001
0000
0000
1000
0000
0000
0200
0000
0000
0000
0310
0000
0001
0000
0010
0000
,
0200
0000
0000
2300
0000
0000
3002
0000
0000
0000
0103
0000
0010
0000
0000
0000
,
0220
0000
0000
0330
0000
0000
0000
0000
,
1001
0000
0000
0110
0000
0000
1001
0000
0000
0000
1000
0000
0100
0000
2000
0000
,
0000
3001
0010
0002
0000
0103
0010
0200
,
0000
0301
1000
0001
0000
0000
2002
0000
,
0000
0000
0000
0000
0000
0000
0000
0000
0000
0000
0000
0000
0000
0000
0000
0000
0000
0000
0000
0000
0000
0000
0000
0000
0000
3003
0000
0000
0000
0000
0000
0000
0000
0000
0000
0000
0000
0000
0000
0000
0000
0000
0000
0000
0000
0000
0000
0000
0000
0000
0000
0000
0000
0000
0000
0000
0000
0000
0000
0000
0000
0000
0000
0000
0000
0000
0000
0000
0000
0000
0000
0000
0000
0000
0000
0000
0000
0000
0000
0000
0000
0000
0000
0000
0000
0000
0000
0000
0000
0000
0000
0000
0000
0000
0000
0000
0000
0000
0000
0000
0000
0000
0000
0000
0000
0000
0000
0000
0000
0000
0000
0000
0000
0000
0000
0000
0000
0000
0000
0000
0000
0000
0000
0000
0000
0000
0000
0000
0000
0000
0000
0000
0000
0000
0000
0000
0000
0000
0000
0000
0000
0000
0000
0000
0000
0000
0000
0000
0000
0000
0000
0000
0000
0000
0000
0000
0000
0000
0000
0000
0000
0000
0000
0000
0000
0000
0000
0000
0000
0000
0000
0000
0000
0000
0000
0000
0000
0000
0000
0000
0000
0000
0000
0000
0000
0000
0000
0000
0000
0000
0000
0000
;

//---------------dance-single - DDRDAIKENKAI----------------
#NOTES:
     dance-single:
     DDRDAIKENKAI:
     Easy:
     3:
     0.235023,0.291051,0.225806,0.440860,0.000000,153.000000,132.000000,21.000000,41.000000,0.000000,0.000000,0.235023,0.291051,0.225806,0.440860,0.000000,153.000000,132.000000,21.000000,41.000000,0.000000,0.000000:
0000
0000
0000
0000
,
0000
0000
0000
0000
,
0000
0000
0000
0000
,
0000
0000
0000
0000
,
0000
0000
0000
0000
,
0000
0000
0000
0000
,
2002
0000
3003
0000
,
2002
0000
3003
0000
,
1001
0000
1001
0000
,
0001
0010
0100
1000
,
0001
0001
1000
1000
,
0001
0100
2000
3000
,
0100
0100
0010
0010
,
2000
0000
0000
0002
0000
0000
3003
0000
,
1000
0100
0010
0001
,
0100
0010
1000
1000
,
0020
0000
0000
0030
,
1000
0001
1000
0001
,
1001
0000
0000
1001
0000
0000
1000
0000
,
0002
0000
0000
2003
0000
0000
3200
0000
,
0310
0010
0100
0000
,
1000
1000
0001
0000
,
0100
0000
0010
0000
,
1000
0100
0001
0000
,
0100
0100
0010
0000
,
0001
0001
1000
0000
,
0010
0000
0100
0000
,
0001
1000
0100
1000
,
1001
0000
0110
0000
,
0100
0001
1000
0000
,
0010
1000
0001
0000
,
0010
0100
0010
0100
,
0110
0000
1001
0000
,
0001
0000
1000
0000
0100
0000
0000
2000
,
0000
3000
0000
0002
0000
0003
0000
0200
,
0000
0300
0010
0010
,
0220
0000
0000
0330
,
1000
0001
2002
3003
,
0001
0001
1000
1000
,
0010
1000
0100
0100
,
0010
0010
0100
0100
,
1000
0010
0002
0003
,
0010
1000
0001
0100
,
0010
1000
0100
1000
,
0020
0030
2000
3000
,
0002
0003
0200
0300
,
0220
0000
0000
0330
,
2002
0000
0000
3003
,
0002
0000
0000
1000
0000
0000
1003
0000
,
2000
0000
0000
0001
0000
0000
3001
0000
,
2002
0000
0000
0000
0000
3003
0000
0000
,
0220
0000
0000
0330
0000
1000
0000
2002
,
0000
3003
0000
0220
0000
0330
0000
0220
,
0000
0330
0000
1001
0000
0000
2002
0000
,
0000
0000
0000
0000
0000
0000
0000
0000
0000
0000
0000
0000
0000
0000
0000
0000
0000
0000
0000
0000
0000
0000
0000
0000
0003
0000
3000
0000
0000
0000
0000
0000
0000
0000
0000
0000
0000
0000
0000
0000
0000
0000
0000
0000
0000
0000
0000
0000
0000
0000
0000
0000
0000
0000
0000
0000
0000
0000
0000
0000
0000
0000
0000
0000
0000
0000
0000
0000
0000
0000
0000
0000
0000
0000
0000
0000
0000
0000
0000
0000
0000
0000
0000
0000
0000
0000
0000
0000
0000
0000
0000
0000
0000
0000
0000
0000
0000
0000
0000
0000
0000
0000
0000
0000
0000
0000
0000
0000
0000
0000
0000
0000
0000
0000
0000
0000
0000
0000
0000
0000
0000
0000
0000
0000
0000
0000
0000
0000
0000
0000
0000
0000
0000
0000
0000
0000
0000
0000
0000
0000
0000
0000
0000
0000
0000
0000
0000
0000
0000
0000
0000
0000
0000
0000
0000
0000
0000
0000
0000
0000
0000
0000
0000
0000
0000
0000
0000
0000
0000
0000
0000
0000
0000
0000
0000
0000
0000
0000
0000
0000
0000
0000
0000
0000
0000
0000
0000
0000
0000
0000
0000
0000
;
