#TITLE:Calabria 2007;
#SUBTITLE:;
#ARTIST:Enur feat. Natasja;
#TITLETRANSLIT:;
#SUBTITLETRANSLIT:;
#ARTISTTRANSLIT:;
#GENRE:DANCEHALL;
#CREDIT:;
#MENUCOLOR:;
#NEWMETERSYSTEM:NO;
#BANNER:Calabria 2007.png;
#BACKGROUND:Calabria 2007-bg.png;
#LYRICSPATH:;
#CDTITLE:collabcdtitle.png;
#MUSIC:Calabria 2007.ogg;
#OFFSET:0.000;
#SAMPLESTART:15.199;
#SAMPLELENGTH:15.200;
#SELECTABLE:YES;
#LISTSORT:;
#BPMS:0.000=126.000;
#STOPS:;
#BGCHANGES:-0.300=Calabria 2007.avi=1.000=0=0=0,
224.000=Calabria 2007-bg.png=1.000=0=0=1,
99999=-nosongbg-=1.000=0=0=0 // don't automatically add -songbackground-
;
#ATTACKS:;

//---------------dance-single - KNS-17----------------
#NOTES:
     dance-single:
     KNS-17:
     Medium:
     6:
     0.403,0.381,0.209,0.182,0.018:
0000
0000
0000
0000
,
0000
0000
0000
0000
,
0000
0000
0000
0000
,
0000
0000
0000
0000
,
0001
0000
1000
0100
0010
0000
0010
0000
,
0001
0000
1000
0010
0100
0000
0100
0000
,
0101
0000
0010
1000
0001
0000
0001
0000
,
1100
1001
0101
1001
,
1000
0000
0001
0010
0100
0000
1000
0000
,
1000
0010
0100
0000
0002
0000
2003
0000
,
3001
0000
1000
0100
0010
0000
0001
0000
,
0001
0100
0010
0000
2000
0001
3001
0000
,
1000
0010
0100
0001
0010
0000
0010
0000
,
0001
0100
1000
0100
0001
0000
1000
0000
,
0001
0010
0100
1000
0010
0000
0010
0000
,
1000
0100
0001
0100
1000
0000
0001
0000
,
1000
0010
0100
0000
0001
1000
0001
0000
,
1000
0100
0010
0100
1000
0010
0100
0000
,
0001
0010
0100
0000
1000
0001
0100
0000
,
0010
0100
0001
0010
0100
1000
0001
0000
,
1010
0000
0001
0100
0010
0000
1000
0000
,
0001
0010
1000
0010
0001
1000
0001
0000
,
1000
0010
1000
0010
0100
0000
0001
0000
,
1000
0100
0010
0100
0010
0001
0100
0010
,
1000
0001
1000
1100
,
1000
0001
1000
1010
,
0001
1000
0001
0101
,
0001
1000
0001
0011
,
1000
0000
0010
0100
0001
0000
0010
0100
,
1000
0000
1000
0000
0001
0100
0010
0100
,
0001
0000
0010
0100
1000
0000
0010
0100
,
0001
0000
0001
0000
1000
0100
0010
0100
,
2000
0000
3020
0230
,
0302
0000
0023
0230
,
2300
0000
3002
0203
,
0302
0000
2003
3200
,
1300
1000
0001
1000
,
0001
0000
0001
0010
0100
0000
1000
0000
,
0001
0001
1000
0001
,
0101
1001
1100
1001
,
0012
0010
1000
1003
,
0001
0000
0010
0100
1000
0000
1000
0000
,
2010
0010
0001
3001
,
1000
0100
0001
0100
1000
0010
0100
0000
,
0102
0100
1000
1003
,
0001
0000
0010
0100
1000
0000
1000
0000
,
2100
0100
0001
3001
,
0011
1001
1010
1001
,
0001
0000
0000
0010
0100
0000
1000
0000
0001
0000
0000
0000
0001
0000
0000
0000
,
1000
0000
0010
0100
0001
0000
0001
0000
,
1000
0000
0000
0100
0010
0000
0001
0000
1000
0000
0000
0000
1000
0000
0000
0000
,
0001
0000
0100
0010
1000
0000
1000
0000
,
0100
0000
0000
1000
0010
0000
0100
0000
0001
0000
0000
0000
0001
0000
0000
0000
,
0010
0000
0100
1000
0001
0000
0001
0000
,
0100
0000
0000
0001
0010
0000
0100
0000
1000
0000
0000
0000
1000
0000
0000
0000
,
0010
0000
0100
0001
2000
0001
3001
0000
,
1001
0000
0000
0000
;

//---------------dance-single - DDRDAIKENKAI----------------
#NOTES:
     dance-single:
     DDRDAIKENKAI:
     Hard:
     8:
     0.554,0.585,0.182,0.309,0.340: // measure 1
0000
0000
0000
0000
,  // measure 2
0000
0000
0000
0000
,  // measure 3
0000
0000
0000
0000
,  // measure 4
0000
0000
0000
0000
,  // measure 5
0010
0000
0000
1000
0100
0000
0000
0000
1000
0000
0000
0001
0100
0000
0000
0000
,  // measure 6
0010
0000
0000
0100
0001
0000
0000
0000
0010
0000
0000
0100
1000
0000
0000
0000
,  // measure 7
0001
0000
0000
1000
0100
0000
0000
0000
1000
0000
0000
0001
0100
0000
0000
0000
,  // measure 8
0110
1001
1100
1001
,  // measure 9
2010
0000
0010
0000
3010
0000
1000
0001
1000
0000
0001
0100
0002
0000
0000
0103
,  // measure 10
0010
1000
0100
1000
0020
0000
0130
0000
,  // measure 11
0001
0000
1000
0000
0001
0000
1000
0100
1000
0000
0001
1000
0002
0000
0000
1003
,  // measure 12
0100
0010
0001
0100
0020
1000
1030
0000
,  // measure 13
0001
0000
0010
0000
0001
0000
1000
0001
1000
0000
0001
0100
0002
0000
0000
0013
,  // measure 14
0001
0100
0010
1000
0200
0000
0310
0000
,  // measure 15
0001
0000
1000
0000
0100
0000
1000
0010
1000
0000
0010
0100
0020
0000
0000
1030
,  // measure 16
0100
0001
0100
1000
0020
1000
1030
0000
,  // measure 17
0001
0000
0010
0000
0001
0000
1000
0000
0100
0000
1000
0001
1000
0000
0001
0000
,  // measure 18
0100
0000
0010
0000
0100
0000
0001
0000
0010
0100
0000
0010
0100
0000
0010
0000
,  // measure 19
0001
0000
1000
0000
0100
0000
1000
0000
0001
0100
0000
0001
0100
0000
0000
0010
,  // measure 20
1000
0000
0100
0000
1000
0000
0010
0000
0100
0001
0000
0100
0001
0000
0000
0000
,  // measure 21
2001
0001
3001
1000
0100
0010
0001
0001
,  // measure 22
1000
0100
1000
0010
0100
0001
1000
1000
,  // measure 23
0001
0100
0010
1000
0100
1000
0010
0100
,  // measure 24
0001
0010
1000
0010
0001
0010
0100
0010
,  // measure 25
0002
0000
0000
0000
2003
0000
0000
0000
3001
0000
0000
0100
0010
0000
0000
1000
,  // measure 26
0020
0000
0000
0000
2030
0000
0000
0000
3001
0000
0000
0010
0100
0000
0000
0010
,  // measure 27
0002
0000
2003
0000
3100
0010
0001
0010
,  // measure 28
0200
0000
0000
1300
0001
0000
0100
0000
1000
0000
0100
0000
0010
0000
1000
0000
,  // measure 29
0020
0000
0000
0000
2030
0000
0000
0000
3100
0000
0000
0010
0001
0000
0000
0010
,  // measure 30
0200
0000
0000
0000
2300
0000
0000
0000
3001
0000
0000
0100
0010
0000
0000
1000
,  // measure 31
0020
0000
2030
0000
3001
0100
0010
1000
,  // measure 32
0200
0000
0000
0000
1300
0000
0001
0000
1000
0000
0000
0100
0010
0000
0001
0000
,  // measure 33
1002
0000
0000
1003
0000
0000
0000
0000
0100
0000
0000
0000
1000
0000
0000
0000
,  // measure 34
0100
0000
0000
0020
0000
0032
0000
0003
0100
0000
0000
0000
0001
0000
0000
0000
,  // measure 35
0100
0000
0000
0010
0000
0000
0000
0000
0100
0000
0000
0000
0010
0000
0000
0000
,  // measure 36
0100
0000
0000
0020
0000
2030
0000
3000
0100
0000
0000
0000
1000
0000
0000
0000
,  // measure 37
0010
0000
0000
1000
0001
0000
0000
0000
0100
0000
0000
0000
0010
0000
0000
0000
,  // measure 38
1000
0000
0000
0001
0010
0000
0000
0000
0100
0000
0000
0000
1000
0000
0000
0000
,  // measure 39
0001
0000
0000
0100
0010
0000
0000
0000
1000
0000
0000
0000
0001
0000
0000
0000
,  // measure 40
0011
1100
0101
1001
,  // measure 41
1010
0000
0010
1000
0010
0000
1000
0000
0100
0000
1000
0001
1000
0000
0000
0001
,  // measure 42
0010
0100
1000
0010
1020
0000
0130
0000
,  // measure 43
0001
0000
0010
0001
0010
0000
0000
0010
0001
0000
0001
1000
0001
0000
0000
0001
,  // measure 44
1000
0000
0100
0000
1000
0000
0010
0000
0100
0010
0000
0100
0010
0000
0000
0000
,  // measure 45
0110
0000
0010
1000
0010
0000
0100
0000
0001
0000
0010
0001
0020
0000
0000
0031
,  // measure 46
0100
1000
0100
0010
2010
0000
3001
0000
,  // measure 47
0101
0000
0001
0100
0001
0000
0000
0001
1000
0000
1000
0001
1000
0000
0000
0000
,  // measure 48
1010
0010
0110
0100
0101
0001
1002
0000
,  // measure 49
0013
0000
0000
0001
0100
0000
0010
0000
1000
0000
0000
0100
0010
0000
0001
0000
,  // measure 50
0100
0000
0000
0010
1000
0000
0100
0000
1000
0000
0000
0001
0010
0000
0001
0000
,  // measure 51
0100
0000
0000
0010
0100
0000
0010
0000
1000
0000
0000
0100
1000
0000
0010
0000
,  // measure 52
0100
0000
0000
0001
0010
0000
1000
0000
0010
0000
0000
0001
0100
0000
1000
0000
,  // measure 53
0100
0000
0000
0001
0010
0000
0100
0000
1000
0000
0000
0010
0100
0000
0001
0000
,  // measure 54
0010
0000
0000
0001
0100
0000
0010
0000
1000
0000
0000
0100
0010
0000
0001
0000
,  // measure 55
1000
0000
0000
0010
0100
0000
1000
0000
0100
0000
0000
0010
1000
0000
0100
0000
,  // measure 56
0010
0000
0000
0001
0100
0000
0010
0000
0002
0000
0010
0000
0013
0000
0000
0000
,  // measure 57
1000
0000
0000
0000
;

//---------------dance-single - KNS-17----------------
#NOTES:
     dance-single:
     KNS-17:
     Easy:
     3:
     0.272,0.330,0.191,0.091,0.000:
0000
0000
0000
0000
,
0000
0000
0000
0000
,
0000
0000
0000
0000
,
0000
0000
0000
0000
,
0001
0000
0001
0001
,
1000
0000
1000
1000
,
1001
0000
0001
0100
,
0101
0101
1010
1010
,
1000
1000
0001
0000
,
0001
0010
0100
1000
,
0001
0001
1000
0000
,
1000
0010
0100
0010
,
1000
1000
0100
0000
,
0100
1000
0100
0010
,
0001
0001
0100
0000
,
0100
0001
0100
0010
,
1000
0000
0001
0000
,
1000
0100
0001
0010
,
1000
1000
0001
0000
,
0001
0100
0001
1000
,
1001
0000
0001
1000
,
0001
0010
1000
0100
,
0001
0000
0001
0001
,
1000
0100
0010
0001
,
1000
0000
1010
0000
,
0001
0000
0101
0100
,
0001
0000
0011
0000
,
1000
0000
1100
0100
,
1000
1000
0010
0010
,
0100
0100
0001
0001
,
0010
0010
0100
0100
,
1000
1000
0001
1000
,
0002
0000
2003
0000
,
3002
0000
0023
0230
,
2300
0000
3002
0000
,
2003
0000
3020
0230
,
0301
0001
0001
0001
,
1000
1000
1000
1000
,
0001
0001
0001
0001
,
1001
1001
1001
1001
,
0001
0001
0100
0100
,
0001
0010
0100
1000
,
0001
0001
0100
0100
,
0001
0001
1000
0001
,
1000
1000
0100
0100
,
1000
0010
0100
0001
,
1001
0000
0110
0000
,
0101
0101
1010
1010
,
1000
0000
0001
0001
,
1000
0100
0010
0001
,
1000
0000
0001
0001
,
1000
0010
0100
0001
,
1000
0000
0100
0100
,
0010
0100
1000
0001
,
1000
0000
0010
0010
,
0100
0010
1000
0001
,
1001
0000
0000
0000
;
