#TITLE:CHEMICAL LOVE;
#SUBTITLE:(9LoveJ Edit);
#ARTIST:JOHN DESIRE;
#TITLETRANSLIT:;
#SUBTITLETRANSLIT:;
#ARTISTTRANSLIT:;
#GENRE:;
#CREDIT:;
#MENUCOLOR:;
#METERTYPE:DDR;
#BANNER:CHEMICAL LOVE.png;
#BACKGROUND:CHEMICAL LOVE-bg.png;
#LYRICSPATH:;
#CDTITLE:CDTitle.png;
#MUSIC:CHEMICAL LOVE (9LoveJ Edit).ogg;
#OFFSET:-0.162;
#SAMPLESTART:51.930;
#SAMPLELENGTH:11.960;
#SELECTABLE:YES;
#LISTSORT:;
#BPMS:0.000=160.000;
#STOPS:;
#BGCHANGES:;
#ATTACKS:;

//---------------dance-single - DDRDAIKENKAI----------------
#NOTES:
     dance-single:
     DDRDAIKENKAI:
     Easy:
     4:
     0.386,0.462,0.229,0.447,0.000:
0000
0000
0000
0000
,
0000
0000
0000
0000
,
0000
0000
0000
0000
,
0000
0000
0000
0000
,
1001
0001
0100
0010
,
1000
0000
0010
0000
0100
0000
0202
0303
,
0000
0001
1000
0100
,
2000
0000
0000
3000
0002
0000
0003
0000
,
0022
0000
0033
0000
,
0001
0001
0001
0100
,
0020
2030
3020
2030
,
3001
1000
0001
0001
,
0010
0100
0010
0100
,
2000
3100
0020
0031
,
0020
0230
2300
3002
,
0103
0010
1000
1000
,
0010
0100
0001
0001
,
0100
0010
1000
1000
,
0002
2003
3002
1003
,
1001
0001
1000
0010
,
0100
0000
0001
0000
1000
0000
2002
3003
,
0000
0001
1000
0100
,
0110
0110
0220
0330
,
1100
1000
0010
0100
,
0001
0100
0010
1000
,
0001
0001
1000
1000
,
0010
0100
0001
0101
,
1001
0001
1000
1000
,
0010
0100
0010
0010
,
1000
0100
0010
0001
,
0011
0011
1100
1100
,
1001
1000
0001
0100
,
0010
1000
0010
0100
,
0001
0000
0010
0000
0100
2000
0000
0002
,
0000
0000
3003
0000
,
0202
0303
0010
1000
,
0010
0100
0001
0010
,
0100
0100
1000
1000
,
0001
0100
0010
1000
,
2002
3003
0001
1000
,
0010
0100
0001
0010
,
0100
0100
1000
1000
,
0001
1000
0100
0010
,
0220
0330
0010
0001
,
0100
0010
1000
0010
,
0100
0100
0001
0001
,
1000
0001
0100
0010
,
2020
3030
0010
1000
,
0010
0100
0001
0010
,
0100
0100
1000
0001
,
2002
0000
0000
0000
,
3003
0000
0000
0000
,
0001
1000
0001
0001
,
1000
0001
1000
1000
,
0020
0130
0020
0130
,
0002
0023
0230
2300
,
3001
1000
0100
0100
,
1000
0001
0100
0100
,
0010
1000
0100
0100
,
1000
0010
0100
0001
,
2002
0000
3003
0000
,
0220
0000
0000
0000
,
0330
0000
0000
0000
;

//---------------dance-single - DDRDAIKENKAI----------------
#NOTES:
     dance-single:
     DDRDAIKENKAI:
     Hard:
     7:
     0.568,0.636,0.348,0.576,0.094: // measure 1
0000
0000
0000
0000
,  // measure 2
0000
0000
0000
0000
,  // measure 3
0000
0000
0000
0000
,  // measure 4
0000
0000
0000
0000
,  // measure 5
0001
0010
0001
0000
1000
0000
0100
0000
,  // measure 6
1000
0010
1000
0000
0010
0000
0110
0210
,  // measure 7
0000
0310
1000
0000
0001
0000
1000
0000
,  // measure 8
2002
0000
3003
0001
0100
0000
0000
0000
,  // measure 9
2002
0000
0000
3003
0000
0001
0010
0100
,  // measure 10
1000
0001
1000
0100
0001
0100
1000
0000
,  // measure 11
2200
3300
0220
0330
2002
3003
2020
0000
,  // measure 12
0030
0000
3100
0000
0000
0010
0000
0000
0001
0000
0000
0010
0000
0000
0100
0000
,  // measure 13
0000
0000
1000
0000
0000
0001
0000
0000
0100
0000
0000
0010
0000
0000
1000
0000
,  // measure 14
0001
0100
0001
0100
0010
0100
0010
1000
,  // measure 15
0100
1000
0010
0100
0001
0100
0010
1000
,  // measure 16
0001
0000
0100
0000
0000
0010
0000
0000
1000
0000
0000
0010
0000
0000
0100
0000
,  // measure 17
0001
0000
0010
0000
0000
0100
0000
0000
1000
0000
0000
0100
0000
0000
0010
0000
,  // measure 18
0001
0000
0100
0000
0000
0010
0000
0000
1000
0000
0000
0001
0000
0000
1000
0000
,  // measure 19
0010
0100
0010
1000
0100
0010
0100
1000
,  // measure 20
0001
0100
0001
0100
0010
0000
0010
0100
,  // measure 21
0010
1000
0100
0010
0001
0000
1001
1002
,  // measure 22
0000
1003
0001
1000
0001
0100
0010
0000
,  // measure 23
1010
0000
0101
0000
0010
0100
2000
0000
,  // measure 24
3001
0100
0001
0100
0010
0000
1000
0100
,  // measure 25
0000
0010
0001
0010
0100
2000
0000
3001
,  // measure 26
0000
0001
0100
0001
0100
0010
1000
0000
,  // measure 27
1010
0000
0110
0000
0100
0001
0200
0000
,  // measure 28
0001
0301
0010
0100
1000
0100
0010
0000
,  // measure 29
0001
0100
0010
1000
0010
0100
0001
0000
,  // measure 30
1000
0100
1000
0000
0010
0100
0010
0000
,  // measure 31
1010
0000
0101
0000
0001
1000
0000
1002
,  // measure 32
0003
1000
1000
0001
0100
0010
0000
0110
,  // measure 33
0000
1010
0000
1001
0000
0011
0000
0210
,  // measure 34
0000
0310
0001
0100
0010
1000
0000
2020
,  // measure 35
0000
0000
0000
0000
0000
3030
0000
0000
,  // measure 36
2002
0000
3003
0000
1000
0002
0000
2003
,  // measure 37
0000
3020
0000
0230
0000
0320
0000
2030
,  // measure 38
0000
3001
0200
0000
0310
1000
0100
0000
,  // measure 39
0010
0001
0010
0100
0000
0010
0001
1000
,  // measure 40
2002
0000
3003
0000
1000
0020
0000
2030
,  // measure 41
0000
3200
0000
0320
0000
0230
0000
1300
,  // measure 42
0001
0000
0000
0100
0010
0000
0100
0000
0010
0000
0000
0000
1010
0000
0000
0000
,  // measure 43
0101
0000
1001
0000
1100
0100
0010
0001
,  // measure 44
2002
0000
3003
0000
0001
0020
0000
0032
,  // measure 45
0000
0203
0000
0302
0000
2003
0000
3200
,  // measure 46
0000
0310
0002
0000
1003
0001
1000
0000
,  // measure 47
0001
0100
0010
1000
0000
0001
1000
0010
,  // measure 48
0220
0000
0330
0000
0010
2000
0000
3200
,  // measure 49
0000
2300
0000
3020
0000
0230
0000
0302
,  // measure 50
0000
0013
0100
1000
0001
1000
0000
2002
,  // measure 51
0000
0000
0000
0000
,  // measure 52
3003
0000
0000
0000
,  // measure 53
1001
0000
0001
0000
0100
0000
0010
0000
1000
0000
0000
0100
0000
0000
0010
0000
,  // measure 54
0001
0000
0010
0000
0100
0000
1000
0000
0001
0000
0000
0100
0000
0000
0010
0000
,  // measure 55
1000
0100
0010
0001
0010
0100
1000
0010
,  // measure 56
0100
0001
0100
0010
1000
0010
0100
0001
,  // measure 57
0010
0000
0001
0000
0000
0100
0000
0000
0010
0000
0000
1000
0000
0000
0100
0000
,  // measure 58
0010
0000
0001
0000
0000
0010
0000
0000
0100
0000
0000
1000
0000
0000
0001
0000
,  // measure 59
0100
0000
0010
0000
0000
0010
0000
0000
1000
0000
0000
1000
0000
0000
1001
0000
,  // measure 60
0001
1000
0001
0100
0010
1000
0100
0010
,  // measure 61
2002
0000
0000
0000
,  // measure 62
3013
0000
0000
0000
;

//---------------dance-single - DDRDAIKENKAI----------------
#NOTES:
     dance-single:
     DDRDAIKENKAI:
     Medium:
     6:
     0.460,0.524,0.288,0.537,0.050: // measure 1
0000
0000
0000
0000
,  // measure 2
0000
0000
0000
0000
,  // measure 3
0000
0000
0000
0000
,  // measure 4
0000
0000
0000
0000
,  // measure 5
0001
0001
0010
0010
,  // measure 6
0100
0000
0100
0000
1000
0000
0001
2001
,  // measure 7
0000
3001
0100
0010
,  // measure 8
1010
0000
0000
0010
0100
0000
0000
0000
,  // measure 9
0202
0000
0303
0000
,  // measure 10
0001
0001
1000
0001
,  // measure 11
0200
0320
0230
0320
,  // measure 12
2030
0000
0000
0000
3001
0000
0000
0000
0100
0000
0000
0010
0000
0000
0100
0000
,  // measure 13
0010
0000
0000
0000
1000
0000
0000
0000
0100
0000
0000
0010
0000
0000
0100
0000
,  // measure 14
0010
0012
0103
0120
,  // measure 15
2030
3020
0230
0302
,  // measure 16
1003
0000
0000
0000
0001
0000
0000
0000
0100
0000
0000
0010
0000
0000
1000
0000
,  // measure 17
0010
0000
0000
0000
0100
0000
0000
0000
0001
0000
0000
0010
0000
0000
0001
0000
,  // measure 18
0010
0000
0000
0000
0100
0000
0000
0000
1000
0000
0000
0001
0000
0000
1000
0000
,  // measure 19
0002
0203
0320
1030
,  // measure 20
1001
0000
0001
0000
1000
0100
1000
0000
,  // measure 21
0010
0000
0100
0000
0001
0000
1000
1002
,  // measure 22
0000
1003
0001
0100
,  // measure 23
0110
1010
0110
0101
,  // measure 24
1001
0000
0001
0000
1000
0010
1000
0000
,  // measure 25
0001
0010
0100
1000
,  // measure 26
0001
1000
0001
0000
1000
0010
1000
0000
,  // measure 27
0101
0110
2020
3030
,  // measure 28
0001
0100
0001
0000
0100
0010
0100
0000
,  // measure 29
0020
2030
3200
0320
,  // measure 30
0031
0100
0001
0000
0010
0100
0010
0000
,  // measure 31
0001
0000
1000
0000
0001
0100
0000
0010
,  // measure 32
0000
1000
0100
0000
0010
0001
0000
2000
,  // measure 33
0000
3020
0000
0230
0000
0302
0000
2003
,  // measure 34
0000
3001
0100
0000
0010
1000
0000
2002
,  // measure 35
0000
0000
0000
3003
0000
0001
0100
0000
,  // measure 36
2002
3003
1000
0001
,  // measure 37
0100
0010
0100
0000
0001
0100
0001
0000
,  // measure 38
1000
0000
0100
0000
0010
0001
0010
0000
,  // measure 39
0100
0000
1000
0000
0001
0100
0001
0000
,  // measure 40
0202
0303
0100
0010
,  // measure 41
1000
0000
0100
0000
1000
0010
1000
0000
,  // measure 42
0010
0000
0100
0000
0001
0100
0001
0000
,  // measure 43
1001
0110
1001
0110
,  // measure 44
2002
0000
3003
0000
1000
0001
0000
1000
,  // measure 45
0000
0010
0000
0100
0000
0001
0000
0100
,  // measure 46
0000
0010
1000
0000
0001
0000
1001
0000
,  // measure 47
1000
0000
0100
0000
0010
0000
0001
2000
,  // measure 48
0002
0000
3003
0000
1000
0100
0000
1000
,  // measure 49
0000
0010
0000
0100
0000
0001
0000
0010
,  // measure 50
0000
0100
1000
0000
0001
0100
0000
0220
,  // measure 51
0000
0000
0000
0000
,  // measure 52
0330
0000
0000
0000
0000
0100
1000
0100
,  // measure 53
1000
0000
0000
0000
0001
0000
0000
0000
1000
0000
0000
0100
0000
0000
1000
0000
,  // measure 54
0100
0000
0000
0000
1000
0000
0000
0000
0001
0000
0000
0100
0000
0000
0001
0000
,  // measure 55
0100
0120
1030
1200
,  // measure 56
0320
0032
0023
0230
,  // measure 57
1300
0000
0000
0000
0010
0000
0000
0000
0100
0000
0000
0001
0000
0000
0100
0000
,  // measure 58
0001
0000
0000
0000
0100
0000
0000
0000
0010
0000
0000
1000
0000
0000
0010
0000
,  // measure 59
1000
0000
0000
0000
0100
0000
0000
0000
0010
0000
0000
0001
0000
0000
0010
0000
,  // measure 60
0002
0023
0230
1300
,  // measure 61
2002
0000
3003
0000
,  // measure 62
0220
0000
0000
0000
,  // measure 63
0330
0000
0000
0000
;

//---------------dance-single - DDRDAIKENKAI----------------
#NOTES:
     dance-single:
     DDRDAIKENKAI:
     Beginner:
     1:
     0.216,0.242,0.219,0.219,0.000:
0000
0000
0000
0000
,
0000
0000
0000
0000
,
0000
0000
0000
0000
,
0000
0000
0000
0000
,
0001
0000
1000
0000
,
0010
0000
0000
0100
,
0100
0000
0001
0000
,
1001
0000
1001
0000
,
2002
0000
3003
0000
,
0001
0001
0001
0000
,
1000
1000
1000
0000
,
0110
0000
0010
0000
,
0100
0000
0100
0000
,
0001
0000
1000
0000
,
2002
0000
3003
0000
,
0001
0000
1000
0000
,
0001
0000
1000
0000
,
0010
0000
0100
0000
,
0010
0000
0100
0000
,
0220
0000
0330
0000
,
1000
0000
0001
0000
,
2002
0000
3003
0000
,
1000
0000
0100
0000
,
0220
0000
0330
0000
,
0010
0000
0001
0000
,
2002
0000
3003
0000
,
0220
0000
0330
0000
,
1001
0000
0001
0000
,
0100
0100
0100
0000
,
0010
0000
1000
0000
,
0001
0001
0001
0000
,
1000
0000
0001
0000
,
0100
0000
0010
0000
,
1000
1000
1000
0000
,
2002
0000
3003
0000
,
1001
0000
1000
0000
,
0001
0000
0100
0000
,
0010
0000
0100
0000
,
0001
0001
0001
0000
,
1001
0000
1000
0000
,
0100
0000
1000
0000
,
0010
0000
0100
0000
,
0220
0000
0330
0000
,
1001
0000
0001
0000
,
1000
0000
0010
0000
,
0100
0000
0001
0000
,
0100
0100
0100
0000
,
0110
0000
0010
0000
,
1000
0000
0010
0000
,
1000
0000
0001
0000
,
2002
0000
0000
0000
,
3003
0000
0000
0000
,
0001
0000
0100
0000
,
0001
0000
0100
0000
,
0010
0000
0010
0000
,
1000
0000
1000
0000
,
1001
0000
0001
0000
,
1001
0000
1000
0000
,
1001
0000
0001
0000
,
0100
0000
0010
0000
,
0220
0000
0000
0000
,
0330
0000
0000
0000
;

//---------------dance-single - DDRDAIKENKAI----------------
#NOTES:
     dance-single:
     DDRDAIKENKAI:
     Challenge:
     10:
     0.795,0.986,0.318,0.646,0.492: // measure 1
0000
0000
0000
0000
,  // measure 2
0000
0000
0000
0000
,  // measure 3
0000
0000
0000
0000
,  // measure 4
0000
0000
0000
0000
,  // measure 5
1001
0001
1000
0001
0100
0001
0100
0001
,  // measure 6
0100
0010
0100
0010
1000
0100
1100
0210
,  // measure 7
0000
0310
0100
0010
0100
1000
0010
0100
,  // measure 8
0202
0000
0303
1000
0100
0000
0000
0000
,  // measure 9
2200
3300
0000
0000
0000
0100
0010
0001
,  // measure 10
1000
0040
1030
0004
1003
0010
0400
0000
,  // measure 11
0302
0013
0002
1003
0002
0023
0230
0300
,  // measure 12
0110
0000
0100
0000
0100
1000
0000
1000
0001
0000
0001
0100
0000
0100
0010
0000
,  // measure 13
1000
0000
0001
0000
0001
1000
0000
1000
0100
0000
0100
0010
0000
0010
0001
0000
,  // measure 14
1000
0100
1000
0010
0100
0000
0001
0010
0001
1000
0100
1000
0001
1000
0100
1000
,  // measure 15
0100
0010
0100
1000
0100
0010
0001
1000
0001
0010
0100
1000
0001
0100
0010
1000
,  // measure 16
0002
0000
1003
0000
0001
1000
0000
1000
0010
0000
0010
0100
0000
0100
0001
0000
,  // measure 17
0102
0000
0103
0000
0100
0010
0000
0010
1000
0000
1000
0100
0000
0100
0010
0000
,  // measure 18
0120
0000
0130
0000
0100
1000
0000
1000
0010
0000
0010
0100
0000
0100
0001
0000
,  // measure 19
1000
0100
1000
0001
0100
0000
0001
0010
0001
1000
0100
0010
0001
0100
0010
2000
,  // measure 20
0001
3001
1000
0001
0100
0010
0100
0010
,  // measure 21
1000
0100
0010
0001
0010
0100
0110
2100
,  // measure 22
0000
3100
1000
0010
0100
0001
0010
0100
,  // measure 23
1000
0040
0031
0040
0130
0001
0202
0303
,  // measure 24
1001
0001
1000
0001
0100
0010
0100
0010
,  // measure 25
1000
0001
1000
0010
0100
0001
0010
0100
,  // measure 26
1000
0001
1000
0001
0100
0010
0100
0010
,  // measure 27
1010
0000
4000
0000
3001
0000
0040
0000
0130
0000
1000
0100
2000
0000
0000
0000
,  // measure 28
3001
0100
0010
0001
0010
0100
0001
0000
,  // measure 29
1000
0010
0100
1000
0100
0010
1000
0000
,  // measure 30
0001
1000
0001
1000
0100
0010
0100
0010
,  // measure 31
0011
0000
0101
0000
0010
1000
0000
1100
,  // measure 32
0100
0010
0100
1000
0100
0001
0100
0010
,  // measure 33
0001
0010
0100
0010
1000
0010
0100
1000
,  // measure 34
0001
1000
0100
0010
0001
0100
0000
0220
,  // measure 35
0000
0000
0000
0330
0000
0010
1000
0001
,  // measure 36
2002
0000
3003
0000
1000
0002
0000
0203
,  // measure 37
0000
0320
0000
2030
0000
3200
0000
0310
,  // measure 38
0001
1000
0100
1000
0000
0100
2000
0000
0001
0000
0001
0000
3001
0000
0101
0000
,  // measure 39
0001
0010
0100
1000
0010
0100
0001
1000
,  // measure 40
2002
0000
3003
0000
1000
0010
0000
0120
,  // measure 41
0000
0032
0000
0023
0000
1030
0000
1100
,  // measure 42
0100
0000
0000
0010
0001
0000
0010
0000
0100
0000
1000
0000
1001
0000
0001
0100
,  // measure 43
0010
1000
0010
0000
0100
0001
0100
0000
0010
0000
1000
0000
0100
0000
0001
0100
,  // measure 44
0002
0000
0003
0000
0100
2000
0000
3020
,  // measure 45
0000
0230
0000
0302
0000
0023
0000
0130
,  // measure 46
1000
0001
0010
0001
0000
0010
0002
0000
1000
0000
1000
0000
1003
0000
1010
0000
,  // measure 47
0010
0100
0010
1000
0010
0100
0001
1000
,  // measure 48
2002
0000
3003
0000
0001
0100
0000
0120
,  // measure 49
0000
2030
0000
3002
0000
1003
0000
1010
,  // measure 50
0010
0100
0001
0100
0010
1000
0000
1001
,  // measure 51
0001
0000
0040
0000
0130
0000
4000
0000
3400
0010
0304
0000
1003
0001
1000
0002
,  // measure 52
2000
0000
0000
3003
,  // measure 53
1001
0000
0001
0000
0100
0010
0000
0100
0010
0000
1000
0100
0000
1000
0100
0000
,  // measure 54
0010
0000
0001
0000
1000
0010
0000
1000
0010
0000
0100
0001
0000
0100
0001
0000
,  // measure 55
0010
0100
0010
0001
0100
0000
0010
1000
0001
1000
0100
1000
0001
0010
0001
1000
,  // measure 56
0100
1000
0010
0100
0001
0100
0010
1000
0001
0010
0100
1000
0010
1000
0100
0010
,  // measure 57
0002
0000
1003
0000
0010
0100
0000
0010
0100
0000
0001
1000
0000
0001
1000
0000
,  // measure 58
2010
0000
3001
0000
1000
0010
0000
1000
0010
0000
1000
0001
0000
1000
0001
0000
,  // measure 59
0201
0000
0301
0000
1000
0100
0000
0010
0001
0000
0100
0010
0000
1000
0001
0000
,  // measure 60
1000
0010
1000
0001
0100
0000
0001
0010
0100
1000
0100
0010
0001
1000
0010
2000
,  // measure 61
0002
0000
0000
0000
3003
1000
0001
0100
,  // measure 62
0220
0000
0000
0000
,  // measure 63
0330
0000
0000
0000
;
