#TITLE:CHASE/THE THRILL;
#SUBTITLE:;
#ARTIST:T.M.Revolution;
#TITLETRANSLIT:CHASE THE THRILL;
#SUBTITLETRANSLIT:;
#ARTISTTRANSLIT:;
#GENRE:ELECTRONIC ROCK;
#CREDIT:;
#BANNER:CHASE THE THRILL.png;
#BACKGROUND:CHASE THE THRILL-bg.png;
#LYRICSPATH:;
#CDTITLE:CDTitle.png;
#MUSIC:CHASE THE THRILL.ogg;
#OFFSET:-0.033000;
#SAMPLESTART:46.095001;
#SAMPLELENGTH:13.500000;
#SELECTABLE:YES;
#BPMS:0.000000=177.020004
;
#STOPS:
;
#BGCHANGES:;
#KEYSOUNDS:;
#ATTACKS:;

//---------------dance-single - ----------------
#NOTES:
     dance-single:
     :
     Hard:
     8:
     0.647272,0.692221,0.810213,0.314646,0.023598,576.000000,473.000000,103.000000,40.000000,0.000000,0.000000,0.647272,0.692221,0.810213,0.314646,0.023598,576.000000,473.000000,103.000000,40.000000,0.000000,0.000000:
// measure 0
0000
0000
0000
0000
,  // measure 1
0000
0000
0000
0000
,  // measure 2
0000
0000
0000
0000
,  // measure 3
0000
0000
0000
0000
,  // measure 4
0000
0000
0000
0000
,  // measure 5
0000
0000
0000
0000
,  // measure 6
0000
0000
0000
0000
,  // measure 7
0000
0000
0000
0000
,  // measure 8
1000
0010
0100
2000
0000
3100
0001
1000
,  // measure 9
0100
0000
0000
0000
0010
0000
0000
0001
0000
0000
0001
0000
1000
0000
1000
0000
,  // measure 10
0001
0010
0100
0002
0000
0103
0010
0001
,  // measure 11
0100
0000
0010
2000
0000
3001
0100
0010
,  // measure 12
0100
1000
0100
0002
0000
1003
0100
0010
,  // measure 13
0002
0000
0000
0000
1003
0000
0000
0100
0000
0000
0100
0000
0001
0000
0001
0000
,  // measure 14
1000
0010
0001
2000
0000
3010
0100
0001
,  // measure 15
1000
0000
1000
0000
0100
0000
0100
0000
0010
0000
0010
0000
0001
1000
0001
0000
,  // measure 16
1001
0010
0200
0000
1300
0000
1010
0000
,  // measure 17
0010
0100
0001
1000
0100
0010
0001
0000
,  // measure 18
1000
0001
0200
0000
0301
0000
0101
0000
,  // measure 19
0001
0100
0001
0010
0100
1000
0001
0000
,  // measure 20
1000
0100
0020
0000
0031
0000
0101
0000
,  // measure 21
0010
1000
0001
0100
0010
1000
0001
0000
,  // measure 22
0100
0001
2000
0000
3001
0000
0011
0000
,  // measure 23
0010
0000
0100
0000
1000
0000
0001
0000
0010
0000
0100
0000
1000
0010
1000
0000
,  // measure 24
1020
0000
0130
0001
1000
0010
0001
0000
,  // measure 25
0021
0000
1030
0100
0010
0001
1000
0000
,  // measure 26
1200
0000
0310
0001
0100
0010
1000
0000
,  // measure 27
1010
1001
0011
1001
,  // measure 28
1020
0000
0130
0001
1000
0010
0100
0000
,  // measure 29
0210
0000
0310
0001
0010
1000
0002
0000
,  // measure 30
1003
0100
0001
1000
0010
0001
1000
0100
,  // measure 31
0001
1000
0010
0001
1000
0100
0010
0001
,  // measure 32
2000
0000
3100
0020
0000
0130
2000
0000
,  // measure 33
3001
0000
0010
0000
0100
0000
1000
0000
0001
0100
0001
0000
0100
0010
0100
0000
,  // measure 34
0110
1010
0110
0101
,  // measure 35
1001
0011
1100
1001
,  // measure 36
1010
0010
1000
0100
0010
0001
0100
0010
,  // measure 37
1000
0100
0010
0001
0100
0010
1000
0000
,  // measure 38
1002
0000
0013
0000
2100
0000
3010
0001
,  // measure 39
1000
0100
0001
0010
0100
1000
0010
0000
,  // measure 40
0120
0000
1030
0001
0100
0010
1000
0000
,  // measure 41
2001
0000
0000
0010
3010
0000
0101
0000
,  // measure 42
1100
0000
0010
0001
1000
0100
0010
0000
,  // measure 43
0011
1001
1010
1001
,  // measure 44
1100
0011
0110
1010
,  // measure 45
0101
0110
1001
1010
,  // measure 46
0101
0001
1000
0001
0100
0010
1000
0001
,  // measure 47
1000
0010
0100
0001
1000
0100
1000
0000
,  // measure 48
1020
0000
1030
0000
0102
0000
0103
1000
,  // measure 49
0001
0010
1000
0001
0010
0100
1000
0000
,  // measure 50
0012
0000
0103
0010
0100
0001
1000
0000
,  // measure 51
2100
0000
0000
0001
3001
0000
1001
0000
,  // measure 52
2010
0000
3001
0010
0100
1000
0010
0000
,  // measure 53
1010
0101
0110
1001
,  // measure 54
1100
1001
0011
1001
,  // measure 55
1010
1001
0101
1001
,  // measure 56
0011
0001
0100
0010
1000
0100
0010
0001
,  // measure 57
0100
0010
1000
0100
0010
0001
0100
0000
,  // measure 58
1010
0110
0101
0110
,  // measure 59
0011
0110
1100
0110
,  // measure 60
0101
0100
1000
0001
0010
1000
0001
0100
,  // measure 61
1000
0001
0010
1000
0001
0100
1000
0000
,  // measure 62
0011
1001
1100
1001
,  // measure 63
0101
1001
1010
1001
,  // measure 64
1100
1000
0010
0100
0001
0010
0100
1000
,  // measure 65
0010
0100
0001
0010
0100
1000
0010
0000
,  // measure 66
0101
0110
1010
0110
,  // measure 67
1100
0110
0011
0110
,  // measure 68
1010
0010
0001
1000
0100
0001
1000
0010
,  // measure 69
0001
1000
0100
0001
1000
0010
0001
0000
,  // measure 70
1020
0000
1030
0010
0100
0001
1000
0000
,  // measure 71
0001
0100
0010
1000
0001
0000
1001
0000
,  // measure 72
0120
0000
1030
0100
0010
0001
0100
0000
,  // measure 73
0001
0010
0100
1000
0010
0000
0110
0000
,  // measure 74
1020
0000
0130
0001
1000
0010
0100
0000
,  // measure 75
0010
1000
0001
0100
0010
0000
0110
0000
,  // measure 76
1002
0000
0013
1000
0010
0001
0200
0000
,  // measure 77
0310
0001
0010
1000
0001
0010
0100
1000
,  // measure 78
1200
0000
0310
0001
0100
0010
1000
0000
,  // measure 79
0100
1000
0010
0100
0001
0000
0101
0000
,  // measure 80
2100
0000
3010
0100
0001
1000
0100
0000
,  // measure 81
0010
0100
1000
0001
0100
0000
0110
0000
,  // measure 82
0102
0000
1003
0001
0100
0010
1000
0000
,  // measure 83
0001
1000
0010
0100
0001
0000
1001
0000
,  // measure 84
0120
0000
1030
0100
0010
0001
0200
0000
,  // measure 85
0301
0010
0100
1000
0010
0100
0001
1000
,  // measure 86
2002
0000
0000
0000
,  // measure 87
0000
0000
0000
0000
,  // measure 88
3003
0000
0000
0000
;

//---------------dance-single - ----------------
#NOTES:
     dance-single:
     :
     Medium:
     6:
     0.459608,0.588388,0.424772,0.432638,0.000000,409.000000,355.000000,54.000000,55.000000,0.000000,0.000000,0.459608,0.588388,0.424772,0.432638,0.000000,409.000000,355.000000,54.000000,55.000000,0.000000,0.000000:
// measure 0
0000
0000
0000
0000
,  // measure 1
0000
0000
0000
0000
,  // measure 2
0000
0000
0000
0000
,  // measure 3
0000
0000
0000
0000
,  // measure 4
0000
0000
0000
0000
,  // measure 5
0000
0000
0000
0000
,  // measure 6
0000
0000
0000
0000
,  // measure 7
0000
0000
0000
0000
,  // measure 8
1000
0100
2000
0000
0000
0000
3010
0000
,  // measure 9
0100
0000
0001
0010
0000
0010
0001
0000
,  // measure 10
0100
0010
0200
0000
0000
0000
0301
0000
,  // measure 11
0010
0000
0100
1000
0000
1000
0001
0000
,  // measure 12
1000
0010
2000
0000
0000
0000
3001
0000
,  // measure 13
0010
0000
0100
1000
0000
1000
0001
0000
,  // measure 14
1000
0100
0020
0000
0000
0000
0031
0000
,  // measure 15
0100
0000
0001
1000
0000
1000
0001
0000
,  // measure 16
1000
0001
0100
0000
0010
0000
0100
0000
,  // measure 17
0001
0010
0100
1000
,  // measure 18
0001
1000
0010
0000
0100
0000
0001
0000
,  // measure 19
1000
0100
0010
0001
,  // measure 20
0100
0001
0010
0000
0100
0000
1000
0000
,  // measure 21
0010
0001
0010
1000
,  // measure 22
0100
0010
0001
0000
0100
0000
0010
0000
,  // measure 23
1000
0100
0001
0100
,  // measure 24
2000
0001
0010
3100
,  // measure 25
0002
1000
0010
0103
,  // measure 26
2000
0010
0001
3100
,  // measure 27
1100
1001
0101
1001
,  // measure 28
0120
0001
0100
1030
,  // measure 29
0200
0001
1000
0310
,  // measure 30
0002
1000
2003
0010
,  // measure 31
3010
0100
0001
1000
,  // measure 32
0200
0010
0010
0310
,  // measure 33
2002
0000
0000
3003
,  // measure 34
0001
1000
1100
0101
,  // measure 35
0001
0010
0011
1010
,  // measure 36
1000
0100
1000
0000
0010
0100
0010
0000
,  // measure 37
0100
0001
0100
0000
0001
0010
0001
0000
,  // measure 38
0012
0023
0230
2300
,  // measure 39
3020
0230
0302
1003
,  // measure 40
0100
0000
0010
0001
0000
1000
0100
0000
,  // measure 41
2000
0000
0000
0010
3010
0000
0110
0000
,  // measure 42
0100
0000
0001
0010
0000
0001
0100
0000
,  // measure 43
0101
1001
0011
1001
,  // measure 44
1000
0001
0011
1010
,  // measure 45
1000
0100
1100
0101
,  // measure 46
0001
0010
0001
0000
0100
0010
0100
0000
,  // measure 47
0010
1000
0010
0000
1000
0100
1000
0000
,  // measure 48
2100
3200
0320
0032
,  // measure 49
0203
0320
2030
3001
,  // measure 50
0010
0000
0100
1000
0000
0001
0010
0000
,  // measure 51
0002
0000
0000
0100
0103
0000
0110
0000
,  // measure 52
0010
0000
1000
0100
0000
1000
0010
0000
,  // measure 53
1010
1001
1100
1001
,  // measure 54
0021
0230
2300
3020
,  // measure 55
0230
0302
2003
3100
,  // measure 56
0010
0001
0010
0000
0100
0010
0100
0000
,  // measure 57
1000
0001
1000
0000
0100
1000
0100
0000
,  // measure 58
1200
0320
0032
0203
,  // measure 59
0320
2030
3002
0013
,  // measure 60
0100
1000
0100
0000
0010
0100
0010
0000
,  // measure 61
0011
0011
0101
0101
,  // measure 62
1001
1100
1001
0100
,  // measure 63
1001
0101
1001
0100
,  // measure 64
1000
0010
1000
0010
1000
0000
0001
0010
,  // measure 65
0001
0000
0001
0100
0000
0100
0010
0000
,  // measure 66
0110
1010
0110
0100
,  // measure 67
0110
0101
0110
0010
,  // measure 68
1000
0100
1000
0100
1000
0100
1000
0100
,  // measure 69
2000
3001
2002
3003
,  // measure 70
1001
0000
1000
0001
0000
0001
0010
0000
,  // measure 71
0010
0100
0000
0100
1000
0000
0001
0000
,  // measure 72
1000
0000
0001
1000
0000
1000
0010
0000
,  // measure 73
0010
0100
0000
0100
0001
0000
1000
0000
,  // measure 74
0010
0000
0010
0100
0000
0100
0001
0000
,  // measure 75
0001
1000
0000
1000
0010
0000
0100
0000
,  // measure 76
0102
0000
0000
1003
0000
0100
0020
0000
,  // measure 77
0000
0031
0000
1000
0100
2000
0000
0000
,  // measure 78
3010
0000
0010
1000
0000
1000
0001
0000
,  // measure 79
0010
0001
0000
0001
1000
0000
1100
0000
,  // measure 80
1001
0000
1000
0100
0000
0100
1000
0000
,  // measure 81
0001
0100
0000
0100
0010
0000
0110
0000
,  // measure 82
1001
0000
1000
0100
0000
1000
0010
0000
,  // measure 83
0100
0010
0000
0100
0001
0000
0011
0000
,  // measure 84
0210
0000
0000
0310
0000
0001
2000
0000
,  // measure 85
0000
3100
0000
0010
0002
0000
1003
0000
,  // measure 86
2002
0000
0000
0000
,  // measure 87
0000
0000
0000
0000
,  // measure 88
3003
0000
0000
0000
;

//---------------dance-single - ----------------
#NOTES:
     dance-single:
     :
     Easy:
     4:
     0.331502,0.553777,0.275315,0.125858,0.000000,295.000000,260.000000,35.000000,16.000000,0.000000,0.000000,0.331502,0.553777,0.275315,0.125858,0.000000,295.000000,260.000000,35.000000,16.000000,0.000000,0.000000:
// measure 0
0000
0000
0000
0000
,  // measure 1
0000
0000
0000
0000
,  // measure 2
0000
0000
0000
0000
,  // measure 3
0000
0000
0000
0000
,  // measure 4
0000
0000
0000
0000
,  // measure 5
0000
0000
0000
0000
,  // measure 6
0000
0000
0000
0000
,  // measure 7
0000
0000
0000
0000
,  // measure 8
1000
0000
0000
0001
0000
0000
1000
0000
,  // measure 9
0010
0000
0000
0100
0000
0000
0010
0000
,  // measure 10
1000
0000
0000
0001
0000
0000
1000
0000
,  // measure 11
0010
0000
0000
0100
0000
0000
0010
0000
,  // measure 12
1000
0000
0000
0100
0000
0000
0010
0000
,  // measure 13
0001
0000
0000
0100
0000
0000
0010
0000
,  // measure 14
1000
0000
0000
0100
0000
0000
0010
0000
,  // measure 15
0001
0000
0000
0100
0000
0000
0010
0000
,  // measure 16
1000
1000
0010
0010
,  // measure 17
0100
0001
1000
0100
,  // measure 18
0010
0010
0001
0001
,  // measure 19
0100
0010
1000
0001
,  // measure 20
1000
1000
0001
0001
,  // measure 21
1000
0010
0100
0001
,  // measure 22
1000
1000
0001
0001
,  // measure 23
0100
0010
1000
0001
,  // measure 24
0020
0000
0100
0000
0100
0000
0100
0030
,  // measure 25
2000
0010
0010
3010
,  // measure 26
0200
0001
0001
0301
,  // measure 27
1001
1001
1001
1001
,  // measure 28
0002
1000
1000
1003
,  // measure 29
0020
0000
1000
0000
1000
0000
1000
0030
,  // measure 30
0100
0000
0000
0010
0000
0000
0001
0000
,  // measure 31
0000
1000
0000
0000
0100
0000
0010
0000
,  // measure 32
0002
1000
1000
1003
,  // measure 33
2002
0000
0000
3003
,  // measure 34
1000
1000
0001
0001
,  // measure 35
0010
1000
0100
0000
,  // measure 36
0001
0001
1000
1000
,  // measure 37
0010
0001
0100
0000
,  // measure 38
1000
1000
0001
0001
,  // measure 39
1000
0100
0001
0000
,  // measure 40
0100
0000
0000
1000
0000
0000
0001
0000
,  // measure 41
2000
0000
3100
0000
,  // measure 42
0010
0000
0000
0001
0000
0000
1000
0000
,  // measure 43
0002
0000
0103
0000
,  // measure 44
0010
1000
0100
0001
,  // measure 45
0010
1000
0100
0000
,  // measure 46
0001
0100
1000
0010
,  // measure 47
0001
0100
1000
0000
,  // measure 48
0010
0001
0100
1000
,  // measure 49
0010
0001
0100
0000
,  // measure 50
2000
0000
0000
3001
0000
0000
0100
0000
,  // measure 51
0020
0000
1030
0000
,  // measure 52
0020
0000
0000
0130
0000
0000
0001
0000
,  // measure 53
1000
1000
0001
0001
,  // measure 54
1001
1001
0110
0110
,  // measure 55
1001
0110
1001
0000
,  // measure 56
1000
0100
0001
0010
,  // measure 57
1000
0100
0001
0000
,  // measure 58
0101
0101
1100
1100
,  // measure 59
0101
1100
0101
0000
,  // measure 60
0001
0100
1000
0010
,  // measure 61
0001
0100
1000
0000
,  // measure 62
1010
1010
0011
0011
,  // measure 63
1010
0011
1010
0000
,  // measure 64
0010
1000
0100
0001
,  // measure 65
0010
1000
0100
0000
,  // measure 66
0110
0110
1001
1001
,  // measure 67
0110
1001
0110
0000
,  // measure 68
0100
1000
0010
0001
,  // measure 69
0100
1000
0001
0001
,  // measure 70
1002
0000
0000
1003
0000
0000
0010
0000
,  // measure 71
0000
0100
0000
0000
0001
0000
0001
0000
,  // measure 72
1000
0000
0000
0100
0000
0000
0010
0000
,  // measure 73
0000
0100
0000
0000
1000
0000
1000
0000
,  // measure 74
0010
0000
0000
0001
0000
0000
0010
0000
,  // measure 75
0000
1000
0000
0000
0001
0000
0001
0000
,  // measure 76
0100
0000
0000
0010
0000
0000
0100
0000
,  // measure 77
0000
0001
0000
0000
1000
0000
0000
0000
,  // measure 78
0001
0000
0000
0010
0000
0000
1000
0000
,  // measure 79
0000
0010
0000
0000
0001
0000
0100
0000
,  // measure 80
0010
0000
0000
1000
0000
0000
0100
0000
,  // measure 81
0000
1000
0000
0000
0010
0000
0100
0000
,  // measure 82
0001
0000
0000
0100
0000
0000
0010
0000
,  // measure 83
0000
1000
0000
0000
0100
0000
0010
0000
,  // measure 84
0001
0000
0000
0001
0000
0000
1000
0000
,  // measure 85
0000
1000
0000
0000
0010
0000
0100
0000
,  // measure 86
0220
0000
0000
0000
,  // measure 87
0000
0000
0000
0000
,  // measure 88
0330
0000
0000
0000
;
