#TITLE:CAR OF YOUR DREAMS;
#SUBTITLE:;
#ARTIST:Dave & Nuage;
#TITLETRANSLIT:;
#SUBTITLETRANSLIT:;
#ARTISTTRANSLIT:;
#GENRE:;
#CREDIT:;
#MENUCOLOR:;
#BANNER:CAR OF YOUR DREAMS.png;
#BACKGROUND:CAR OF YOUR DREAMS-bg.png;
#LYRICSPATH:;
#CDTITLE:CDTitle.png;
#MUSIC:CAR OF YOUR DREAMS.ogg;
#OFFSET:-0.785;
#SAMPLESTART:51.260;
#SAMPLELENGTH:13.400;
#SELECTABLE:YES;
#LISTSORT:;
#BPMS:0.000=152.000,28.000=304.000,34.000=152.000;
#STOPS:;
#TICKCOUNT:0.000=1;
#BGCHANGES:;
#KEYSOUNDS:;
#ATTACKS:;

//---------------dance-single - DDRDAIKENKAI----------------
#NOTES:
     dance-single:
     DDRDAIKENKAI:
     Challenge:
     9:
     0.791,0.899,0.894,0.494,0.392:
0000
0000
0000
0000
,
0000
0000
0000
0000
,
0000
0000
0000
0000
,
0002
0000
0000
0023
0000
0000
0130
0000
,
1100
0000
1100
0000
1001
0000
0000
1002
,
0000
1003
0001
0100
0010
0100
0001
1000
,
0100
0010
0001
0010
0100
1000
0000
2002
,
0000
0000
0000
0000
,
3003
0000
0000
1001
,
1000
0001
0000
0110
0000
1001
0000
1000
,
0001
0100
0000
0010
0000
1000
0010
1000
0001
0000
1000
0000
1100
0000
0000
0000
,
0010
0001
0000
0011
0001
1002
0000
0103
,
0101
0001
0011
0010
0110
0000
1001
0000
,
1000
0001
0000
0101
0000
1001
0000
1000
,
0010
1000
0000
0100
0000
1000
0100
0010
0001
0000
0010
0000
0011
0000
0000
0000
,
0001
0000
1000
0000
0000
0000
0010
0100
0010
0100
0020
0000
0000
1000
0130
1000
,
0010
0100
0001
1000
0001
0010
0100
1000
0001
0010
0100
1000
0001
0010
0001
0010
,
0001
0010
0001
0010
0100
1000
0100
1000
0100
0000
1200
0000
0000
0000
2300
0000
,
0000
0000
3020
0000
0000
0000
0130
0000
0000
0000
0101
0000
1000
0100
1000
0100
,
1000
0100
2000
0000
0001
0000
3001
0000
0100
0000
0010
0000
0000
0000
0110
0000
,
0000
0000
1010
0000
0000
0000
0110
0000
0010
0000
1010
0000
0010
1000
0010
1000
,
0010
1000
0010
1000
0001
0100
0001
0100
0001
0100
0002
0000
0000
0000
0023
0000
,
0100
0000
0130
0000
1000
0000
0100
0000
0010
0000
0001
0000
1000
0100
1000
0100
,
2000
3002
0010
0013
0100
1000
1100
0100
,
0010
0011
0000
0001
1001
0000
0101
0000
,
0100
0010
0100
0001
0010
0000
0210
0000
,
1300
0002
0000
0103
0010
1000
0001
1000
,
0100
1000
0100
0010
0001
0000
0011
0000
,
1001
1010
0110
0101
,
1000
0000
0001
0000
0000
0000
1001
0000
0000
0000
0001
0100
0001
0100
0010
1000
,
0001
0010
0001
0100
0010
1000
0100
1000
0001
0000
0000
0000
0101
0000
0000
0000
,
0100
0010
0000
0110
0000
1010
0200
0002
,
0000
0010
0313
0110
,
1001
0000
0101
0000
0000
1001
0000
1000
,
0100
0010
0001
0010
0100
2000
3001
0010
,
0100
1000
0100
0010
0001
0000
1000
0001
,
0100
0010
1000
0000
1001
0000
1010
0000
,
1010
0000
0110
0000
0000
0101
0000
0200
,
0302
0023
2030
3020
0032
0203
0320
1030
,
0100
0000
0010
0000
0000
0000
0110
0000
0010
0000
0011
0000
0001
0100
0010
0100
,
0001
0100
0010
0100
0001
0100
0010
0100
1000
0000
0000
0000
1100
0000
0000
0000
,
0100
0001
0000
0101
0000
1001
0000
1000
,
0100
0010
0000
0001
0000
0010
0001
0010
0100
0000
1000
0000
1100
0000
0000
0000
,
1010
0110
0000
0110
0010
1020
0000
1030
,
1001
0001
0101
0100
0110
0000
0101
0000
,
0101
1001
0000
0110
0000
1001
0000
1000
,
0100
0010
0000
0001
0000
0010
0001
1000
0100
0000
0010
0000
0011
0000
0000
0000
,
0110
0000
1100
0000
0000
0000
1000
0100
1000
0100
2000
0000
0000
0001
3010
0100
,
1000
0001
0100
0010
1000
0100
0010
0001
1000
0010
0100
0001
0200
0000
0000
0000
,
0310
1000
0100
0010
0001
0000
0011
0000
,
1000
0200
0000
1300
0001
0100
0010
0100
,
0001
0100
1000
0100
0001
0010
0220
0330
,
2200
3300
2020
3030
0220
0330
0102
0000
,
1003
0000
0001
0000
0000
0000
1001
0000
0000
0000
0001
0010
0001
0100
0010
1000
,
0001
0100
0001
0010
0001
0100
0010
1000
0200
0000
0000
0000
0320
0000
0000
0000
,
0130
1000
0000
1100
0000
1001
0200
0020
,
0000
0001
0331
0110
,
0110
0000
1001
0000
0000
1100
0000
1000
,
0010
0100
0001
0100
0010
2000
3001
0010
,
0100
1000
0100
0010
0001
0000
1000
0001
,
0100
0010
1000
0000
1001
0000
1010
0000
,
1010
0000
0110
0000
0000
0101
0000
0002
,
0023
2030
3020
0032
0203
0320
2030
3100
,
0010
0000
0011
0000
0000
0000
1001
0000
0100
0000
1100
0000
1000
0010
0100
0010
,
1000
0010
0100
0010
1000
0010
0100
0010
0001
0000
0000
0000
0011
0000
0000
0000
,
0010
1000
0000
1010
0000
1001
0000
1000
,
0100
0010
0000
0001
0000
0010
0001
0010
0100
0000
1000
0000
1100
0000
0000
0000
,
1100
1001
0000
0110
0010
1020
0000
1030
,
1010
0010
0110
0100
0101
0000
1100
0000
,
0100
0010
0000
0110
0000
0011
0000
0010
,
0100
1000
0000
0001
0000
1000
0001
0100
0010
0000
1000
0000
1010
0000
0000
0000
,
1000
0000
0001
0000
0000
0000
1000
0100
0010
0001
2000
0000
0000
0000
3001
0000
,
0100
0010
0100
0010
1000
0000
0000
0000
2002
0000
0000
0000
3003
0000
0000
0000
;

//---------------dance-single - DDRDAIKENKAI----------------
#NOTES:
     dance-single:
     DDRDAIKENKAI:
     Hard:
     7:
     0.616,0.558,0.818,0.213,0.000: // measure 1
0000
0000
0000
0000
,  // measure 2
0000
0000
0000
0000
,  // measure 3
0000
0000
0000
0000
,  // measure 4
0000
0000
0000
0000
,  // measure 5
1010
0000
1010
0000
0101
0000
0000
1020
,  // measure 6
0000
0130
0001
0010
1000
0010
0001
0100
,  // measure 7
0010
1000
0100
0001
0100
1000
0000
2002
,  // measure 8
0000
0000
0000
0000
0000
0000
0000
0000
0000
0000
0000
0000
0000
0000
0000
3003
,  // measure 9
0000
0000
0000
0101
,  // measure 10
0010
1000
0000
1010
0000
1001
0000
0001
,  // measure 11
0010
0001
1000
0001
0100
0010
0110
0000
,  // measure 12
0010
1000
0000
0100
0010
0021
0000
0031
,  // measure 13
1000
0001
0010
0001
0100
0000
0110
0000
,  // measure 14
0010
1000
0000
1010
0000
1001
0000
0100
,  // measure 15
0010
1000
0001
1000
0010
0100
0102
0000
,  // measure 16
0013
0200
0000
1300
0100
0020
0000
0031
,  // measure 17
0100
0010
1000
0010
0100
0001
0100
0000
,  // measure 18
0010
1000
0100
0010
0000
0110
0000
0011
,  // measure 19
0000
1001
0000
1010
0000
0110
0010
0100
,  // measure 20
0010
1000
0000
1000
0001
0100
0000
0101
,  // measure 21
0000
0110
0000
1010
0000
1001
0001
0000
,  // measure 22
1000
0100
1000
0100
0010
0001
0000
0011
,  // measure 23
0000
1001
0000
1000
0001
0100
0010
0000
,  // measure 24
1000
0200
0000
0310
0001
0100
0020
0000
,  // measure 25
1030
0200
0000
1300
1010
0000
0110
0000
,  // measure 26
0100
0001
1000
0010
0100
0000
0102
0000
,  // measure 27
0013
0200
0000
1300
0100
0010
0000
0011
,  // measure 28
0000
1001
0000
1010
0000
1100
2000
0000
,  // measure 29
3200
0320
0031
1001
,  // measure 30
1000
0010
0000
0110
0000
0101
0001
0010
,  // measure 31
0001
0100
0010
1000
1010
0000
1002
0000
,  // measure 32
0013
0100
0000
1100
0000
0011
0000
1002
,  // measure 33
0000
0100
0103
0101
,  // measure 34
0101
0000
1001
0000
0000
1010
0000
0100
,  // measure 35
0001
0010
0100
1000
0010
0001
0010
1000
,  // measure 36
0100
0010
0001
0100
0010
0000
1000
0001
,  // measure 37
0100
0010
1000
0000
1001
0000
1010
0000
,  // measure 38
1010
0000
0101
0000
0000
0110
0000
0010
,  // measure 39
1000
0100
0010
0100
1000
0010
0001
0010
,  // measure 40
0100
0001
0000
0101
0000
1001
1000
0001
,  // measure 41
1000
0001
0100
0010
1000
0000
1010
0000
,  // measure 42
0010
1000
0000
1100
0000
1001
0000
1000
,  // measure 43
0001
0010
0001
1000
0100
0010
0110
0000
,  // measure 44
0100
1000
0000
1000
0001
1002
0000
0103
,  // measure 45
0010
0100
0001
0100
0010
0000
0110
0000
,  // measure 46
0010
1000
0000
1010
0000
1001
0000
0001
,  // measure 47
0010
0100
1000
0100
0010
0001
1001
0000
,  // measure 48
0010
0100
0000
0001
0100
0020
0000
1030
,  // measure 49
0010
0100
0010
0001
0010
0100
0110
0000
,  // measure 50
0010
1000
0100
0010
0001
0000
0012
0000
,  // measure 51
1003
0200
0000
1300
0001
0100
0010
1000
,  // measure 52
0001
1000
0010
0100
0001
0000
0011
0000
,  // measure 53
1100
0110
1001
2010
,  // measure 54
3100
1000
0000
1010
0000
0110
0010
1000
,  // measure 55
0010
1000
0001
0000
1001
0000
0101
0000
,  // measure 56
0100
0010
0000
0110
0000
1010
0000
2001
,  // measure 57
0000
0100
3100
0110
,  // measure 58
0110
0000
0011
0000
0000
1001
0000
1000
,  // measure 59
0001
0010
0100
1000
0100
0010
0001
0100
,  // measure 60
0010
1000
0010
0100
0001
0000
1000
0001
,  // measure 61
0100
0010
1000
0000
1010
0000
1001
0000
,  // measure 62
1001
0000
0101
0000
0000
0110
0000
0010
,  // measure 63
1000
0100
0010
0100
1000
0010
0100
0001
,  // measure 64
0010
0100
0000
0110
0000
0011
0001
1000
,  // measure 65
0001
0100
0010
1000
0100
0000
1100
0000
,  // measure 66
0100
0010
0000
0110
0000
0011
0000
1000
,  // measure 67
0010
0100
0001
0100
0010
1000
1001
0000
,  // measure 68
0001
0010
0000
0110
0100
1100
0000
1000
,  // measure 69
0010
1000
0001
1000
0100
0000
1100
0000
,  // measure 70
1000
0010
0000
0110
0000
1001
0000
0001
,  // measure 71
0010
0001
1000
0010
0100
0001
0101
0000
,  // measure 72
0100
0010
0000
1000
0100
0010
0000
0001
,  // measure 73
0100
0010
1000
0000
2002
0000
3003
0000
;

//---------------dance-single - DDRDAIKENKAI----------------
#NOTES:
     dance-single:
     DDRDAIKENKAI:
     Medium:
     6:
     0.478,0.465,0.486,0.153,0.000: // measure 1
0000
0000
0000
0000
,  // measure 2
0000
0000
0000
0000
,  // measure 3
0000
0000
0000
0000
,  // measure 4
0000
0000
0000
0000
,  // measure 5
1001
0000
1001
0000
0101
0000
0000
0001
,  // measure 6
0000
0001
0100
0000
0100
0010
0100
0000
,  // measure 7
0010
1000
0100
0000
0010
0001
0100
0000
,  // measure 8
0220
0000
0000
0000
,  // measure 9
0000
0000
0330
1001
,  // measure 10
0100
0010
0000
0100
0000
0001
0000
1000
,  // measure 11
0100
1000
0100
0000
0010
0000
0001
0000
,  // measure 12
1000
0010
0000
0100
0000
0101
0000
0001
,  // measure 13
0010
0001
0010
0000
0001
0000
1001
0000
,  // measure 14
0001
1000
0000
0100
0000
1000
0000
0100
,  // measure 15
0010
0100
0010
0100
0010
0000
0011
0000
,  // measure 16
0001
1000
0000
0010
0100
0010
0000
0100
,  // measure 17
0001
0100
0001
0100
0001
0000
0101
0000
,  // measure 18
0001
0000
1000
0100
0000
0010
0000
0001
,  // measure 19
0000
0100
0000
0010
0000
1000
0001
1000
,  // measure 20
0001
1000
0000
0001
0100
0001
0000
0100
,  // measure 21
0000
0010
0000
1000
0000
1001
0000
0000
,  // measure 22
0001
0000
0010
0100
0000
1000
0000
0100
,  // measure 23
0000
0010
0000
0001
1000
0001
0000
1000
,  // measure 24
0100
1000
0000
0010
0100
0010
0200
0000
,  // measure 25
0000
0302
0000
0000
2003
0000
0100
0000
,  // measure 26
3100
0000
0010
0100
0010
0000
0011
0000
,  // measure 27
0010
0000
0001
0100
0001
0000
1000
0010
,  // measure 28
1000
0000
0001
0100
0001
0000
0110
0000
,  // measure 29
1001
1100
0101
1001
,  // measure 30
0001
0000
0010
0001
0010
0000
0100
1000
,  // measure 31
0100
1000
1001
0101
,  // measure 32
0001
0010
0001
0010
0100
0000
0220
0000
,  // measure 33
0330
1010
0101
1001
,  // measure 34
1001
0000
1100
0000
0000
0100
0000
0010
,  // measure 35
0000
0001
0000
0000
1000
0000
0010
0100
,  // measure 36
0010
0100
0000
0001
0000
0000
2000
0000
,  // measure 37
0000
3002
0000
0000
0103
0000
0110
0000
,  // measure 38
0110
0000
1010
0000
0000
0001
0000
0100
,  // measure 39
0000
0001
0000
1000
0100
0000
0010
0100
,  // measure 40
0010
0001
0000
0010
0000
0220
0000
0000
,  // measure 41
0000
0000
0330
1100
,  // measure 42
1000
0001
0000
0100
0000
0001
0000
1000
,  // measure 43
0010
1000
0010
0000
0100
0000
0001
0000
,  // measure 44
0010
0001
0000
0100
0010
0100
0000
0010
,  // measure 45
1000
0010
1000
0000
0100
0000
0110
0000
,  // measure 46
0010
0001
0000
0100
0000
0010
0000
0100
,  // measure 47
0001
0100
0001
0100
0001
0000
1000
0000
,  // measure 48
0100
0010
0000
0001
0010
0100
0000
1000
,  // measure 49
0100
1000
0100
1000
0100
0000
0110
0000
,  // measure 50
0010
0001
1000
0000
1001
0000
0001
0000
,  // measure 51
0100
0010
0000
1000
0100
1000
0100
0000
,  // measure 52
0010
0001
1000
1010
,  // measure 53
1010
0101
0101
1001
,  // measure 54
0001
0010
0000
0001
0000
0100
0010
0000
,  // measure 55
0100
0000
0010
1000
0010
0000
0100
0000
,  // measure 56
0001
1000
0000
0001
0000
0100
0000
0120
,  // measure 57
0000
0100
0130
0110
,  // measure 58
0110
0000
1001
0000
0000
1000
0000
0100
,  // measure 59
0000
0010
0000
0000
0001
0000
0100
0010
,  // measure 60
0100
0010
0000
1000
0000
0000
0002
0000
,  // measure 61
0000
0203
0000
0000
0310
0000
1010
0000
,  // measure 62
1010
0000
1001
0000
0000
1000
0000
0100
,  // measure 63
0000
0010
0000
0000
0001
0000
0100
0010
,  // measure 64
0100
0000
0001
1000
0001
0000
2200
0000
,  // measure 65
0000
0000
3300
0110
,  // measure 66
0010
0001
0000
0011
0000
1001
0000
0001
,  // measure 67
0100
0001
0100
0001
0100
0000
0110
0000
,  // measure 68
0010
1000
0000
1010
0000
1100
0000
1000
,  // measure 69
0100
1000
0100
1000
0100
0000
0110
0000
,  // measure 70
0100
1000
0000
1010
0000
0101
0000
0001
,  // measure 71
0010
0001
0010
0001
0010
0000
0011
0000
,  // measure 72
0010
0100
0000
1000
0001
1000
0000
0010
,  // measure 73
1000
1001
0220
0330
;

//---------------dance-single - DDRDAIKENKAI----------------
#NOTES:
     dance-single:
     DDRDAIKENKAI:
     Beginner:
     1:
     0.219,0.278,0.102,0.119,0.000: // measure 1
0000
0000
0000
0000
,  // measure 2
0000
0000
0000
0000
,  // measure 3
0000
0000
0000
0000
,  // measure 4
0000
0000
0000
0000
,  // measure 5
1000
1000
1000
0000
,  // measure 6
0000
0000
0000
0000
,  // measure 7
0001
0000
0000
0000
,  // measure 8
1001
0000
0000
0000
,  // measure 9
0000
0000
0000
0000
,  // measure 10
0000
1000
0000
0100
,  // measure 11
0000
0100
0000
0010
,  // measure 12
0010
0010
0000
0001
,  // measure 13
0000
0001
0000
0100
,  // measure 14
0100
0100
0000
0010
,  // measure 15
0000
0010
0000
1000
,  // measure 16
1000
1000
0000
2002
,  // measure 17
0000
0000
0000
3003
,  // measure 18
0000
1000
0000
0001
,  // measure 19
0000
1000
0000
0010
,  // measure 20
0000
0100
0000
0010
,  // measure 21
0000
0100
0000
0001
,  // measure 22
0000
1000
0000
0001
,  // measure 23
0000
1000
0000
0010
,  // measure 24
0000
0100
0000
2002
,  // measure 25
0000
0000
3003
0000
,  // measure 26
0000
0100
0000
0010
,  // measure 27
0010
0010
0000
1000
,  // measure 28
1000
1000
0000
2002
,  // measure 29
0000
3003
0000
0001
,  // measure 30
0000
0001
0000
0100
,  // measure 31
0100
0100
0000
0010
,  // measure 32
0010
0010
0000
1000
,  // measure 33
0000
1000
1000
1000
,  // measure 34
0000
1000
0000
0010
,  // measure 35
0010
0010
0000
0100
,  // measure 36
0100
0100
0000
0001
,  // measure 37
0001
0001
0000
1000
,  // measure 38
1000
1000
0000
0100
,  // measure 39
0100
0100
0000
0010
,  // measure 40
0000
0001
0000
2002
,  // measure 41
0000
3003
0000
0001
,  // measure 42
0001
0001
0000
0100
,  // measure 43
0100
0100
0000
0010
,  // measure 44
0010
0010
0010
0010
,  // measure 45
0010
0010
0000
1000
,  // measure 46
1000
1000
0000
0001
,  // measure 47
0001
0001
0000
1000
,  // measure 48
0000
0001
0000
2002
,  // measure 49
0000
3003
0000
0100
,  // measure 50
0000
0100
0000
0010
,  // measure 51
0010
0010
0000
1000
,  // measure 52
0000
1000
0000
0001
,  // measure 53
0001
0001
0001
0001
,  // measure 54
0000
1000
0000
0001
,  // measure 55
0000
0100
0000
0010
,  // measure 56
0000
1000
0000
1001
,  // measure 57
0000
1001
1001
1001
,  // measure 58
0000
1000
0000
0100
,  // measure 59
0100
0100
0000
0010
,  // measure 60
0010
0010
0000
0001
,  // measure 61
0001
0001
0000
1000
,  // measure 62
0000
0001
0000
0100
,  // measure 63
0000
0010
0000
1000
,  // measure 64
0000
0001
0000
2002
,  // measure 65
0000
3003
0000
1000
,  // measure 66
0000
0001
0000
0100
,  // measure 67
0100
0100
0000
0010
,  // measure 68
0000
1000
0000
0001
,  // measure 69
0001
0001
0000
0100
,  // measure 70
0000
0010
0000
1000
,  // measure 71
1000
1000
0000
0001
,  // measure 72
0000
0100
0000
0010
,  // measure 73
0000
2002
3003
0000
;

//---------------dance-single - DDRDAIKENKAI----------------
#NOTES:
     dance-single:
     DDRDAIKENKAI:
     Easy:
     4:
     0.382,0.401,0.486,0.400,0.000: // measure 1
0000
0000
0000
0000
,  // measure 2
0000
0000
0000
0000
,  // measure 3
0000
0000
0000
0000
,  // measure 4
0000
0000
0000
0000
,  // measure 5
0010
0010
0010
0000
,  // measure 6
0100
0000
0001
0000
,  // measure 7
1000
1000
1000
0000
,  // measure 8
2002
0000
0000
0000
,  // measure 9
3003
0000
0000
1000
,  // measure 10
1000
0001
0001
2002
,  // measure 11
0000
3003
0000
0010
,  // measure 12
0010
0100
0100
0220
,  // measure 13
0330
0110
0110
0010
,  // measure 14
0010
1000
1000
2020
,  // measure 15
0000
3030
0000
0001
,  // measure 16
0001
0010
0010
0022
,  // measure 17
0033
2200
3300
2002
,  // measure 18
3003
0001
0000
1000
,  // measure 19
1000
1000
0000
0001
,  // measure 20
0001
0002
0003
0100
,  // measure 21
0100
0100
0000
0010
,  // measure 22
1000
0010
0000
0100
,  // measure 23
0001
0100
0000
0010
,  // measure 24
1000
0001
0000
0022
,  // measure 25
0033
2200
3300
0200
,  // measure 26
0300
2000
3000
0001
,  // measure 27
0001
0001
0000
1000
,  // measure 28
0010
0100
0001
0101
,  // measure 29
0101
0101
0101
1001
,  // measure 30
0001
1000
1000
0010
,  // measure 31
1000
0001
0100
0010
,  // measure 32
0010
0100
0001
2002
,  // measure 33
3003
1100
1100
0011
,  // measure 34
0011
1100
0000
0001
,  // measure 35
0100
0100
0000
0010
,  // measure 36
1000
0100
0010
0001
,  // measure 37
0100
0010
1010
0101
,  // measure 38
0101
0101
0000
0010
,  // measure 39
0010
1000
0000
0001
,  // measure 40
0100
0010
1000
2002
,  // measure 41
0000
3003
0000
1000
,  // measure 42
0010
0100
0001
0202
,  // measure 43
0000
0303
0000
0010
,  // measure 44
1000
0100
0010
0220
,  // measure 45
0330
0011
0011
1100
,  // measure 46
0100
0010
0001
2002
,  // measure 47
0000
3003
0000
0010
,  // measure 48
1000
0001
0100
0202
,  // measure 49
0303
1010
0101
1010
,  // measure 50
0010
1000
0001
0100
,  // measure 51
0100
0100
0001
1000
,  // measure 52
0010
0100
0001
0011
,  // measure 53
1100
0101
1010
1001
,  // measure 54
0100
0010
1000
0001
,  // measure 55
1000
0010
0100
0001
,  // measure 56
0001
1000
1000
2002
,  // measure 57
3003
0100
0100
1001
,  // measure 58
1001
0110
0000
0010
,  // measure 59
1000
0100
0000
0010
,  // measure 60
0001
0100
0010
1000
,  // measure 61
0001
1000
0001
0101
,  // measure 62
0101
0101
0000
0010
,  // measure 63
0001
0100
0000
0010
,  // measure 64
1000
0100
0010
2002
,  // measure 65
0000
3003
0000
1000
,  // measure 66
0010
1000
0001
2002
,  // measure 67
0000
3003
0000
0001
,  // measure 68
0010
0001
1000
2002
,  // measure 69
3003
1010
1010
0100
,  // measure 70
0001
0010
0100
2200
,  // measure 71
0000
3300
0000
0010
,  // measure 72
0001
0100
0010
0220
,  // measure 73
0330
2002
3003
0000
;
