#TITLE:CAPTAIN JACK;
#SUBTITLE:;
#ARTIST:CAPTAIN JACK;
#TITLETRANSLIT:;
#SUBTITLETRANSLIT:;
#ARTISTTRANSLIT:;
#GENRE:EURODANCE;
#CREDIT:;
#MENUCOLOR:;
#NEWMETERSYSTEM:NO;
#BANNER:CAPTAIN JACK.png;
#BACKGROUND:CAPTAIN JACK-bg.png;
#LYRICSPATH:;
#CDTITLE:CDTitle.png;
#MUSIC:CAPTAIN JACK.ogg;
#OFFSET:-3.224;
#SAMPLESTART:84.000;
#SAMPLELENGTH:12.700;
#SELECTABLE:YES;
#LISTSORT:;
#BPMS:0.000=75.005,38.000=150.000,160.000=75.005,162.000=150.000,222.000=75.000,224.000=150.000;
#STOPS:134.000=0.800
;
#BGCHANGES:;
#ATTACKS:;

//---------------dance-single - DDRDAIKENKAI----------------
#NOTES:
     dance-single:
     DDRDAIKENKAI:
     Hard:
     8:
     0.563,0.774,0.089,0.000,0.254: // measure 1
0000
0000
0000
0000
,  // measure 2
0000
0000
0000
0000
0000
0000
0000
0000
0001
0100
0001
0100
0010
1000
0001
0000
,  // measure 3
1000
0010
1000
0010
0100
0001
1000
0000
0000
0001
0000
0001
0000
1000
0000
1000
,  // measure 4
0000
0010
0000
0010
0000
0100
0000
0100
0010
0100
0010
0100
0010
1000
0001
0000
,  // measure 5
0100
0010
0100
0010
0100
0001
1000
0000
0001
1000
0000
0100
0000
0010
0000
0001
,  // measure 6
0100
0001
0100
0001
1000
0100
1000
0100
1000
0010
1000
0010
0100
0001
0100
0001
,  // measure 7
0000
1000
0010
0100
0001
0010
0100
1000
0001
0100
0001
0100
0010
1000
0010
1000
,  // measure 8
0000
0001
0100
0010
1000
0100
0010
0001
1000
0001
1000
0001
0100
0010
0100
0010
,  // measure 9
0000
1000
0001
1000
0010
0100
0010
1000
0001
0010
0100
1000
0010
0100
0001
0000
,  // measure 10
1001
0001
0100
0010
1000
0100
0010
0001
1000
0000
0010
0000
1000
0000
0010
0000
,  // measure 11
0100
0001
0100
0001
0000
0010
0001
0010
,  // measure 12
0100
1000
0100
1000
0001
1000
0001
1000
,  // measure 13
0010
0100
0010
0100
0000
0001
0100
0001
,  // measure 14
0100
0010
0100
0010
0100
0001
0010
0100
,  // measure 15
1000
0010
0100
0001
0000
0001
0100
0010
,  // measure 16
1000
0100
0010
0001
1000
0010
0001
0010
,  // measure 17
1000
0100
0001
0100
1000
0001
0010
0100
,  // measure 18
1000
0010
0100
0001
1000
0000
0001
0000
,  // measure 19
1000
0001
0010
0000
0001
0000
1000
0000
,  // measure 20
0001
1000
0100
0000
0010
0001
1000
0100
,  // measure 21
0010
0001
1000
0000
0100
1000
0001
0010
,  // measure 22
0100
1000
0001
0000
0010
0001
0100
0000
,  // measure 23
0001
0100
1000
0000
0100
1000
0010
0000
,  // measure 24
1000
0010
0001
0000
0010
1000
0010
0001
,  // measure 25
0100
0010
1000
0000
0100
0001
0100
1000
,  // measure 26
0010
0100
0001
0000
1000
0100
0001
0100
,  // measure 27
1000
0000
0000
0000
1000
0010
0001
0010
,  // measure 28
1000
0000
0000
0010
1000
0001
1000
0001
,  // measure 29
0100
0000
0000
0100
0001
1000
0001
1000
,  // measure 30
0010
0000
0000
1000
1001
0000
0011
0000
,  // measure 31
1100
0000
0000
0001
1001
0000
0101
0000
,  // measure 32
1010
0000
0000
1000
0010
0100
0010
0100
,  // measure 33
0001
0000
0000
0001
0100
0010
0100
0010
,  // measure 34
1000
0000
1001
0000
,  // measure 35
1000
0100
0010
0001
0100
0001
0100
1000
,  // measure 36
0100
0001
1000
0100
0001
0100
1000
0001
,  // measure 37
0000
1000
0000
1000
0000
0010
0000
0010
,  // measure 38
0110
0000
0000
0000
,  // measure 39
0001
0010
0100
1000
0010
1000
0010
0001
,  // measure 40
0010
1000
0001
0010
1000
0010
0001
0000
,  // measure 41
1001
0000
0010
0100
1000
0100
1000
0100
,  // measure 42
0010
0001
1000
0000
0001
0010
0001
0010
,  // measure 43
0100
1000
0001
0000
0100
0010
1000
0000
,  // measure 44
0100
0010
0001
0000
0100
0010
0100
0010
,  // measure 45
0100
0010
1000
0000
0010
1000
0010
1000
,  // measure 46
0100
1000
0001
0000
0100
0001
0100
0001
,  // measure 47
0010
0001
1000
0000
0010
0100
0001
0000
,  // measure 48
0010
0100
1000
0000
0010
0100
0010
0100
,  // measure 49
0010
0100
0001
0000
1000
0100
1000
0001
,  // measure 50
1000
0100
1000
1000
0001
0010
0001
1000
,  // measure 51
0001
0100
0001
0000
0100
0010
0100
0001
,  // measure 52
0100
0010
0100
0100
0010
1000
0010
0100
,  // measure 53
0010
1000
0001
0000
1000
0100
1000
0001
,  // measure 54
1000
0010
1000
1000
0100
0010
0100
0001
,  // measure 55
0100
1000
0100
0000
1000
0100
0010
0001
,  // measure 56
0100
0000
0010
0000
1000
0000
0000
0000
1001
1000
0010
0100
0001
0010
0100
1000
,  // measure 57
0001
0100
0001
0100
0010
1000
0010
1000
,  // measure 58
0000
0100
1000
0100
0010
0001
0010
0001
,  // measure 59
1000
0001
1000
0001
0100
0010
0100
0010
,  // measure 60
0000
1000
0010
1000
0010
0100
0010
0100
,  // measure 61
0010
1000
0100
0010
0001
0100
0010
1000
,  // measure 62
0000
1000
0010
0100
0001
0010
0100
1000
,  // measure 63
0001
0100
1000
0100
0001
0010
1000
0010
,  // measure 64
0001
1000
0100
0010
0001
0100
0010
1000
,  // measure 65
0001
0000
0000
0000
;

//---------------dance-single - DDRDAIKENKAI----------------
#NOTES:
     dance-single:
     DDRDAIKENKAI:
     Challenge:
     11:
     0.964,1.000,0.185,0.226,1.000: // measure 1
0000
0000
0000
0000
,  // measure 2
0001
1000
0100
0010
0100
1000
0100
0010
0001
1000
0100
0010
0100
1000
0100
1000
0001
0000
1000
0000
0001
0000
1000
0000
0010
0000
1000
0000
0100
0000
0000
0000
,  // measure 3
1000
0001
1000
0001
0010
0001
0100
0001
0000
1000
0000
1000
0000
0001
0000
1000
,  // measure 4
0000
0000
0010
0000
0000
0000
0010
0000
0000
0000
0010
0000
0000
0000
0010
0000
1000
0000
0000
1000
0000
0000
1000
0000
0000
0000
0001
1000
0001
0000
1000
0000
,  // measure 5
0100
0000
0000
0100
0000
0000
0100
0000
0000
0000
0010
0000
0010
0000
0001
0000
1000
0000
0000
0001
0000
0000
1000
0000
0000
0000
0001
0010
0001
0000
1000
0000
,  // measure 6
0001
1000
0100
0010
0100
1000
0100
0010
0001
1000
0100
0010
0100
1000
0100
1000
0001
0000
0100
0000
0001
0000
0010
0000
1000
0000
0010
0000
0001
0000
0001
0000
,  // measure 7
0000
0100
1000
0100
0001
1000
0100
0010
0001
0100
1000
0100
0001
0010
0100
0100
,  // measure 8
0000
0100
0001
0100
1000
0001
0100
0100
0010
1000
0010
0100
0001
1000
0100
0100
,  // measure 9
0000
0100
1000
0001
0010
1000
0010
0001
1000
0100
0010
0001
0100
0010
1000
0000
,  // measure 10
0001
1000
0100
0010
0100
1000
0100
0010
0001
1000
0100
0010
0100
1000
0100
1000
0001
0000
1000
0000
0010
0000
1000
0000
0100
0000
1000
0000
0010
0000
1000
0000
,  // measure 11
0001
1000
0010
1000
0100
1000
0100
1000
0000
1000
0001
0100
0010
0100
0001
0100
,  // measure 12
1000
0100
0001
0100
0010
0100
0010
0100
0001
0010
0100
0010
0001
1000
0100
1000
,  // measure 13
0010
1000
0100
1000
0001
1000
0001
1000
0000
1000
0100
1000
0010
0100
0001
0100
,  // measure 14
0010
1000
0100
0010
0100
1000
0100
1000
0001
0100
0010
0100
0001
1000
0100
1000
,  // measure 15
0001
1000
0010
1000
0100
1000
0100
1000
0000
1000
0100
1000
0001
0100
0010
0100
,  // measure 16
0001
1000
0100
0010
0001
1000
0100
1000
0001
0010
0001
0100
0010
1000
0100
0010
,  // measure 17
0001
1000
0100
1000
0010
1000
0100
1000
0001
1000
0100
0010
0100
1000
0100
0010
,  // measure 18
0001
1000
0100
0010
0100
1000
0100
1000
0002
0000
0013
0000
0020
0000
0031
0000
,  // measure 19
0100
0010
0100
0000
0220
0000
0330
0000
2000
0000
3100
0000
0200
0000
1300
0000
,  // measure 20
0010
0100
0010
0000
0220
0000
0330
0000
1000
0000
0100
0000
0001
0000
0100
1000
,  // measure 21
0001
0000
0100
0000
0210
0000
0000
0000
0301
0000
0010
0000
1000
0000
0010
0001
,  // measure 22
1000
0000
0010
0000
0210
0000
0000
0000
0301
0010
0001
0000
1000
0000
1000
0000
,  // measure 23
0001
0010
0001
0000
2002
0000
3003
0000
1000
0100
1000
0000
0001
0000
0001
0000
,  // measure 24
1000
0100
1000
0000
2002
0000
3003
0000
0001
0100
0001
0000
0100
0010
0100
0000
,  // measure 25
0010
1000
0010
0000
0110
0000
0000
0000
1000
0100
1000
0000
0100
0010
0100
0000
,  // measure 26
0010
0001
0010
0000
0110
0000
0100
0000
2000
0000
0000
3001
0100
0000
0010
0000
,  // measure 27
1000
0100
1000
0100
0010
0000
0100
0000
2000
0000
0000
3010
0100
0000
0001
0000
,  // measure 28
1000
0010
1000
0010
0100
0000
0001
0000
2000
0000
0000
3100
0010
0000
1000
0000
,  // measure 29
0010
0001
0010
0001
0010
0000
0100
0000
2000
0000
0000
3001
0100
0000
1000
0000
,  // measure 30
0100
0001
0100
0001
1000
0000
0100
0000
0210
0000
0000
1300
0001
0000
1000
0000
,  // measure 31
0010
0100
0010
0100
0010
0000
1000
0000
0002
0000
0000
1003
0100
0000
0001
0000
,  // measure 32
0100
1000
0100
1000
0001
0000
1000
0000
0010
0001
0010
0000
1000
0000
0100
0000
,  // measure 33
2000
0000
0000
3001
0100
0000
1000
0000
0100
0001
0100
0000
0001
0000
1000
0000
,  // measure 34
0200
0000
0000
0000
0000
0000
0000
0000
0000
0000
0000
0000
0310
0000
0000
0000
0001
0000
0000
0000
0000
0000
0000
0000
1000
0000
0000
0000
0000
0000
0000
0000
2002
3003
0000
0000
0000
0000
0000
0000
0000
0000
0000
0000
0001
0000
0000
0000
1000
0000
0000
0000
0000
0000
0000
0000
0001
0000
0000
0000
0000
0000
0000
0000
,  // measure 35
0100
0000
0001
0000
0010
0000
0001
0000
1000
0010
0000
1000
0010
0000
0100
0000
,  // measure 36
1000
0000
0100
0000
0001
0000
0100
0000
0010
0000
0001
0000
0010
0000
1000
0001
,  // measure 37
0000
0000
1000
0100
0000
0000
1000
0100
0000
0000
1000
0010
0000
0000
1000
0000
,  // measure 38
2002
0000
0000
3003
,  // measure 39
0010
0000
1000
0000
0100
0000
1000
0000
0001
0100
0000
0001
0100
0000
0010
0000
,  // measure 40
0001
0010
1000
0100
0001
0100
0010
0000
,  // measure 41
0001
1000
0100
0010
0100
1000
0100
0010
0001
1000
0100
0010
0100
1000
0100
1000
0001
0000
0000
0000
0100
0000
0000
0000
0010
0000
0000
0000
0001
0000
0000
0000
,  // measure 42
0010
1000
0001
0000
1001
0000
0000
0000
1000
0000
0010
0000
0100
0000
1000
0000
,  // measure 43
0100
0001
1000
0000
1001
0000
0000
0000
0010
0000
0100
0000
1001
0000
0000
0001
,  // measure 44
0010
0100
1001
0000
0010
1000
0010
0001
,  // measure 45
0010
0100
1001
0000
0110
0001
1000
0100
,  // measure 46
0001
0100
1000
0000
1001
0000
0000
0000
0100
0000
1000
0000
0001
0000
0010
0000
,  // measure 47
1000
0010
0001
0000
1001
0000
0000
0000
0100
0000
0010
0000
1001
0000
0000
0001
,  // measure 48
0100
0000
0010
0000
1001
0000
0000
0001
0100
0000
1000
0000
0100
0000
0001
0000
,  // measure 49
0100
0000
0010
0000
2002
0000
3003
0000
0001
0100
0001
0100
0010
1000
0010
1000
,  // measure 50
0001
1000
0001
1000
0100
1000
0100
1000
0100
0010
0100
0010
0001
0010
0001
0010
,  // measure 51
0001
1000
0001
1000
0100
1000
0100
1000
0001
1000
0001
1000
0001
0010
0001
0010
,  // measure 52
0001
0100
0001
0100
0010
0100
0010
0100
0010
1000
0010
1000
0100
1000
0100
1000
,  // measure 53
0010
1000
0010
1000
0010
0100
0010
0000
1000
0010
1000
0010
0100
0001
0100
0001
,  // measure 54
1000
0001
1000
0001
0010
0001
0010
0001
0010
0100
0010
0100
1000
0100
1000
0100
,  // measure 55
1000
0001
1000
0001
0010
0001
0010
0000
0001
0100
0010
0000
0010
1000
0100
0000
,  // measure 56
0100
0000
0010
0000
0001
0000
0000
0000
1001
0000
0000
0000
0000
0000
0000
0000
1000
0001
0010
0100
0010
0001
0010
0100
1000
0001
0010
0100
0010
0001
0010
0001
,  // measure 57
1000
0001
0100
0001
0010
0001
0100
0001
1000
0001
0010
0001
0100
0010
0100
0001
,  // measure 58
0000
0001
1000
0010
0100
0010
1000
0001
0100
0001
0010
0001
0010
0100
1000
0100
,  // measure 59
0010
0001
1000
0001
0100
0001
0010
0001
1000
0001
0010
0001
0100
0010
0100
0001
,  // measure 60
0000
0001
1000
0100
1000
0100
0010
0100
1000
0001
0100
0010
0001
0010
0100
0010
,  // measure 61
1000
0001
1000
0100
1000
0010
0100
0010
0100
0001
1000
0100
0010
0100
1000
0100
,  // measure 62
0000
0100
1000
0100
0001
0100
0010
0100
1000
0010
0100
0010
0001
0010
0100
0010
,  // measure 63
1000
0100
0010
0001
0010
0100
1000
0010
0100
0001
0100
0010
0100
0001
1000
0100
,  // measure 64
1000
0001
0010
0100
0010
0001
0010
0100
1000
0001
0010
0100
0010
0001
0010
0001
,  // measure 65
1000
0000
0000
0000
;

//---------------dance-single - DDRDAIKENKAI----------------
#NOTES:
     dance-single:
     DDRDAIKENKAI:
     Medium:
     6:
     0.413,0.593,0.056,0.000,0.064: // measure 1
0000
0000
0000
0000
,  // measure 2
0000
0000
0000
0000
0000
0000
0000
0000
1000
0000
0001
0000
1000
0001
0100
0000
,  // measure 3
0001
0000
1000
0000
0001
1000
0100
0000
1000
0000
1000
0000
0001
0000
0001
0000
,  // measure 4
0100
0000
0100
0000
0010
0000
0010
0000
1000
0000
0010
0000
0100
0001
0010
0000
,  // measure 5
0100
0000
0010
0000
0001
0100
0010
0000
1000
0000
0100
0000
0010
0001
0100
0000
,  // measure 6
0001
0000
1000
0000
0001
1000
0001
0000
1000
0000
0100
0000
1000
0010
1000
0000
,  // measure 7
0010
0100
0010
0000
0100
0001
0100
0000
0001
0000
1000
0000
0100
0010
0100
0000
,  // measure 8
0010
0001
0010
0000
0001
1000
0001
0000
1000
0000
0001
0000
0100
0010
0100
0000
,  // measure 9
0010
1000
0010
0000
1000
0001
1000
0000
0001
0000
1000
0000
0100
0010
0001
0000
,  // measure 10
1001
0000
0001
1000
,  // measure 11
0001
1000
0100
0100
0000
0100
1000
0000
,  // measure 12
0001
1000
0100
0100
1000
0000
0001
0000
,  // measure 13
1000
0001
0100
0100
0000
0100
0001
0000
,  // measure 14
1000
0001
0100
0100
0010
0000
1000
0000
,  // measure 15
0001
1000
0010
0010
0000
0010
1000
0000
,  // measure 16
0001
1000
0010
0010
1000
0000
0001
0000
,  // measure 17
1000
0001
0010
0010
0001
0100
0010
0100
,  // measure 18
0010
1000
0100
1000
1000
0000
0010
0000
,  // measure 19
0100
0100
0001
0000
0010
0000
0001
0000
,  // measure 20
0100
0100
0010
0000
1000
0000
0100
0000
,  // measure 21
1000
1000
0001
0000
1000
0000
0001
0000
,  // measure 22
0100
0100
0010
0000
1000
1000
0100
0000
,  // measure 23
0001
0001
0100
0000
1000
1000
0010
0000
,  // measure 24
0001
0001
0010
0000
0001
0100
0001
0000
,  // measure 25
0100
1000
0100
0000
1000
0010
1000
0000
,  // measure 26
0010
0001
0010
0000
1000
0000
0100
0000
,  // measure 27
0001
0000
0001
0100
,  // measure 28
1000
0000
0000
0000
1000
0010
1000
0010
,  // measure 29
0100
0000
0000
0000
0001
0010
0001
0010
,  // measure 30
0100
0000
1000
0100
,  // measure 31
1000
0000
0001
0100
,  // measure 32
0001
0000
0000
0000
1000
0000
0001
1000
,  // measure 33
0100
0000
0000
0000
1000
0000
0001
0100
,  // measure 34
0010
0000
0110
0000
,  // measure 35
0010
0000
1000
0000
0100
1000
0100
0000
,  // measure 36
1000
0010
0100
0001
,  // measure 37
1000
1000
0001
0001
,  // measure 38
1001
0000
0000
0000
,  // measure 39
0001
0000
1000
0000
0001
0010
0001
0000
,  // measure 40
0100
0000
0010
0000
1000
0100
1000
0000
,  // measure 41
1001
0000
0001
0001
1000
0000
1000
0000
,  // measure 42
0001
0100
0001
0000
0010
0000
0010
0000
,  // measure 43
0001
0100
0001
0000
1000
0100
0010
0000
,  // measure 44
0001
0100
0010
0000
1000
0100
1000
0100
,  // measure 45
1000
0100
0010
0000
0001
0000
0001
0000
,  // measure 46
1000
0010
1000
0000
0001
0000
0001
0000
,  // measure 47
1000
0100
1000
0000
0010
1000
0100
0000
,  // measure 48
0010
0001
0100
0000
0010
1000
0010
1000
,  // measure 49
0010
1000
0100
0000
1100
0000
0000
0000
,  // measure 50
0000
1000
0100
0010
0001
1000
0100
0000
,  // measure 51
0000
0000
0000
1000
,  // measure 52
0001
0001
1000
0000
,  // measure 53
1000
0000
1001
0000
,  // measure 54
0000
0100
0010
0001
1000
0010
0100
0000
,  // measure 55
0000
0000
0000
0000
0001
1000
0001
1000
,  // measure 56
0100
1000
0100
0000
1001
0000
0000
0000
,  // measure 57
1000
0000
0100
0000
0010
0001
0100
0100
,  // measure 58
0000
0001
0100
0000
0001
0010
0100
0100
,  // measure 59
1000
0000
0010
0000
1000
0010
0100
0100
,  // measure 60
0000
0010
0100
0000
0010
1000
0100
0100
,  // measure 61
1000
0000
0001
0000
1000
0001
0100
0100
,  // measure 62
0000
0001
0100
0000
0001
1000
0100
0100
,  // measure 63
0010
0000
0001
0000
0100
0010
0100
0000
,  // measure 64
0010
1000
0100
0010
0100
1000
0100
1000
,  // measure 65
0001
0000
0000
0000
;

//---------------dance-single - DDRDAIKENKAI----------------
#NOTES:
     dance-single:
     DDRDAIKENKAI:
     Beginner:
     1:
     0.189,0.284,0.153,0.000,0.000: // measure 1
0000
0000
0000
0000
,  // measure 2
0000
0000
0000
0000
,  // measure 3
0000
0000
0000
0000
,  // measure 4
0000
0000
0100
0000
,  // measure 5
0100
0000
0001
0000
,  // measure 6
0001
0000
1000
0000
,  // measure 7
0001
0000
1000
0000
,  // measure 8
1000
0000
0001
0000
,  // measure 9
0100
0000
0010
0000
,  // measure 10
1001
0000
0100
0100
,  // measure 11
0100
0000
0001
0001
,  // measure 12
0001
0000
1000
0000
,  // measure 13
0100
0000
0010
0000
,  // measure 14
0001
0000
1000
1000
,  // measure 15
1000
0000
0001
0001
,  // measure 16
0001
0000
0010
0000
,  // measure 17
0100
0000
1001
0000
,  // measure 18
0000
0000
1000
1000
,  // measure 19
1000
0000
0001
0001
,  // measure 20
0001
0000
0100
0100
,  // measure 21
0100
0000
0010
0010
,  // measure 22
0010
0000
1000
1000
,  // measure 23
1000
0000
0001
0001
,  // measure 24
0001
0000
0100
0100
,  // measure 25
0100
0000
0010
0010
,  // measure 26
0010
0000
1000
1000
,  // measure 27
1000
0000
0001
0001
,  // measure 28
0001
0000
1000
1000
,  // measure 29
1000
0000
0001
0001
,  // measure 30
0001
0000
0010
0010
,  // measure 31
0010
0000
0100
0100
,  // measure 32
0100
0000
0010
0010
,  // measure 33
0010
0000
0100
0100
,  // measure 34
0100
0000
0110
0000
,  // measure 35
0100
0000
0010
0000
,  // measure 36
0001
0000
1000
0000
,  // measure 37
0001
0000
0100
0000
,  // measure 38
0110
0000
0000
0000
,  // measure 39
1000
0000
0001
0000
,  // measure 40
0001
0000
1000
0000
,  // measure 41
1001
0000
1000
0000
,  // measure 42
1000
0000
0001
0000
,  // measure 43
0001
0000
1001
0000
,  // measure 44
1001
0000
1001
1001
,  // measure 45
1001
0000
0100
0000
,  // measure 46
0001
0000
0010
0000
,  // measure 47
0100
0000
0110
0000
,  // measure 48
0110
0000
0110
0110
,  // measure 49
0110
0000
1001
0000
,  // measure 50
0000
0000
0001
0001
,  // measure 51
0000
0000
1000
0000
,  // measure 52
0000
0000
0001
0001
,  // measure 53
0000
0000
1001
0000
,  // measure 54
0000
0000
0100
0100
,  // measure 55
0000
0000
0010
0000
,  // measure 56
1000
0000
1001
0000
,  // measure 57
0100
0100
0100
0000
,  // measure 58
1000
1000
1000
0000
,  // measure 59
0001
0001
0001
0000
,  // measure 60
0100
0100
0100
0000
,  // measure 61
0010
0010
0010
0000
,  // measure 62
1000
1000
1000
0000
,  // measure 63
0010
0000
0100
0000
,  // measure 64
0001
0000
1000
0000
,  // measure 65
1001
0000
0000
0000
;

//---------------dance-single - DDRDAIKENKAI----------------
#NOTES:
     dance-single:
     DDRDAIKENKAI:
     Easy:
     4:
     0.271,0.284,0.121,0.000,0.000: // measure 1
0000
0000
0000
0000
,  // measure 2
0000
0000
1000
1000
,  // measure 3
0001
0001
0100
0100
,  // measure 4
0010
0000
0010
0000
1000
1000
1000
0000
,  // measure 5
0001
0001
0001
0000
0100
0100
0100
0000
,  // measure 6
0010
0000
1000
0001
,  // measure 7
1000
1000
0000
0000
0000
1000
0001
0001
,  // measure 8
1000
0000
1000
0001
,  // measure 9
1000
1000
0000
0000
0010
0000
0100
0000
,  // measure 10
0110
0000
0010
1000
,  // measure 11
0001
0001
0000
1000
,  // measure 12
0001
0100
0001
0010
,  // measure 13
0100
0100
0000
1000
,  // measure 14
0010
1000
0001
1000
,  // measure 15
0010
0010
0000
1000
,  // measure 16
0001
0100
0001
0010
,  // measure 17
0100
1000
0010
1000
,  // measure 18
0100
0010
0110
0010
,  // measure 19
0001
0001
1001
0001
,  // measure 20
1000
1000
0100
0100
,  // measure 21
1000
0010
0100
0100
,  // measure 22
0001
0010
0001
0001
,  // measure 23
1000
1000
0100
0100
,  // measure 24
1000
1000
0010
1000
,  // measure 25
0100
0010
0001
0010
,  // measure 26
0100
1000
1000
0001
,  // measure 27
1000
0000
1000
0001
,  // measure 28
1000
0000
0001
0100
,  // measure 29
0001
0000
0001
0100
,  // measure 30
0001
0000
1000
0100
,  // measure 31
0010
0000
0001
0100
,  // measure 32
0010
0000
1000
0100
,  // measure 33
0001
0000
0100
1000
,  // measure 34
0010
0000
0110
0000
,  // measure 35
1000
0001
0100
0010
,  // measure 36
1000
0001
1000
0000
,  // measure 37
0000
0000
0000
0000
,  // measure 38
1001
0000
0000
0000
,  // measure 39
1000
0001
0100
0010
,  // measure 40
1000
0001
1000
0000
,  // measure 41
0110
0000
0100
0100
0010
0000
1000
0000
,  // measure 42
0001
0001
1000
0010
,  // measure 43
0100
0100
0001
0101
,  // measure 44
1000
1100
0100
1000
,  // measure 45
0001
1001
0001
0100
,  // measure 46
0010
0010
1000
0100
,  // measure 47
0010
0010
0001
0011
,  // measure 48
1000
1010
1000
0001
,  // measure 49
0100
0110
1001
0000
,  // measure 50
0000
0100
0001
0100
,  // measure 51
0000
0000
0000
1000
,  // measure 52
0001
0001
1000
0000
,  // measure 53
0001
0000
1001
0000
,  // measure 54
0000
0100
0010
0100
,  // measure 55
0000
0000
0010
1000
,  // measure 56
0100
0010
1001
0000
,  // measure 57
0001
1000
0100
0100
,  // measure 58
1000
0001
0100
0100
,  // measure 59
0010
0100
0001
0010
,  // measure 60
0100
0100
1000
1000
,  // measure 61
0010
1000
0100
0010
,  // measure 62
0100
0100
0010
0100
,  // measure 63
1000
0001
0100
0010
,  // measure 64
1000
0100
0010
0001
,  // measure 65
1000
0000
0000
0000
;
