#TITLE:Boomerang;
#SUBTITLE:(Boomerang In Der Luft Mix);
#ARTIST:Blümchen;
#TITLETRANSLIT:;
#SUBTITLETRANSLIT:;
#ARTISTTRANSLIT:Blumchen;
#GENRE:HAPPY EURO;
#CREDIT:;
#MENUCOLOR:;
#NEWMETERSYSTEM:NO;
#BANNER::Boomerang (Boomerang In Der Luft Mix).png;
#BACKGROUND::Boomerang (Boomerang In Der Luft Mix)-bg.png;
#LYRICSPATH:;
#CDTITLE:CDtitle.png;
#MUSIC: Boomerang (Boomerang In Der Luft Mix).ogg;
#OFFSET:-1.495;
#SAMPLESTART:43.380;
#SAMPLELENGTH:18.312;
#SELECTABLE:YES;
#LISTSORT:;
#BPMS:0.000=182.000;
#STOPS:;
#BGCHANGES:;
#ATTACKS:;

//---------------dance-single - DDRDAIKENKAI----------------
#NOTES:
     dance-single:
     DDRDAIKENKAI:
     Hard:
     9:
     0.769,0.778,0.920,0.166,0.143:
0000
0000
0000
0000
,
0000
0000
0000
0000
,
0000
0000
0000
0000
,
0000
0000
0000
0000
,
0000
0000
0000
0000
,
0000
0000
0000
0000
,
0000
0000
0000
0000
,
0000
0000
0000
0000
0000
0000
0000
0000
0000
0000
0001
1000
0001
0000
1000
0001
,
1000
0000
0000
1000
0000
0000
1000
0000
0000
0000
1000
0000
0100
0000
0010
0000
,
0001
0000
0000
0001
0000
0000
0001
0000
0000
0000
0100
0000
0010
0000
1000
0000
,
0100
0000
0000
0100
0000
0000
0100
0000
0000
0000
0010
0000
0001
0000
0100
0000
,
0010
0000
0000
0010
0000
0000
0010
0000
0000
0000
0010
0000
0100
0000
0001
0000
,
1000
0010
1000
0010
0100
0001
0100
0001
,
0010
0001
0010
0001
1000
0100
1000
0100
,
1000
0010
0000
0000
0010
1000
0000
0000
1000
0001
0000
0000
0001
0100
0000
0000
,
0100
0001
0000
0000
0001
0010
0000
0000
0010
0100
0000
0000
0100
1000
0000
0000
,
1001
0000
1001
0000
1000
0001
0000
0001
,
0000
0000
0001
0000
1000
0100
1000
0000
0001
0100
0001
0000
1000
0100
1000
0000
,
1001
0000
1001
0000
1000
0010
0000
0010
,
0000
0000
0010
0000
1000
0010
1000
0000
0001
0010
0001
0000
1000
0010
1000
0000
,
1001
0000
1001
0000
1000
0001
0000
0001
,
1001
0000
1000
0000
0100
1000
0100
0000
0010
0001
0010
0000
0100
0010
0100
0000
,
0110
1000
0110
0001
,
1000
0100
1000
0010
0100
0001
1000
0000
,
1001
0000
0110
0000
0010
1000
0100
1000
,
0010
0000
0100
0000
0001
0010
0001
0000
0010
0100
0010
0000
0100
1000
0100
0000
,
1010
0000
0101
0000
1000
0100
1000
0001
,
0010
0000
0001
0000
1000
0100
1000
0000
0001
0010
0001
0000
0100
0010
0100
0000
,
1001
0000
0110
0000
0100
0001
1000
0010
,
1000
0000
0001
0000
0010
0001
0010
0000
0001
0100
0001
0000
1000
0010
1000
0000
,
0110
0000
1001
0000
1000
0100
1000
0010
,
0100
0001
0000
0000
0001
0010
0000
0000
0010
0100
0000
0000
0100
0000
1000
0000
,
1100
0101
1100
0101
,
1000
0100
0001
0000
0001
0100
1000
0001
,
1001
1010
1001
0011
,
0001
0010
0100
0000
0100
0010
0001
1000
,
1010
0011
1010
0011
,
1000
0010
0001
0000
0001
0010
1000
0001
,
1001
1100
1001
0101
,
0001
1000
0100
0000
0100
1000
1001
0000
,
1000
0100
0010
0100
1000
0100
0010
0100
,
2000
3002
0023
0230
,
0310
0001
0100
0001
0010
0001
0100
0001
,
0020
0230
2300
3002
,
1003
0100
0001
0100
1000
0100
0001
0100
,
1000
0010
0001
0010
1000
0010
0001
0010
,
1000
0100
0001
0100
1000
0010
0001
0010
,
1000
0100
0010
0001
0101
0100
0110
0000
,
1001
0110
1001
0110
,
1000
0001
0100
0000
0100
0001
1000
0100
,
0011
1100
0011
1100
,
0001
0100
0010
0000
0010
1000
0100
1000
,
0110
1001
0110
1001
,
1000
0001
0100
0000
0100
0001
0010
0100
,
1100
0011
0101
1010
,
0110
0000
0010
0000
1002
0000
1003
0001
,
0011
0010
0001
0100
0010
1000
1100
0000
,
1010
0010
1000
0100
1000
0010
0110
0000
,
0101
0001
0010
0100
1000
0010
1010
0000
,
0110
0101
1010
0110
,
1001
0001
0010
0001
1000
0100
1100
0000
,
0011
0001
0100
0010
1000
0010
0110
0000
,
1001
0100
1000
0100
0001
0100
1000
0100
,
0010
0100
1000
0100
0010
0100
1100
1000
,
1001
0001
0100
0010
0100
0001
1001
0000
,
1100
0100
0010
0001
0010
0100
1100
0000
,
1010
0010
0100
0001
0010
0100
0110
0000
,
0011
0110
1100
1010
,
0001
0000
1100
0000
0101
0001
0100
0010
,
1000
0000
1010
0000
0011
0001
1000
0001
,
0100
1000
0100
0001
0100
1000
0100
0001
,
0010
0100
0000
0000
0100
1000
0000
0000
1000
0001
0000
0000
0001
0000
0010
0000
,
0011
1010
0011
1010
,
0001
0010
1000
0000
1000
0010
0001
1000
,
1001
0101
1001
1100
,
1000
0100
0010
0000
0010
0100
1000
0001
,
0101
1100
0101
1100
,
0001
0100
1000
0000
1000
0100
0001
1000
,
1001
0011
1001
1010
,
1000
0001
0010
0000
0010
0001
1001
0000
,
0001
0010
0100
0010
0001
0010
0100
0010
,
0002
2003
3200
0320
,
0130
1000
0010
1000
0100
1000
0010
1000
,
0200
0320
0032
2003
,
3001
0010
1000
0010
0001
0010
1000
0010
,
0001
0100
1000
0100
0001
0100
1000
0100
,
0001
0010
1000
0010
0001
0100
1000
0100
,
0001
0010
0100
1000
1010
0010
0110
0000
,
1001
0110
1001
0110
,
0001
1000
0010
0000
0010
1000
0001
0010
,
1100
0011
1100
0011
,
1000
0010
0100
0000
0100
0001
0010
0001
,
0110
1001
0110
1001
,
0001
1000
0010
0000
0010
1000
0100
0010
,
0011
1100
1010
0101
,
2002
3003
0220
0330
,
0002
0000
0000
0000
,
0000
0000
0000
0000
,
0003
1100
0000
0000
;

//---------------dance-single - DDRDAIKENKAI----------------
#NOTES:
     dance-single:
     DDRDAIKENKAI:
     Medium:
     7:
     0.565,0.667,0.498,0.354,0.000: // measure 1
0000
0000
0000
0000
,  // measure 2
0000
0000
0000
0000
,  // measure 3
0000
0000
0000
0000
,  // measure 4
0000
0000
0000
0000
,  // measure 5
0000
0000
0000
0000
,  // measure 6
0000
0000
0000
0000
,  // measure 7
0000
0000
0000
0000
,  // measure 8
0000
0000
0000
2000
,  // measure 9
3002
2003
3200
0320
,  // measure 10
0032
0000
0003
0200
,  // measure 11
0302
0023
0230
2300
,  // measure 12
3002
0000
0003
1000
,  // measure 13
0010
0010
1000
1000
,  // measure 14
0001
0001
1000
1000
,  // measure 15
0010
1000
0001
0100
,  // measure 16
0210
0010
0010
0310
,  // measure 17
1000
0000
1000
0000
0000
0001
0000
0001
,  // measure 18
0000
1000
0100
0000
0010
0000
0001
0000
,  // measure 19
1000
0000
1000
0000
0000
0001
0000
0010
,  // measure 20
0000
0001
0100
0000
0010
0000
1000
0000
,  // measure 21
0001
0000
0001
0000
0000
1000
0000
0010
,  // measure 22
0100
0000
0100
0000
0000
0100
0000
0001
,  // measure 23
0010
0010
0100
0100
,  // measure 24
1000
0100
1000
0100
0010
0001
1000
0000
,  // measure 25
1001
0000
1001
0000
0001
0010
0001
0000
,  // measure 26
0100
0010
0100
0000
0010
1000
0010
0000
,  // measure 27
1010
0000
1010
0000
0010
0100
0010
0000
,  // measure 28
1000
0100
1000
0000
0001
1000
0001
0000
,  // measure 29
1001
0000
1001
0000
0001
0010
0001
0000
,  // measure 30
0100
0010
0100
0000
0001
1000
0001
0000
,  // measure 31
1001
0000
1001
0000
1000
0100
1000
0000
,  // measure 32
0001
0010
0100
0000
1000
0001
0100
0001
,  // measure 33
0100
0100
0100
0100
,  // measure 34
0100
0010
0100
0000
0001
1000
0100
0000
,  // measure 35
1000
1000
1000
1000
,  // measure 36
1000
0001
0010
0000
0010
0001
0100
0001
,  // measure 37
0010
0010
0010
0010
,  // measure 38
0010
0100
1000
0000
1000
0001
0100
0000
,  // measure 39
0001
0001
0001
0001
,  // measure 40
0001
1000
0010
0000
0010
1000
0100
0000
,  // measure 41
0110
0010
0001
1000
,  // measure 42
2010
0010
3100
0010
,  // measure 43
1010
1000
0001
0100
,  // measure 44
0120
1000
0130
1000
,  // measure 45
1010
1000
0100
1000
,  // measure 46
0010
0001
0010
1000
,  // measure 47
0001
0010
0100
0010
,  // measure 48
0022
0033
1100
1001
,  // measure 49
0110
0110
0110
0110
,  // measure 50
0100
0010
0100
0000
0001
0000
0010
0001
,  // measure 51
0200
2300
3200
0302
,  // measure 52
0103
0010
1000
0000
0100
0000
0010
0001
,  // measure 53
1001
1001
1001
1001
,  // measure 54
1000
0001
0100
0000
0010
0000
1000
0100
,  // measure 55
2000
3200
0320
0130
,  // measure 56
0110
0000
0010
0000
2001
0000
3001
0010
,  // measure 57
0001
0010
0001
0000
0100
0010
0100
0000
,  // measure 58
0010
1000
0010
0000
1000
0100
1000
0000
,  // measure 59
0001
0010
0100
0000
1000
0001
0100
0000
,  // measure 60
0001
0001
1000
1000
,  // measure 61
0010
0100
0010
0000
1000
0100
1000
0000
,  // measure 62
0001
0010
0001
0000
0100
0010
0100
0000
,  // measure 63
0110
0001
1001
1000
,  // measure 64
1001
0000
1100
0000
1100
0000
0100
0010
,  // measure 65
0100
2000
3002
0103
,  // measure 66
0010
0200
0302
1003
,  // measure 67
0001
2000
3200
1300
,  // measure 68
0010
0010
1000
0100
,  // measure 69
1000
1010
0101
0001
,  // measure 70
1000
1100
0011
0001
,  // measure 71
1001
1000
1100
0100
,  // measure 72
0010
0000
0010
0000
0010
0000
0001
1000
,  // measure 73
0001
0001
0001
0001
,  // measure 74
0001
1000
0100
0000
1000
0001
0100
0010
,  // measure 75
0100
0100
0100
0100
,  // measure 76
0100
0001
0010
0000
0100
0010
0001
1000
,  // measure 77
0001
0001
0001
0001
,  // measure 78
0001
1000
0100
0000
0100
1000
0001
0100
,  // measure 79
0010
0010
0010
0010
,  // measure 80
0010
1000
0100
0000
0010
0001
0100
0000
,  // measure 81
0101
0001
1000
0001
,  // measure 82
2001
0001
3100
1000
,  // measure 83
1010
0100
0001
1000
,  // measure 84
2100
0100
3010
0001
,  // measure 85
0101
0101
1010
1010
,  // measure 86
0011
0011
1100
1100
,  // measure 87
1001
1001
0110
0110
,  // measure 88
2002
3003
0001
1000
,  // measure 89
1100
0101
1100
0101
,  // measure 90
1000
0001
0100
0000
0001
1000
0100
1000
,  // measure 91
0020
2030
3002
2003
,  // measure 92
3001
0010
0001
0000
0001
1000
0010
0100
,  // measure 93
0110
1001
0110
1001
,  // measure 94
0100
0001
0010
0000
0100
1000
0010
0100
,  // measure 95
0020
2030
3002
0103
,  // measure 96
0220
0330
2002
3003
,  // measure 97
0200
0000
0000
0000
,  // measure 98
0000
0000
0000
0000
,  // measure 99
0300
1010
0000
0000
;

//---------------dance-single - DDRDAIKENKAI----------------
#NOTES:
     dance-single:
     DDRDAIKENKAI:
     Easy:
     4:
     0.346,0.370,0.121,0.053,0.000:
0000
0000
0000
0000
,
0000
0000
0000
0000
,
0000
0000
0000
0000
,
0000
0000
0000
0000
,
0000
0000
0000
0000
,
0000
0000
0000
0000
,
0000
0000
0000
0000
,
0000
0000
0000
0000
,
1000
1000
1000
0100
,
0020
0000
0030
0000
,
0001
0001
0001
0100
,
0020
0000
0030
0000
,
1000
1000
1000
1000
,
0001
0001
0001
0001
,
0100
0100
0100
0100
,
0010
0010
0010
0010
,
0110
0110
0000
0000
,
0100
0001
1000
0001
,
1001
1001
0000
0000
,
0001
0010
0100
1000
,
1001
1001
0000
0000
,
0110
0110
0000
0000
,
1001
1001
0000
0000
,
0100
0100
0100
0100
,
0110
0010
0000
0010
,
1000
0100
0010
0001
,
1000
1000
0000
0001
,
0010
0001
0100
0010
,
0100
0100
0000
0010
,
1000
0100
0010
0001
,
1000
1000
0000
0001
,
0100
0100
0100
0100
,
0110
0010
0010
0010
,
0010
0010
0000
1000
,
0001
0001
0001
0001
,
0001
0001
0000
1000
,
0100
0100
0100
0100
,
0100
0100
0000
0100
,
1000
1000
1000
1000
,
1000
1000
0000
1000
,
0001
0100
0010
1000
,
0002
0000
0003
1000
,
0010
0100
0001
0010
,
0002
0000
0003
1000
,
0001
0010
0001
0010
,
0100
1000
0100
1000
,
0001
0100
0010
1000
,
0001
0000
1000
1000
,
0010
0010
0010
0010
,
0010
0010
0000
0010
,
1000
1000
1000
1000
,
1000
1000
0000
1000
,
0001
0001
0001
0001
,
0001
0001
0000
0001
,
0100
0100
0100
0100
,
0100
0000
0110
0000
,
1001
0000
0001
1000
,
1000
0000
0001
0001
,
0100
0000
0010
1000
,
0100
0100
0010
0010
,
0001
0000
0100
0001
,
0010
0000
0100
1000
,
1000
0001
0001
0100
,
0010
0100
0100
0010
,
0010
0000
1000
0001
,
1000
0000
0001
1000
,
0100
0000
1000
0001
,
0100
0100
0010
0010
,
1000
0001
0001
1000
,
0010
1000
1000
0001
,
1000
1000
0001
0001
,
0010
0010
0010
0010
,
0010
0100
0010
0100
,
1000
1000
0000
0001
,
0100
0010
0100
0010
,
0100
0001
0000
1000
,
0001
1000
0001
1000
,
0001
1000
0000
0100
,
0010
0100
0010
0100
,
0010
0100
0000
1000
,
0001
0010
0100
1000
,
0002
0000
0003
1000
,
0100
0010
0100
1000
,
0020
0000
0030
0100
,
0001
0010
0100
1000
,
0010
0100
0001
1000
,
0100
0010
0001
1000
,
0001
0000
1000
1000
,
0001
0001
0001
0001
,
0001
0001
0000
1000
,
0010
0010
0010
0010
,
0010
0010
0000
0010
,
1000
1000
1000
1000
,
1000
1000
0000
0010
,
0100
0100
0100
0100
,
0010
0000
1001
0000
,
0200
0000
0000
0000
,
0000
0000
0000
0000
,
0300
1001
0000
0000
;
