#TITLE:Boom Boom Pow;
#SUBTITLE:;
#ARTIST:Black Eyed Peas;
#TITLETRANSLIT:;
#SUBTITLETRANSLIT:;
#ARTISTTRANSLIT:;
#GENRE:HIP-HOP;
#CREDIT:;
#MENUCOLOR:;
#NEWMETERSYSTEM:NO;
#BANNER:Boom Boom Pow.png;
#BACKGROUND:Boom Boom Pow-bg.png;
#LYRICSPATH:;
#CDTITLE:CDTitle.png;
#MUSIC:Boom Boom Pow.ogg;
#OFFSET:0.000;
#SAMPLESTART:22.140;
#SAMPLELENGTH:14.320;
#SELECTABLE:YES;
#LISTSORT:;
#BPMS:0.000=130.000,85.500=260.000,87.500=130.000,215.000=260.000,216.000=130.000,222.000=260.000,223.000=130.000,225.000=260.000,226.000=130.000,228.000=260.000,229.000=130.000;
#STOPS:215.000=0.346
,215.500=0.346
,222.000=0.346
,222.500=0.346
,225.000=0.346
,225.500=0.346
,228.000=0.346
,228.500=0.346
#DISPLAYBPM:130.000;
#BGCHANGES:;
#ATTACKS:;

//---------------dance-single - DDRDAIKENKAI----------------
#NOTES:
     dance-single:
     DDRDAIKENKAI:
     Challenge:
     9:
     0.677,0.988,0.502,0.646,0.442: // measure 1
0000
0000
0000
0000
,  // measure 2
0000
0000
0000
0000
,  // measure 3
0000
0000
0000
0000
,  // measure 4
0000
0000
0000
0000
0000
0001
0010
0001
,  // measure 5
0101
0000
0000
0101
0000
0000
2002
0000
3003
0000
1100
0000
0100
0000
0010
0000
,  // measure 6
0110
0000
0100
1000
0000
0000
2020
0000
3030
0000
0101
0000
0001
0000
0010
0000
,  // measure 7
0011
0000
0001
1000
0000
0000
1010
0000
0010
0000
1010
0000
1000
0000
0100
0000
,  // measure 8
0110
0000
0000
0011
0000
0000
2200
3300
0000
0000
1000
0000
0010
0000
0100
0000
,  // measure 9
0020
0000
0000
0000
1030
0000
0001
0000
0000
1001
0000
0000
0000
0000
0000
1000
0000
0000
0001
0000
0000
0010
0000
0000
,  // measure 10
0002
0000
0000
0000
1003
0000
0100
0000
0000
1100
0000
0000
0000
0000
0000
0100
0000
0000
0010
0000
0000
0001
0000
0000
,  // measure 11
1000
0000
0000
0010
0000
0000
0110
0000
0000
0000
0010
0000
1000
0000
0001
0000
,  // measure 12
0202
0303
0000
0202
0303
0000
0202
0303
0000
0000
0001
1000
0001
1000
0001
0000
,  // measure 13
2000
0000
0000
3200
0000
0000
0320
0000
0000
0030
0001
0100
0010
0000
1000
0000
,  // measure 14
0200
0000
0000
2300
0000
0000
3020
0000
0000
0000
0130
0001
0100
0000
0010
0000
,  // measure 15
2000
0000
0000
3200
0000
0000
0320
0000
0000
0030
0001
0100
0001
0000
0010
0000
,  // measure 16
0200
0000
0000
2300
0000
0000
3002
0000
0000
0003
0100
0010
0100
0000
0010
0000
,  // measure 17
1010
0000
0000
1010
0000
0000
2001
0000
0000
0000
3001
0000
1000
0000
0001
0000
,  // measure 18
0101
0000
0000
0101
0000
0000
1002
0000
0000
0000
1003
0000
0100
0000
0010
0000
,  // measure 19
0011
0000
0000
0011
0000
0000
1200
0000
0000
0000
1300
0000
0010
0000
0000
0000
,  // measure 20
0110
0000
0000
0110
0000
0000
1002
0000
0000
0000
1003
0000
0001
0000
0100
0000
,  // measure 21
0110
0000
0000
0000
0000
0000
0010
0000
0000
1000
0000
0000
0000
0100
0000
0000
0000
0000
2000
0000
0000
0000
0000
0000
0000
0000
0000
0000
0000
0000
0001
0000
0000
0000
0000
0000
3001
0000
0000
0000
0000
0000
0010
0000
0000
0000
0000
0000
,  // measure 22
0100
0000
0000
1100
0000
0000
0020
0000
0000
0000
0000
0000
0000
0000
0031
0000
,  // measure 23
0100
0000
1000
0000
0100
0000
0001
0010
0000
0100
1000
0000
0000
0000
0001
0000
,  // measure 24
0100
0000
1000
0000
0200
0000
0000
0301
0000
0000
1000
0000
0000
0000
0100
0000
,  // measure 25
0010
0000
0000
0000
0000
0000
0000
0000
0000
0000
0000
0000
0000
0000
0000
0000
0000
0000
0000
0000
0000
0000
0000
0000
0100
0000
0000
0000
0000
0000
0000
0000
0000
0000
0000
0000
0000
0000
0000
0000
0000
0000
0000
0000
0000
0000
0000
0000
1000
0000
0000
0000
0000
0000
0000
0000
0000
0000
0000
0000
0000
0000
0000
0000
0000
0000
0010
0000
0000
0000
0000
0000
0000
0000
0000
0000
0000
0000
0000
0000
0000
0000
0000
0000
0000
0000
0000
0000
0100
0000
0000
0000
0000
0000
0000
0000
0000
0000
0000
0000
0000
0000
0000
0000
0000
0000
0000
0000
0000
0000
0000
0000
0000
0000
0000
0000
0000
0000
0000
0000
0000
0000
0000
0000
0000
0000
0000
0000
0110
0000
0000
0000
0000
0000
0000
0000
0000
0000
0000
0000
0000
0000
0000
0000
0000
0000
0000
0000
0000
0000
0000
0000
0000
0000
0000
0000
0000
0000
0000
0000
0000
0000
0000
0000
0000
0000
0000
0000
0010
0000
0000
0000
0000
0000
0000
0000
0000
0000
0000
0000
0000
0000
0000
0000
0000
0000
0000
0000
0000
0000
0000
0000
,  // measure 26
0100
0000
0000
0000
0000
0000
0001
0000
0000
0000
0000
0000
0010
0000
0000
0000
0000
0001
0000
0000
0000
0000
0100
0000
0000
0000
0000
0000
0000
0000
0210
0000
0000
0000
0000
0000
0000
0000
0000
0000
0000
0000
0310
0000
0000
0000
0000
0000
,  // measure 27
1000
0000
0100
0000
0002
0000
0000
0203
0000
0000
1300
0000
0000
0000
0001
0000
,  // measure 28
0010
0000
0100
0000
2000
0000
0000
3020
0000
0000
0032
0000
0000
0000
0010
0000
,  // measure 29
0013
0000
1000
0001
1000
0000
1000
0010
0100
0000
0001
0000
0020
0000
0000
0000
,  // measure 30
0031
0000
0001
1000
0001
0000
0010
0000
0001
0000
1000
0000
0200
0000
0000
0300
,  // measure 31
1000
0000
0000
0000
0000
0000
0000
0000
0000
0000
0000
0000
0000
0000
0000
0000
1000
0000
0000
0000
0000
0000
0000
0000
0000
0000
0000
0000
0000
0000
0000
0000
0000
0000
0000
0000
0000
0000
0000
0000
0000
0000
0000
0000
0000
0000
0000
0000
0001
0000
0000
0000
0000
0000
0000
0000
0000
0000
0000
0000
0000
0000
0000
0000
0000
0000
0000
0000
0000
0000
0000
0000
0000
0000
0000
0000
0000
0000
0001
0000
0000
0000
0000
0000
0000
0000
0000
0000
0000
0000
0000
0000
0000
0000
0000
0000
0100
0000
0000
0000
0000
0000
0000
0000
0000
0000
0000
0000
0000
0000
0000
0000
0000
0000
0000
0000
0000
0000
0000
0000
0010
0000
0000
0000
0000
0000
0000
0000
0000
0000
0000
0000
0000
0000
0000
0000
0000
0000
0000
0000
0000
0000
0000
0000
0100
0000
0000
0000
0000
0000
0000
0000
0000
0000
0000
0000
0000
0000
0000
0000
0000
0000
0000
0000
0000
0000
0000
0000
0001
0000
0000
0000
0000
0000
0000
0000
0000
0000
0000
0000
0000
0000
0000
0000
0000
0000
0000
0000
0000
0000
0000
0000
,  // measure 32
1000
0100
0010
0100
1000
0001
0100
0010
,  // measure 33
0100
0000
0000
0000
0001
0000
0001
0010
0100
0000
0100
0010
0002
0000
0000
0000
,  // measure 34
0103
0000
0000
0000
0010
0000
0010
1000
0100
0000
0100
1000
0020
0000
0000
0000
,  // measure 35
0130
0000
0000
0000
0001
0000
0010
0100
1000
0000
0100
0000
0010
0000
0100
0000
,  // measure 36
0010
0001
0100
0100
0001
0100
0020
0000
,  // measure 37
2030
0000
0000
0000
3400
0040
0000
0000
0000
0000
0000
0000
0000
0000
0000
0000
,  // measure 38
0000
0000
0000
0000
,  // measure 39
0000
0000
0000
0300
0004
0000
0000
0000
0000
0000
0000
0000
0000
0000
0000
0000
,  // measure 40
0000
0000
0000
0000
0000
0000
0000
0000
0000
0000
0000
0003
0032
0000
0000
0000
,  // measure 41
2003
0000
0000
0000
3040
0400
0000
0000
0000
0000
0000
0000
0000
0000
0000
0000
,  // measure 42
0000
0000
0000
0000
,  // measure 43
0000
0000
0000
0030
0004
0000
0000
0000
0000
0000
0000
0000
0000
0000
0000
0000
,  // measure 44
0000
0000
0000
0003
0301
0000
0000
0100
0000
0000
0010
0000
0000
0000
1000
0000
,  // measure 45
1001
0000
0001
0000
1000
0100
1000
0000
0010
0100
0001
0000
0010
0001
0010
0000
,  // measure 46
0100
0010
0100
0000
1000
0001
1000
0000
0010
1000
0100
0000
1000
0010
0100
0000
,  // measure 47
0010
1000
0001
0000
1000
0001
0100
0000
0001
0010
0100
0000
0010
0100
1000
0000
,  // measure 48
0001
0100
0001
0000
0100
0010
1000
0000
0010
0100
0001
0000
0011
0000
1001
0000
,  // measure 49
1200
0000
0000
0000
1300
0001
0010
0000
0001
0100
0010
0000
0100
0010
1000
0000
,  // measure 50
0010
1000
0100
0000
1000
0100
0010
0000
0100
1000
0010
0000
1010
0000
1001
0000
,  // measure 51
0102
0000
0000
0000
1003
0010
0100
0000
0001
0100
0010
0000
1000
0001
1000
0000
,  // measure 52
0010
0100
0010
0000
1010
0000
0000
1001
0000
0000
0011
0000
0001
1000
0001
0000
,  // measure 53
1000
0100
1000
0000
0001
1000
0100
0000
1000
0001
0100
0000
0010
0100
0010
0000
,  // measure 54
1000
0100
1000
0000
1010
0000
0010
1000
0001
0000
0001
0100
0220
0330
2020
3030
,  // measure 55
1000
0001
1000
0000
0001
0010
0001
0000
1000
0100
1000
0000
0010
0100
0001
0000
,  // measure 56
0100
0010
1000
0000
0100
0010
0001
0000
0022
0033
2200
3300
0001
0010
0100
0000
,  // measure 57
1000
0100
0010
0000
0220
0330
0022
0033
1000
0010
0100
0000
0001
0100
0010
0000
,  // measure 58
2002
3003
2002
3003
1000
0000
0002
0000
0023
0000
2030
0000
3020
0000
0032
0000
,  // measure 59
0203
0000
0302
0000
0103
0000
0010
1000
0000
0010
0100
0000
0110
0000
0010
0000
,  // measure 60
0102
0000
0000
0000
1003
0000
0000
1000
0100
0000
1000
0001
0100
0001
0100
0001
,  // measure 61
0100
0001
0100
0001
1000
0000
0000
0000
1010
0000
0000
0000
0100
0000
0000
0000
,  // measure 62
0101
0000
0000
0000
1000
0000
0000
1000
0001
0000
1000
0100
1000
0100
1000
0100
,  // measure 63
1000
0100
1000
0100
0010
0000
0000
0000
0011
0000
0000
0000
0100
0000
0000
0000
,  // measure 64
0110
0000
0000
0000
0010
0000
0000
0100
0001
0000
1000
0010
0100
0010
0100
0010
,  // measure 65
0100
0010
0100
0010
1000
0000
0000
0000
1010
0000
0000
0000
0010
0000
0000
0000
,  // measure 66
0110
2002
0000
0000
,  // measure 67
0000
0000
0000
0000
,  // measure 68
3003
0000
0000
0000
;

//---------------dance-single - DDRDAIKENKAI----------------
#NOTES:
     dance-single:
     DDRDAIKENKAI:
     Hard:
     8:
     0.502,0.561,0.151,0.271,0.187: // measure 1
0000
0000
0000
0000
,  // measure 2
0000
0000
0000
0000
,  // measure 3
0000
0000
0000
0000
,  // measure 4
0000
0000
0000
0000
0000
0001
1000
0001
,  // measure 5
0100
0000
0000
0100
0000
0000
0020
0000
0000
0000
1030
0000
0100
0000
1000
0000
,  // measure 6
0010
0000
0000
0100
0000
0000
0002
0000
0000
0000
1003
0000
0100
0000
0010
0000
,  // measure 7
0100
0000
0000
1000
0000
0000
0002
0000
0000
0000
0103
0000
0010
0000
1000
0000
,  // measure 8
0002
0000
0000
0023
0000
0000
0130
0000
0000
0000
1000
0000
0001
0000
0100
0000
,  // measure 9
0010
0000
0000
1000
0000
0000
1001
0000
0000
0000
0001
0000
1000
0000
0001
0000
,  // measure 10
0100
0000
0000
0001
0000
0000
1001
0000
0000
0000
0001
0000
0010
0000
0001
0000
,  // measure 11
0100
0000
0000
0100
0000
0000
0100
0000
0000
0000
0001
0000
0010
0000
0001
0000
,  // measure 12
1000
0000
0000
1000
0000
0000
1000
0000
0000
0000
0010
0000
0010
0000
0010
0000
,  // measure 13
1000
0000
0000
0001
0000
0000
0100
0000
0000
0000
0010
0000
1000
0000
0000
0000
,  // measure 14
0100
0000
0000
0010
0000
0000
0001
0000
0000
0000
1000
0000
0100
0000
0000
0000
,  // measure 15
1000
0000
0000
0001
0000
0000
0100
0000
0000
0000
0010
0000
1000
0000
0000
0000
,  // measure 16
0001
0000
0000
0010
0000
0000
0001
0000
0000
0000
0100
0000
0010
0000
0000
0000
,  // measure 17
0100
0000
0000
0100
0000
0000
0002
0000
0000
0000
1003
0000
0100
0000
0000
0000
,  // measure 18
0010
0000
0000
0010
0000
0000
0002
0000
0000
0000
1003
0000
0010
0000
0000
0000
,  // measure 19
0100
0000
0000
0100
0000
0000
0020
0000
0000
0000
1030
0000
0001
0000
0000
0000
,  // measure 20
1001
0000
0000
1001
0000
0000
1002
0000
0000
0000
1003
0000
0001
0000
0100
0000
,  // measure 21
0010
1000
0100
1000
0000
0001
0010
0100
,  // measure 22
1000
0000
0000
0001
0000
0000
0200
0000
0000
0000
0000
0000
0000
0000
0010
0000
,  // measure 23
0010
0310
1000
0100
1000
0010
0000
0100
,  // measure 24
0001
0000
0010
0000
0100
0000
0000
0010
0000
0000
0001
0000
0000
0000
1000
0000
,  // measure 25
0100
1000
0002
0000
1000
2003
0000
0010
,  // measure 26
3020
0000
0032
0000
0023
0000
2030
0100
,  // measure 27
3100
0000
1000
0000
0001
0000
0000
0010
0000
0000
0001
0000
0000
0000
1000
0000
,  // measure 28
0100
0000
1000
0000
0001
0000
0000
0001
0000
0000
1001
0000
0000
0000
0001
0000
,  // measure 29
0001
1000
0001
0100
0010
1000
0100
0000
,  // measure 30
1000
0000
0001
0000
0010
0000
0100
0000
1000
0000
0001
0000
0100
0000
0000
0100
,  // measure 31
0010
0000
0000
0010
1000
0000
0000
1000
0001
0000
0000
0001
0100
0000
0000
0100
,  // measure 32
1000
0000
0000
1000
0100
0000
0000
0100
0001
0000
0000
0001
0010
0000
0100
0000
,  // measure 33
1000
0000
0001
0001
1000
1000
0020
0000
,  // measure 34
1030
0000
0001
0001
0100
0100
0020
0000
,  // measure 35
1030
0000
0100
0001
0100
1000
0001
0100
,  // measure 36
0001
0001
1000
0100
1000
0010
0200
0000
,  // measure 37
0302
0000
0000
0000
0000
0000
0000
0000
0000
0000
0000
0000
2003
0000
0000
0000
0000
0000
0000
0000
0000
0000
0000
0000
0000
0000
0000
0000
0000
0000
0000
0000
0000
0000
0000
0000
3001
0000
0000
0000
0000
0000
0000
0100
0000
0000
0000
0000
,  // measure 38
0001
0000
0000
0000
0000
0000
0000
0100
0000
0000
0000
0000
0002
0000
0000
0000
0000
0000
0000
0000
0000
0000
0000
0000
1000
0000
0000
0000
0000
0000
0000
0000
0000
0000
0000
0000
0000
0000
0000
0000
0000
0000
0000
0000
0000
0000
0000
0000
,  // measure 39
1003
0000
0000
0000
0000
0000
0000
0000
0000
0000
0000
0000
0020
0000
0000
0000
0000
0000
0000
0000
0000
0000
0000
0000
0130
0000
0000
0000
0000
0000
0000
0010
0000
0000
0000
0000
0100
0000
0000
0000
0000
0000
0000
0010
0000
0000
0000
0000
,  // measure 40
2000
3200
0010
0320
,  // measure 41
0230
0000
2300
0000
0010
0000
3010
0100
,  // measure 42
0002
0000
1000
0000
1003
0001
0020
0000
,  // measure 43
0001
0000
0032
0000
0100
0000
1000
2003
,  // measure 44
0000
0000
3100
0000
0010
0000
0000
0001
0000
0000
0100
0000
0000
0000
0010
0000
,  // measure 45
0110
0010
1000
0100
1000
0010
0100
0001
,  // measure 46
0100
0010
1000
0100
1000
0010
0100
0001
,  // measure 47
0100
0010
1000
0100
0001
0100
0010
0001
,  // measure 48
0100
1000
0100
0010
1000
0100
0001
0100
,  // measure 49
1000
0000
1000
0010
0100
0001
1000
0001
,  // measure 50
0100
0010
1000
0100
0001
0100
1000
0010
,  // measure 51
1000
0000
1000
0001
0010
0100
1000
0010
,  // measure 52
0100
0001
1000
1000
0100
0100
0010
0010
,  // measure 53
1001
0000
0000
0000
1000
0010
0000
0000
0010
0100
0000
0000
0100
0001
0000
0000
,  // measure 54
0001
0010
0000
0000
0010
0000
1000
0000
0010
0000
0001
0000
0101
0000
0101
0000
,  // measure 55
0010
1000
0000
0000
1000
0100
0000
0000
0100
0001
0000
0000
0001
0100
0000
0000
,  // measure 56
0100
0010
0001
0100
0110
0110
0010
0001
,  // measure 57
0010
1000
1100
1100
0100
0001
0100
1000
,  // measure 58
1001
1001
1000
0001
0010
0001
1000
0100
,  // measure 59
1000
0100
0010
0001
1000
0001
0101
0000
,  // measure 60
0101
0000
0000
0000
0001
0000
0000
0001
0100
0000
0000
0000
0010
0000
1000
0000
,  // measure 61
0100
0000
0000
0000
1000
0000
0000
1000
0001
0000
0000
0000
0100
0000
0010
0000
,  // measure 62
1000
0000
0000
0000
0100
0000
0000
0100
0010
0000
0000
0000
0001
0000
0100
0000
,  // measure 63
1000
0000
0000
0000
0100
0000
0000
0100
0001
0000
0000
0000
0010
0000
0001
0000
,  // measure 64
0100
0000
0000
0000
0010
0000
0000
0010
1000
0000
0000
0000
0001
0000
0100
0000
,  // measure 65
0010
0000
0000
0000
1000
0000
0000
1000
0001
0000
0000
0000
0100
0000
0010
0000
,  // measure 66
1000
2002
0000
0000
,  // measure 67
0000
0000
0000
0000
,  // measure 68
3003
0000
0000
0000
;

//---------------dance-single - DDRDAIKENKAI----------------
#NOTES:
     dance-single:
     DDRDAIKENKAI:
     Medium:
     5:
     0.394,0.507,0.088,0.303,0.000: // measure 1
0000
0000
0000
0000
,  // measure 2
0000
0000
0000
0000
,  // measure 3
0000
0000
0000
0000
,  // measure 4
0000
0000
0000
0000
0000
0001
1000
0001
,  // measure 5
1000
0000
0001
0000
0100
0010
0100
0000
,  // measure 6
0001
0000
1000
0000
0100
0010
0100
0000
,  // measure 7
1000
0001
0100
0010
,  // measure 8
2000
0000
3001
0000
0100
0010
0100
0010
,  // measure 9
0200
0000
0310
0000
1000
0100
1000
0000
,  // measure 10
0020
0000
0130
0000
0001
0010
0001
0000
,  // measure 11
0100
0010
1000
0001
,  // measure 12
0100
0000
0100
0000
0100
0001
0100
0001
,  // measure 13
1000
0000
0100
0000
0010
0001
0010
0000
,  // measure 14
0001
0000
0010
0000
0100
1000
0100
0000
,  // measure 15
1000
0000
0100
0000
0010
0001
0010
0000
,  // measure 16
0001
0000
0010
0000
0100
1000
0100
0000
,  // measure 17
1000
0000
0001
0000
0100
0010
0100
0000
,  // measure 18
0001
0000
1000
0000
0010
0100
0010
0000
,  // measure 19
1000
0000
0001
0000
0100
0001
0100
0000
,  // measure 20
0001
0010
0100
1000
,  // measure 21
0001
0000
0100
0001
0000
0001
0100
0000
,  // measure 22
0010
0000
1000
0200
0000
0000
0000
1000
,  // measure 23
1300
0000
1000
0000
0010
0100
0000
0100
,  // measure 24
0001
0000
0010
0000
0100
0010
0000
0010
,  // measure 25
0001
0000
1000
0100
1000
0000
0001
0000
,  // measure 26
0001
0000
0100
0010
0100
0000
0001
0000
,  // measure 27
0001
0000
1000
0000
0100
0000
0010
0001
,  // measure 28
0100
0000
0010
0000
0010
1000
0000
1000
,  // measure 29
1000
0001
0001
0000
0001
0000
0020
0000
,  // measure 30
0130
1000
0100
0000
0010
0000
0002
0000
,  // measure 31
1003
0010
1000
0000
0001
0000
0200
0000
,  // measure 32
0310
0000
1000
0000
0100
0000
0010
0001
,  // measure 33
0010
0001
0100
0020
,  // measure 34
1030
0100
1000
0020
,  // measure 35
0130
0001
0010
1000
,  // measure 36
0010
0000
0001
0100
0001
0100
0002
0000
,  // measure 37
2003
3200
0010
0000
,  // measure 38
0010
0000
0010
0000
,  // measure 39
0010
0320
0001
0000
,  // measure 40
0001
0000
0001
0032
,  // measure 41
0203
0320
2000
0030
,  // measure 42
0001
0000
0001
0000
,  // measure 43
3001
0002
1000
0000
,  // measure 44
1003
0000
0001
0000
0100
0010
1000
0000
,  // measure 45
0001
1000
0010
0000
1000
0000
0100
0010
,  // measure 46
0001
0000
1000
0000
0001
0000
0100
0010
,  // measure 47
1000
0000
0100
1000
0100
0000
0010
0001
,  // measure 48
0010
0002
0023
0230
,  // measure 49
2300
0000
3001
0100
0001
0000
1000
0010
,  // measure 50
1000
0020
2030
3002
,  // measure 51
0203
0000
0310
1000
0010
0000
0100
0001
,  // measure 52
1000
0000
0010
1000
0010
0000
0100
0001
,  // measure 53
0100
0000
0001
0010
0001
0010
0001
0000
,  // measure 54
1000
0000
0100
1000
0100
0000
1100
1100
,  // measure 55
1000
0001
1000
0001
1000
0000
0001
0000
,  // measure 56
0100
0010
0100
0000
0110
0110
0010
1000
,  // measure 57
0010
0000
1010
1010
1000
0001
1000
0000
,  // measure 58
1001
1001
0001
0010
0002
0003
1000
0100
,  // measure 59
1000
0010
0100
0101
,  // measure 60
0101
0000
0002
0000
0103
0010
1000
0000
,  // measure 61
0010
0200
0301
2000
,  // measure 62
3100
0000
0020
0000
0130
0000
1000
0010
,  // measure 63
0100
0002
0103
0020
,  // measure 64
0130
0000
0020
0000
1030
0000
0100
1000
,  // measure 65
0010
0200
0301
0200
,  // measure 66
0310
0220
0000
0000
,  // measure 67
0000
0000
0000
0000
,  // measure 68
0330
0000
0000
0000
;

//---------------dance-single - DDRDAIKENKAI----------------
#NOTES:
     dance-single:
     DDRDAIKENKAI:
     Beginner:
     1:
     0.178,0.214,0.000,0.080,0.000: // measure 1
0000
0000
0000
0000
,  // measure 2
0000
0000
0000
0000
,  // measure 3
0000
0000
0000
0000
,  // measure 4
0000
0000
0000
0000
,  // measure 5
1000
1000
1000
0000
,  // measure 6
0001
0001
0001
0000
,  // measure 7
0100
0000
0010
0000
,  // measure 8
0100
0100
0100
0000
,  // measure 9
0010
0010
0010
0000
,  // measure 10
1000
1000
1000
0000
,  // measure 11
0100
0100
0100
0000
,  // measure 12
0010
0010
0010
0000
,  // measure 13
0001
0001
0001
0000
,  // measure 14
1000
1000
1000
0000
,  // measure 15
0001
0001
0001
0000
,  // measure 16
1000
1000
1000
0000
,  // measure 17
0100
0100
0100
0000
,  // measure 18
0100
0100
0100
0000
,  // measure 19
0010
0010
0010
0000
,  // measure 20
0010
0010
0010
0010
,  // measure 21
0010
0010
0000
0001
,  // measure 22
0000
2000
0000
0000
,  // measure 23
3000
0000
0001
0000
,  // measure 24
0100
0000
0010
0000
,  // measure 25
1000
0000
0001
0000
,  // measure 26
0001
0000
1000
0000
,  // measure 27
1000
1000
1000
1000
,  // measure 28
0000
0001
0001
0001
,  // measure 29
0001
0001
0000
1000
,  // measure 30
0000
0100
0100
0100
,  // measure 31
0000
1000
0000
0001
,  // measure 32
0000
0100
0100
0100
,  // measure 33
0000
0010
0010
0010
,  // measure 34
0000
1000
1000
1000
,  // measure 35
0000
0001
0001
0001
,  // measure 36
0001
0001
0001
0001
,  // measure 37
0000
2000
0000
0000
,  // measure 38
0000
0000
0000
3000
,  // measure 39
0000
0002
0000
0000
,  // measure 40
0000
0000
0000
0003
,  // measure 41
0000
0200
0000
0000
,  // measure 42
0000
0000
0000
0300
,  // measure 43
0000
0020
0000
0000
,  // measure 44
0000
0000
0000
0030
,  // measure 45
0000
1000
1000
1000
,  // measure 46
0000
0001
0001
0001
,  // measure 47
0000
0100
0100
0100
,  // measure 48
0000
0010
0010
0010
,  // measure 49
0010
0010
0000
1000
,  // measure 50
0000
0001
0001
0001
,  // measure 51
0001
0001
0000
1000
,  // measure 52
0000
0010
0010
0010
,  // measure 53
0000
0010
0010
0010
,  // measure 54
0000
2000
3000
0000
,  // measure 55
0001
0001
0001
0000
,  // measure 56
0200
0300
0000
0020
,  // measure 57
0030
0000
0200
0300
,  // measure 58
0000
0010
0000
0010
,  // measure 59
0000
1000
0000
0001
,  // measure 60
0001
0000
1000
0000
,  // measure 61
0001
0000
1000
0000
,  // measure 62
0001
0000
0100
0000
,  // measure 63
0010
0000
0100
0000
,  // measure 64
0010
0000
0100
0000
,  // measure 65
0001
0000
1000
0000
,  // measure 66
0100
0200
0000
0000
,  // measure 67
0000
0000
0000
0000
,  // measure 68
0300
0000
0000
0000
;

//---------------dance-single - DDRDAIKENKAI----------------
#NOTES:
     dance-single:
     DDRDAIKENKAI:
     Easy:
     4:
     0.252,0.294,0.000,0.199,0.000: // measure 1
0000
0000
0000
0000
,  // measure 2
0000
0000
0000
0000
,  // measure 3
0000
0000
0000
0000
,  // measure 4
0000
0000
0000
0000
,  // measure 5
0010
1000
0100
0000
,  // measure 6
0010
0001
0100
0000
,  // measure 7
0001
0010
0100
1000
,  // measure 8
0001
1000
0001
0000
,  // measure 9
0100
0010
1000
0000
,  // measure 10
0010
0100
0001
0000
,  // measure 11
0100
0010
1000
0001
,  // measure 12
0100
0100
0100
0001
,  // measure 13
0001
0010
1000
0000
,  // measure 14
1000
0010
0001
0000
,  // measure 15
0001
0100
1000
0000
,  // measure 16
1000
0100
0001
0000
,  // measure 17
0001
0010
0100
1000
,  // measure 18
1000
0100
0010
0001
,  // measure 19
0001
1000
0001
1000
,  // measure 20
0100
0100
0100
0100
,  // measure 21
1000
0010
0000
0010
,  // measure 22
0100
0001
0000
0000
,  // measure 23
0001
0010
0100
0000
,  // measure 24
0100
1000
0001
0000
,  // measure 25
0001
0000
1000
0000
,  // measure 26
1000
0000
0001
0000
,  // measure 27
0001
0100
0010
0000
,  // measure 28
0010
1000
0001
0000
,  // measure 29
0001
1000
0100
0020
,  // measure 30
0031
0001
0010
0200
,  // measure 31
1300
1000
0001
2000
,  // measure 32
3001
0001
1000
0002
,  // measure 33
1003
1000
0010
0200
,  // measure 34
0301
0001
0100
0020
,  // measure 35
1030
1000
0100
0010
,  // measure 36
0001
0100
0100
0010
,  // measure 37
1000
0200
0000
0000
,  // measure 38
0000
0000
0000
0000
,  // measure 39
0000
2300
0000
0000
,  // measure 40
0000
0000
0000
3020
,  // measure 41
0230
0302
0000
0000
,  // measure 42
0000
0000
0000
0000
,  // measure 43
0000
2003
0000
0000
,  // measure 44
0000
3002
0000
0203
,  // measure 45
0000
0310
1000
0100
,  // measure 46
0010
0100
1000
0010
,  // measure 47
0100
0001
0010
0100
,  // measure 48
1000
0010
0100
0001
,  // measure 49
1000
0001
0100
0010
,  // measure 50
1000
0100
0010
0001
,  // measure 51
1000
0001
0010
0100
,  // measure 52
1000
0010
0100
0001
,  // measure 53
1000
0010
0010
1000
,  // measure 54
1000
0000
0001
0000
1000
0000
0200
0300
,  // measure 55
1000
0001
0100
0010
,  // measure 56
0100
0000
0001
0000
0200
0300
0001
0000
,  // measure 57
0010
0000
0200
0300
1000
0000
0010
0000
,  // measure 58
0200
0300
0010
0000
1000
0000
0001
0000
,  // measure 59
0100
0100
0001
1000
,  // measure 60
1000
0002
1003
0000
,  // measure 61
1000
0200
0310
0000
,  // measure 62
0010
0002
1003
0000
,  // measure 63
1000
0200
0310
0000
,  // measure 64
0010
0200
1300
0000
,  // measure 65
1000
0020
1030
0000
,  // measure 66
1000
0002
0000
0000
,  // measure 67
0000
0000
0000
0000
,  // measure 68
0003
0000
0000
0000
;
